<?xml version="1.0" standalone="no"?>
<!DOCTYPE svg PUBLIC "-//W3C//DTD SVG 1.1//EN" "http://www.w3.org/Graphics/SVG/1.1/DTD/svg11.dtd" >
<svg xmlns="http://www.w3.org/2000/svg" xmlns:xlink="http://www.w3.org/1999/xlink" version="1.1">
<metadata>
Created by FontForge 20170731 at Wed Jun 10 09:38:12 2020
 By Aleksey,,,
Copyright (c) 2019 by www.fontiran.com All rights reserved.
</metadata>
<defs>
<font id="PeydaWeb-Black" horiz-adv-x="0" >
  <font-face 
    font-family="PeydaWeb Black"
    font-weight="900"
    font-stretch="normal"
    units-per-em="1000"
    panose-1="0 0 0 0 0 0 0 0 0 0"
    ascent="800"
    descent="-200"
    x-height="500"
    cap-height="674"
    bbox="-233 -450 1479 1294"
    underline-thickness="50"
    underline-position="-175"
    unicode-range="U+000D-FEFC"
  />
<missing-glyph horiz-adv-x="250" 
 />
    <glyph glyph-name="uniFDF2" unicode="&#x627;&#xfedf;&#xfee0;&#xfeea;" horiz-adv-x="1270" arabic-form="isolated" 
d="M40 221v69q0 31 11 61t30.5 56t47 45t60.5 28l108 28v85h144v-389q0 -13 11 -23.5t23 -10.5h70q11 0 19 8t8 20v327h144v-333q2 -9 9.5 -15t17.5 -6h97q11 0 19 8t8 20v388h144v-388q0 -41 -15.5 -77.5t-42.5 -63.5t-63.5 -42.5t-77.5 -15.5h-43q-35 0 -67 10.5t-58 30.5
q-26 -20 -58 -30.5t-67 -10.5h-36q-47 3 -86.5 25.5t-65.5 58.5q-21 -10 -47 -10h-98q-29 0 -55.5 12t-46.5 32.5t-32 47t-12 55.5zM1081 706h149v-707h-149v707zM567 798v-101q0 -4 6 -4h11q7 0 8.5 1.5t2.5 4.5l20 101l87 -15l-15 -86v-2q0 -4 3 -4h37v113h109v-140
q0 -36 -25.5 -61.5t-61.5 -25.5h-52q-32 0 -59 14q-28 -15 -62 -15q-24 0 -46 9.5t-38 25.5t-25.5 38t-9.5 46v101h110zM600 967h89v-136h-89v136zM184 245h113v109l-66 -19q-20 -5 -33.5 -20.5t-13.5 -37.5v-32z" />
    <glyph glyph-name="uniFEF5" unicode="&#xfedf;&#xfe82;" horiz-adv-x="578" arabic-form="isolated" 
d="M40 124l109 14l-49 521l148 19l46 -521l58 7q20 2 35.5 14t15.5 42v487h145v-486q0 -35 -14 -70.5t-39.5 -65.5t-60.5 -50.5t-76 -25.5l-298 -39zM-30 742q0 29 9 49.5t24.5 33.5t35 19.5t40.5 6.5h221v-124h-232q-9 0 -9 -8v-34h-89v57z" />
    <glyph glyph-name="uniFEF6" unicode="&#xfee0;&#xfe82;" horiz-adv-x="614" arabic-form="final" 
d="M40 123l110 14l-49 522l147 18l45 -521l59 7q20 2 35.5 13t15.5 43v489h144v-509q0 -5 5.5 -17t16.5 -12h45q14 0 14 -14v-142q0 -14 -14 -14h-15q-40 0 -74.5 14t-60.5 40q-23 -17 -49.5 -29.5t-56.5 -16.5l-298 -38zM-30 685v57q0 29 9 49.5t24.5 33.5t35 19.5
t40.5 6.5h221v-124h-232q-9 0 -9 -8v-34h-89z" />
    <glyph glyph-name="uniFEF7" unicode="&#xfedf;&#xfe84;" horiz-adv-x="599" arabic-form="isolated" 
d="M60 124l109 14l-49 521l148 19l46 -521l58 7q20 2 35.5 14t15.5 42v487h145v-486q0 -35 -14 -70.5t-39.5 -65.5t-60.5 -50.5t-76 -25.5l-298 -39zM40 789l64 27q-1 0 -7 2t-12 16l-3 7q-2 3 -2.5 5.5t-1.5 3.5q-11 25 -11 48q0 20 13 48t53 45l87 36l42 -104l-79 -33
q-4 -2 -4.5 -3.5t-0.5 -2.5q0 -2 3 -8q2 -4 3 -7.5t5 -10.5l100 52l48 -96l-248 -126z" />
    <glyph glyph-name="uniFEF8" unicode="&#xfee0;&#xfe84;" horiz-adv-x="614" arabic-form="final" 
d="M40 123l110 14l-49 522l147 18l45 -521l59 7q20 2 35.5 13t15.5 43v489h144v-509q0 -5 5.5 -17t16.5 -12h45q14 0 14 -14v-142q0 -14 -14 -14h-15q-40 0 -74.5 14t-60.5 40q-23 -17 -49.5 -29.5t-56.5 -16.5l-298 -38zM40 789l64 27q-1 0 -7 2t-12 16l-3 7q-2 3 -2.5 5.5
t-1.5 3.5q-11 25 -11 48q0 20 13 48t53 45l87 36l42 -104l-79 -33q-4 -2 -4.5 -3.5t-0.5 -2.5q0 -2 3 -8q2 -4 3 -7.5t5 -10.5l100 52l48 -96l-248 -126z" />
    <glyph glyph-name="uniFEF9" unicode="&#xfedf;&#xfe88;" horiz-adv-x="577" arabic-form="isolated" 
d="M40 124l109 14l-49 521l148 19l46 -521l58 7q20 2 35.5 14t15.5 42v487h145v-486q0 -35 -14 -70.5t-39.5 -65.5t-60.5 -50.5t-76 -25.5l-298 -39zM77 -306l64 27q-1 0 -7 2t-12 16l-3 7q-2 3 -2.5 5.5t-1.5 3.5q-11 25 -11 48q0 20 13 48t53 45l87 36l42 -104l-79 -33
q-4 -2 -4.5 -3.5t-0.5 -2.5q0 -2 3 -8q2 -4 3 -7.5t5 -10.5l100 52l48 -96l-248 -126z" />
    <glyph glyph-name="uniFEFA" unicode="&#xfee0;&#xfe88;" horiz-adv-x="614" arabic-form="final" 
d="M150 137l-49 522l147 18l45 -521l59 7q20 2 35.5 13t15.5 43v489h144v-509q0 -5 5.5 -17t16.5 -12h45q14 0 14 -14v-142q0 -14 -14 -14h-15q-40 0 -74.5 14t-60.5 40q-23 -17 -49.5 -29.5t-56.5 -16.5l-298 -38l-20 153zM78 -306l64 27q-1 0 -7 2t-12 16l-3 7
q-2 3 -2.5 5.5t-1.5 3.5q-11 25 -11 48q0 20 13 48t53 45l87 36l42 -104l-79 -33q-4 -2 -4.5 -3.5t-0.5 -2.5q0 -2 3 -8q2 -4 3 -7.5t5 -10.5l100 52l48 -96l-248 -126z" />
    <glyph glyph-name="uniFEFB" unicode="&#xfedf;&#xfe8e;" horiz-adv-x="577" arabic-form="isolated" 
d="M149 138l-49 521l148 19l46 -521l58 7q20 2 35.5 14t15.5 42v487h145v-486q0 -35 -14 -70.5t-39.5 -65.5t-60.5 -50.5t-76 -25.5l-298 -39l-20 154z" />
    <glyph glyph-name="uniFEFC" unicode="&#xfee0;&#xfe8e;" horiz-adv-x="614" arabic-form="final" 
d="M150 137l-49 522l147 18l45 -521l59 7q20 2 35.5 13t15.5 43v489h144v-509q0 -5 5.5 -17t16.5 -12h45q14 0 14 -14v-142q0 -14 -14 -14h-15q-40 0 -74.5 14t-60.5 40q-23 -17 -49.5 -29.5t-56.5 -16.5l-298 -38l-20 153z" />
    <glyph glyph-name="uniFEB3FBFD" unicode="&#xfeb3;&#xfbfd;" horiz-adv-x="1379" 
d="M183 314v-264q0 -20 7.5 -37.5t20.5 -30t30 -20t36 -7.5h208q26 0 44.5 18.5t18.5 44.5v16l-256 57v105q0 44 16.5 82.5t44 67.5t63.5 48.5t75 26.5l80 14q16 3 31 3q38 0 81 -19t73 -64l101 -154q8 -14 20 -23t29 -9q14 0 26.5 7.5t14.5 19.5l39 201l142 -25l-35 -182
q2 -10 9.5 -15.5t17.5 -5.5h86v259h145v-279q0 -30 -12.5 -57t-33.5 -47.5t-48 -33t-56 -12.5h-79q-29 0 -51 11.5t-45 41.5q-23 -30 -54 -41.5t-64 -11.5q-28 0 -50.5 7.5t-42 22t-37 35.5t-35.5 49l-91 136q-8 14 -21 19.5t-26 5.5h-8l-106 -17q-21 -2 -38 -15t-17 -33
v-12l150 -21q24 -4 43 -16t33 -29.5t21.5 -39.5t7.5 -46v-32q0 -48 -13 -89.5t-37.5 -72t-61 -48.5t-84.5 -18h-211q-50 0 -95 19.5t-78.5 52.5t-53 77.5t-19.5 95.5v284h145z" />
    <glyph glyph-name="uniFEB4FBFD" unicode="&#xfeb4;&#xfbfd;" horiz-adv-x="1417" 
d="M183 315v-264q0 -20 7.5 -37.5t20.5 -30t30 -20t36 -7.5h208q26 0 44.5 18.5t18.5 44.5v16l-256 57v105q0 44 16.5 82.5t44 67.5t63.5 48.5t75 26.5l80 14q16 3 31 3q38 0 81 -19t73 -64l101 -153q8 -14 20 -23t29 -9q14 0 26.5 7.5t14.5 18.5l39 201l142 -25l-35 -181
v-5q0 -7 5 -12t15 -5h65q11 0 19.5 8t8.5 20v229h145v-227q0 -12 7.5 -21t20.5 -9h38q14 0 14 -13v-142q0 -15 -14 -15h-15q-36 0 -67 13.5t-56 44.5q-27 -31 -59.5 -44.5t-68.5 -13.5q-15 0 -32 2.5t-34 9t-32.5 16.5t-26.5 25q-23 -30 -54 -41.5t-64 -11.5
q-28 0 -50.5 7.5t-42 22t-37 35.5t-35.5 49l-91 136q-8 14 -21 19.5t-26 5.5h-8l-106 -17q-21 -2 -38 -15t-17 -33v-12l150 -21q24 -4 43 -16t33 -29.5t21.5 -39.5t7.5 -46v-32q0 -48 -13 -89.5t-37.5 -72t-61 -48.5t-84.5 -18h-211q-50 0 -95 19.5t-78.5 52.5t-53 77.5
t-19.5 95.5v284h145z" />
    <glyph glyph-name="uniFEB7FBFD" unicode="&#xfeb7;&#xfbfd;" horiz-adv-x="1379" 
d="M38 313h145v-264q0 -19 7.5 -36.5t20.5 -30t30 -20t36 -7.5h208q26 0 44.5 18.5t18.5 44.5v15l-256 57v105q0 44 16.5 82.5t44 68t63.5 49t75 26.5l80 13q17 3 33 3q37 0 79.5 -19t72.5 -64l101 -152q8 -14 20 -23.5t29 -9.5q14 0 26.5 8t14.5 19l39 201l142 -26
l-36 -181q2 -9 10 -15t18 -6h86v259h145v-279q0 -30 -12.5 -57t-33.5 -48t-48 -33t-56 -12h-79q-29 0 -51 11t-45 41q-23 -30 -54.5 -41t-63.5 -11q-29 0 -51.5 7.5t-41.5 21.5t-36.5 35t-35.5 49l-91 137q-8 14 -21 19t-26 6q-4 -1 -8 -1l-106 -16q-21 -3 -38 -15.5
t-17 -32.5v-12l150 -22q24 -3 43 -15t32.5 -29.5t21 -39.5t7.5 -46v-33q0 -47 -12.5 -88.5t-37.5 -72.5t-61 -48.5t-84 -17.5h-211q-51 0 -95.5 19t-78 52t-53 77.5t-19.5 95.5v284zM896 612h62v105h130v-105h68v-135h-260v135z" />
    <glyph glyph-name="uniFEB8FBFD" unicode="&#xfeb8;&#xfbfd;" horiz-adv-x="1417" 
d="M183 315v-264q0 -20 7.5 -37.5t20.5 -30t30 -20t36 -7.5h208q26 0 44.5 18.5t18.5 44.5v16l-256 57v105q0 44 16.5 82.5t44 67.5t63.5 48.5t75 26.5l80 14q16 3 31 3q38 0 81 -19t73 -64l101 -153q8 -14 20 -23t29 -9q14 0 26.5 7.5t14.5 18.5l39 201l142 -25l-35 -181
v-5q0 -7 5 -12t15 -5h65q11 0 19.5 8t8.5 20v229h145v-227q0 -12 7.5 -21t20.5 -9h38q14 0 14 -13v-142q0 -15 -14 -15h-15q-36 0 -67 13.5t-56 44.5q-27 -31 -59.5 -44.5t-68.5 -13.5q-15 0 -32 2.5t-34 9t-32.5 16.5t-26.5 25q-23 -30 -54 -41.5t-64 -11.5
q-28 0 -50.5 7.5t-42 22t-37 35.5t-35.5 49l-91 136q-8 14 -21 19.5t-26 5.5h-8l-106 -17q-21 -2 -38 -15t-17 -33v-12l150 -21q24 -4 43 -16t33 -29.5t21.5 -39.5t7.5 -46v-32q0 -48 -13 -89.5t-37.5 -72t-61 -48.5t-84.5 -18h-211q-50 0 -95 19.5t-78.5 52.5t-53 77.5
t-19.5 95.5v284h145zM895 477v135h62v105h130v-105h68v-135h-260z" />
    <glyph glyph-name="uniFEBBFBFD" unicode="&#xfebb;&#xfbfd;" horiz-adv-x="1438" 
d="M183 313v-264q0 -19 7.5 -36.5t20.5 -30t30 -20t36 -7.5h208q26 0 44.5 18.5t18.5 44.5v15l-256 57v105q0 44 16.5 82.5t44 68.5t63.5 49.5t75 25.5l80 13q16 3 32 3q37 0 79.5 -18.5t70.5 -59.5l65 -98q10 -17 18 -29t8 -14l135 146q35 38 82 58.5t98 20.5h61
q39 0 73.5 -14.5t60 -39.5t40 -58.5t14.5 -71.5v-52q0 -43 -16.5 -80.5t-45 -65.5t-66.5 -44.5t-82 -16.5h-255q-60 0 -111 27.5t-89 84.5l-91 136q-9 14 -22 19.5t-25 5.5h-8l-106 -16q-21 -3 -38 -16t-17 -33v-11l150 -22q48 -7 76 -44.5t28 -85.5v-33q0 -48 -12.5 -89
t-37.5 -72t-61 -48.5t-84 -17.5h-211q-51 0 -95.5 19t-77.5 52t-52 77.5t-19 95.5v284h143zM991 170h237q13 0 23 10t10 24v43q0 13 -8.5 21.5t-21.5 8.5h-99q-43 0 -71 -31z" />
    <glyph glyph-name="uniFEBCFBFD" unicode="&#xfebc;&#xfbfd;" horiz-adv-x="1465" 
d="M38 314h145v-265q0 -40 27.5 -67t66.5 -27h208q26 0 44 18t18 44v17l-255 57v105q0 44 16.5 82.5t44 67.5t63.5 48.5t75 26.5l80 14q17 3 33 3q37 0 79.5 -19t72.5 -64v0v0l5.5 -9t15.5 -24.5t21.5 -34t21.5 -34.5q8 -12 13.5 -21t6.5 -11l132 144q35 38 82 58.5t98 20.5
h62q38 0 72 -14.5t59 -39.5t39.5 -58.5t14.5 -71.5l1 -54q1 -20 8 -28t18 -8h39q14 0 14 -14v-142q0 -14 -14 -14h-15q-74 0 -128 42q-28 -20 -61 -31t-70 -11h-249q-60 0 -110.5 28t-88.5 85l-91 136q-9 14 -22 19.5t-25 5.5h-8l-106 -16q-21 -2 -38 -15.5t-17 -33.5v-11
l150 -22q23 -3 42.5 -15t33 -30t21 -40t7.5 -46v-32q0 -48 -12.5 -89.5t-37.5 -72t-61 -48.5t-84 -18h-211q-51 0 -95.5 19.5t-78 52.5t-53 77.5t-19.5 95.5v284zM983 170h237q15 0 24.5 10t9.5 24v44q0 13 -8.5 22t-22.5 9h-98q-21 0 -39.5 -8t-31.5 -24z" />
    <glyph glyph-name="uniFEBFFBFD" unicode="&#xfebf;&#xfbfd;" horiz-adv-x="1438" 
d="M183 313v-264q0 -19 7.5 -36.5t20.5 -30t30 -20t36 -7.5h208q26 0 44.5 18.5t18.5 44.5v15l-256 57v105q0 44 16.5 82.5t44 68.5t63.5 49.5t75 25.5l80 13q16 3 32 3q37 0 79.5 -18.5t70.5 -59.5l65 -98q10 -17 18 -29t8 -14l135 146q35 38 82 58.5t98 20.5h61
q39 0 73.5 -14.5t60 -39.5t40 -58.5t14.5 -71.5v-52q0 -43 -16.5 -80.5t-45 -65.5t-66.5 -44.5t-82 -16.5h-255q-60 0 -111 27.5t-89 84.5l-91 136q-9 14 -22 19.5t-25 5.5h-8l-106 -16q-21 -3 -38 -16t-17 -33v-11l150 -22q48 -7 76 -44.5t28 -85.5v-33q0 -48 -12.5 -89
t-37.5 -72t-61 -48.5t-84 -17.5h-211q-51 0 -95.5 19t-77.5 52t-52 77.5t-19 95.5v284h143zM991 170h237q13 0 23 10t10 24v43q0 13 -8.5 21.5t-21.5 8.5h-99q-43 0 -71 -31zM1123 644h130v-135h-130v135z" />
    <glyph glyph-name="uniFEC0FBFD" unicode="&#xfec0;&#xfbfd;" horiz-adv-x="1465" 
d="M38 314h145v-265q0 -40 27.5 -67t66.5 -27h208q26 0 44 18t18 44v17l-255 57v105q0 44 16.5 82.5t44 67.5t63.5 48.5t75 26.5l80 14q17 3 33 3q37 0 79.5 -19t72.5 -64v0v0l5.5 -9t15.5 -24.5t21.5 -34t21.5 -34.5q8 -12 13.5 -21t6.5 -11l132 144q35 38 82 58.5t98 20.5
h62q38 0 72 -14.5t59 -39.5t39.5 -58.5t14.5 -71.5l1 -54q1 -20 8 -28t18 -8h39q14 0 14 -14v-142q0 -14 -14 -14h-15q-74 0 -128 42q-28 -20 -61 -31t-70 -11h-249q-60 0 -110.5 28t-88.5 85l-91 136q-9 14 -22 19.5t-25 5.5h-8l-106 -16q-21 -2 -38 -15.5t-17 -33.5v-11
l150 -22q23 -3 42.5 -15t33 -30t21 -40t7.5 -46v-32q0 -48 -12.5 -89.5t-37.5 -72t-61 -48.5t-84 -18h-211q-51 0 -95.5 19.5t-78 52.5t-53 77.5t-19.5 95.5v284zM1220 170q15 0 24.5 10t9.5 24v44q0 13 -8.5 22t-22.5 9h-98q-21 0 -39.5 -8t-31.5 -24l-71 -77h237z
M1101 509v135h130v-135h-130z" />
    <glyph glyph-name="uniFE92FBFD" unicode="&#xfe92;&#xfbfd;" horiz-adv-x="933" 
d="M183 312v-263q0 -20 7.5 -37.5t20.5 -30t30 -20t36 -7.5h208q26 0 44.5 18.5t18.5 44.5v15l-256 58v104q0 44 16.5 82.5t44 68.5t63.5 49.5t75 25.5l80 13q16 3 31 3q38 0 81 -19t73 -64q15 -23 32.5 -49t32.5 -49q17 -27 34 -53q5 -6 17 -19t35 -13h26q14 0 14 -13v-143
q0 -14 -14 -14h-24q-29 0 -52 7t-42 21t-36.5 35t-35.5 49l-91 136q-9 14 -21.5 19t-25.5 6q-4 -1 -8 -1l-106 -16q-21 -3 -38 -15.5t-17 -32.5v-12l150 -22q24 -3 43 -15t32.5 -29.5t21 -39.5t7.5 -46v-32q0 -48 -12.5 -89.5t-37.5 -72t-61 -48.5t-84 -18h-211
q-51 0 -95.5 19t-78 52.5t-53 78t-19.5 95.5v283h145zM871 -121v-135h-130v135h130z" />
    <glyph glyph-name="uniFB59FBFD" unicode="&#xfb59;&#xfbfd;" horiz-adv-x="1008" 
d="M38 312h145v-263q0 -20 7.5 -37.5t20.5 -30t30 -20t36 -7.5h208q26 0 44.5 18.5t18.5 44.5v15l-256 58v104q0 44 16.5 82.5t44 68.5t63.5 49.5t75 25.5l80 13q16 3 31 3q38 0 81 -19t73 -64q15 -23 32.5 -49t32.5 -49q17 -27 34 -53q5 -6 17 -19t35 -13h101q14 0 14 -13
v-143q0 -14 -14 -14h-99q-29 0 -52 7t-42 21t-36.5 35t-35.5 49l-91 136q-9 14 -21.5 19t-25.5 6q-4 -1 -8 -1l-106 -16q-21 -3 -38 -15.5t-17 -32.5v-12l150 -22q24 -3 43 -15t32.5 -29.5t21 -39.5t7.5 -46v-32q0 -48 -12.5 -89.5t-37.5 -72t-61 -48.5t-84 -18h-211
q-51 0 -95.5 19t-78 52.5t-53 78t-19.5 95.5v283zM709 -120h260v-135h-62v-105h-130v105h-68v135z" />
    <glyph glyph-name="uniFE98FBFD" unicode="&#xfe98;&#xfbfd;" horiz-adv-x="933" 
d="M38 312h145v-263q0 -20 7.5 -37.5t20.5 -30t30 -20t36 -7.5h208q26 0 44.5 18.5t18.5 44.5v15l-256 58v104q0 44 16.5 82.5t44 68.5t63.5 49.5t75 25.5l80 13q16 3 31 3q38 0 81 -19t73 -64q15 -23 32.5 -49t32.5 -49q17 -27 34 -53q5 -6 17 -19t35 -13h26q14 0 14 -13
v-143q0 -14 -14 -14h-24q-29 0 -52 7t-42 21t-36.5 35t-35.5 49l-91 136q-9 14 -21.5 19t-25.5 6q-4 -1 -8 -1l-106 -16q-21 -3 -38 -15.5t-17 -32.5v-12l150 -22q24 -3 43 -15t32.5 -29.5t21 -39.5t7.5 -46v-32q0 -48 -12.5 -89.5t-37.5 -72t-61 -48.5t-84 -18h-211
q-51 0 -95.5 19t-78 52.5t-53 78t-19.5 95.5v283zM558 657h260v-135h-260v135z" />
    <glyph glyph-name="uniFE9CFBFD" unicode="&#xfe9c;&#xfbfd;" horiz-adv-x="933" 
d="M183 312v-263q0 -20 7.5 -37.5t20.5 -30t30 -20t36 -7.5h208q26 0 44.5 18.5t18.5 44.5v15l-256 58v104q0 44 16.5 82.5t44 68.5t63.5 49.5t75 25.5l80 13q16 3 31 3q38 0 81 -19t73 -64q15 -23 32.5 -49t32.5 -49q17 -27 34 -53q5 -6 17 -19t35 -13h26q14 0 14 -13v-143
q0 -14 -14 -14h-24q-29 0 -52 7t-42 21t-36.5 35t-35.5 49l-91 136q-9 14 -21.5 19t-25.5 6q-4 -1 -8 -1l-106 -16q-21 -3 -38 -15.5t-17 -32.5v-12l150 -22q24 -3 43 -15t32.5 -29.5t21 -39.5t7.5 -46v-32q0 -48 -12.5 -89.5t-37.5 -72t-61 -48.5t-84 -18h-211
q-51 0 -95.5 19t-78 52.5t-53 78t-19.5 95.5v283h145zM528 652h62v105h130v-105h68v-135h-260v135z" />
    <glyph glyph-name="uniFEE8FBFD" unicode="&#xfee8;&#xfbfd;" horiz-adv-x="933" 
d="M183 312v-263q0 -20 7.5 -37.5t20.5 -30t30 -20t36 -7.5h208q26 0 44.5 18.5t18.5 44.5v15l-256 58v104q0 44 16.5 82.5t44 68.5t63.5 49.5t75 25.5l80 13q16 3 31 3q38 0 81 -19t73 -64q15 -23 32.5 -49t32.5 -49q17 -27 34 -53q5 -6 17 -19t35 -13h26q14 0 14 -13v-143
q0 -14 -14 -14h-24q-29 0 -52 7t-42 21t-36.5 35t-35.5 49l-91 136q-9 14 -21.5 19t-25.5 6q-4 -1 -8 -1l-106 -16q-21 -3 -38 -15.5t-17 -32.5v-12l150 -22q24 -3 43 -15t32.5 -29.5t21 -39.5t7.5 -46v-32q0 -48 -12.5 -89.5t-37.5 -72t-61 -48.5t-84 -18h-211
q-51 0 -95.5 19t-77.5 52.5t-52 78t-19 95.5v283h143zM593 522v135h130v-135h-130z" />
    <glyph glyph-name="uniFBFDFE8C" unicode="&#xfe8c;&#xfbfd;" horiz-adv-x="933" 
d="M40 312h143v-263q0 -20 7.5 -37.5t20.5 -30t30 -20t36 -7.5h208q26 0 44.5 18.5t18.5 44.5v15l-256 58v104q0 44 16.5 82.5t44 68.5t63.5 49.5t75 25.5l80 13q16 3 31 3q38 0 81 -19t73 -64q15 -23 32.5 -49t32.5 -49q17 -27 34 -53q5 -6 17 -19t35 -13h26q14 0 14 -13
v-143q0 -14 -14 -14h-24q-29 0 -52 7t-42 21t-36.5 35t-35.5 49l-91 136q-9 14 -21.5 19t-25.5 6q-4 -1 -8 -1l-106 -16q-21 -3 -38 -15.5t-17 -32.5v-12l150 -22q24 -3 43 -15t32.5 -29.5t21 -39.5t7.5 -46v-32q0 -48 -12.5 -89.5t-37.5 -72t-61 -48.5t-84 -18h-211
q-51 0 -95.5 19t-77.5 52.5t-52 78t-19 95.5v283zM521 625l64 27q-1 0 -7 2t-12 16l-3 7q-2 3 -2.5 5.5t-1.5 3.5q-11 25 -11 48q0 20 13 48t53 45l87 36l42 -104l-79 -33q-4 -2 -4.5 -3.5t-0.5 -2.5q0 -2 3 -8q2 -4 3 -7.5t5 -10.5l100 52l48 -96l-248 -126z" />
    <glyph glyph-name="uniFBFDFBFF" unicode="&#xfbff;&#xfbfd;" horiz-adv-x="1034" 
d="M183 312v-263q0 -20 7.5 -37.5t20.5 -30t30 -20t36 -7.5h208q26 0 44.5 18.5t18.5 44.5v15l-256 58v104q0 44 16.5 82.5t44 68.5t63.5 49.5t75 25.5l80 13q16 3 31 3q38 0 81 -19t73 -64q15 -23 32.5 -49t32.5 -49q17 -27 34 -53q5 -6 17 -19t35 -13h127q14 0 14 -13
v-143q0 -14 -14 -14h-125q-29 0 -52 7t-42 21t-36.5 35t-35.5 49l-91 136q-9 14 -21.5 19t-25.5 6q-4 -1 -8 -1l-106 -16q-21 -3 -38 -15.5t-17 -32.5v-12l150 -22q24 -3 43 -15t32.5 -29.5t21 -39.5t7.5 -46v-32q0 -48 -12.5 -89.5t-37.5 -72t-61 -48.5t-84 -18h-211
q-51 0 -95.5 19t-77.5 52.5t-52 78t-19 95.5v283h143zM721 -120h260v-135h-260v135z" />
    <glyph glyph-name="uni0621" unicode="&#x621;" horiz-adv-x="406" arabic-form="isolated" 
d="M111 131q-1 0 -8.5 5t-15.5 21l-6 13q-12 27 -12 52t9 46t26.5 37.5t39.5 25.5l99 41l48 -119l-91 -37q-5 -2 -5 -7q0 -4 3 -11q2 -4 3.5 -7.5t5.5 -11.5l114 60l55 -110l-283 -144l-53 110z" />
    <glyph glyph-name="uni0622" unicode="&#x622;" horiz-adv-x="299" arabic-form="isolated" 
d="M96 631h145v-631h-145v631zM-30 643v57q0 29 9 49.5t24.5 33.5t35 19.5t40.5 6.5h201v-124h-212q-9 0 -9 -8v-34h-89z" />
    <glyph glyph-name="uni0623" unicode="&#x623;" horiz-adv-x="194" arabic-form="isolated" 
d="M168 631v-631h-145v631h145zM-33 772l64 27q-1 0 -7 2.5t-12 16.5q-2 4 -3 7l-4 8q-11 26 -11 48q0 20 13.5 48.5t52.5 45.5l87 36l42 -105l-80 -32q-3 -2 -3.5 -4l-0.5 -2q0 -3 3 -9q2 -4 3 -7.5t4 -10.5l100 53l49 -96l-249 -127z" />
    <glyph glyph-name="uni0624" unicode="&#x624;" horiz-adv-x="509" arabic-form="isolated" 
d="M38 209l18 92q6 31 21.5 57t38.5 45t52 30t61 11h55q38 0 72 -14.5t59 -39.5t39.5 -59t14.5 -72v-219q0 -43 -13 -82t-36.5 -72t-56.5 -58t-73 -39l-158 -54l-43 133l158 54q33 11 54.5 33t21.5 57v5q-14 -8 -34.5 -12.5t-40.5 -4.5h-37q-41 0 -76.5 18t-59.5 47
t-32 58.5t-8 51.5q0 17 3 34zM144 634q-1 0 -7 2t-12 16q-2 4 -3 7q-2 3 -2.5 5.5t-1.5 3.5q-10 23 -10 45t8 41t23 33t34 22l87 36l42 -104l-79 -33q-5 -2 -5 -7q0 -3 3 -9q2 -3 3 -6t5 -10l100 52l48 -96l-248 -126l-49 101zM183 174q3 -4 8 -4h134v90q-2 16 -18 18h-94
h-1q-11 0 -16 -14l-16 -81v-2q0 -4 3 -7z" />
    <glyph glyph-name="uni0625" unicode="&#x625;" horiz-adv-x="234" arabic-form="isolated" 
d="M190 706v-706h-145v706h145zM32 -236q-1 0 -7 2t-12 16q-2 4 -3 7q-2 3 -2.5 5.5t-1.5 3.5q-10 23 -10 45t8 41t23 33t34 22l87 36l42 -104l-79 -33q-5 -2 -5 -7q0 -3 3 -9q2 -3 3 -6t5 -10l100 52l48 -96l-248 -126l-49 101z" />
    <glyph glyph-name="uni0626" unicode="&#x626;" horiz-adv-x="751" arabic-form="isolated" 
d="M42 261h144v-207q0 -40 27.5 -67t66.5 -27h225q26 0 44 18t18 44v16l-287 67v127q0 42 14 80.5t40 68.5t62.5 50t81.5 26l160 21l24 -161l-184 -23q-25 -3 -41 -19.5t-16 -41.5v-14l186 -39q47 -10 75.5 -48t28.5 -86v-30q0 -47 -17.5 -88.5t-48.5 -72t-72 -48.5t-88 -18
h-199q-51 0 -95.5 19t-77.5 52t-52 77.5t-19 95.5v228zM104 496q-1 0 -7 2t-12 16q-2 4 -3 7q-2 3 -2.5 5.5t-1.5 3.5q-10 23 -10 45t8 41t23 33t34 22l87 36l42 -104l-79 -33q-5 -2 -5 -7q0 -3 3 -9q2 -3 3 -6t5 -10l100 52l48 -96l-248 -126l-49 101z" />
    <glyph glyph-name="uni0627" unicode="&#x627;" horiz-adv-x="214" arabic-form="isolated" 
d="M40 0v706h144v-706h-144z" />
    <glyph glyph-name="uni0628" unicode="&#x628;" horiz-adv-x="866" arabic-form="isolated" 
d="M40 223v204h145v-194q0 -26 18.5 -44.5t44.5 -18.5h415q12 0 20 8.5t8 19.5v229h145v-228q0 -41 -15.5 -77.5t-42.5 -63.5t-63.5 -42.5t-77.5 -15.5h-378q-45 0 -85 17.5t-70 48t-47 71t-17 86.5zM501 -118v-135h-130v135h130z" />
    <glyph glyph-name="uni0629" unicode="&#x629;" horiz-adv-x="509" arabic-form="isolated" 
d="M40 197v29q1 55 27.5 95.5t59.5 58.5q2 2 4 2l3 2l-69 46l77 116l11 -7q11 -7 28.5 -18.5t40 -26t45.5 -29.5q55 -36 125 -82q27 -17 43.5 -37t26.5 -40t13.5 -40t3.5 -37v-31q0 -33 -11.5 -69.5t-37 -67.5t-65.5 -51.5t-98 -20.5h-21q-54 0 -92.5 20.5t-64 51.5
t-37.5 67.5t-12 68.5zM118 621v135h260v-135h-260zM186 185q2 -7 7.5 -14t13.5 -11.5t17 -4.5h4h61q15 0 24 5t13.5 11t6 11.5t1.5 7.5v42q0 5 -3 14.5t-17 17.5q-7 4 -18.5 10.5t-22.5 13.5q-12 8 -26 17l-46 -40q-4 -3 -10.5 -9t-6.5 -19v-42q0 -3 2 -10z" />
    <glyph glyph-name="uni062A" unicode="&#x62a;" horiz-adv-x="872" arabic-form="isolated" 
d="M40 223v204h145v-194q0 -26 18.5 -44.5t44.5 -18.5h421q12 0 20 8.5t8 19.5v229h145v-228q0 -41 -15.5 -77.5t-42.5 -63.5t-63.5 -42.5t-77.5 -15.5h-380q-46 0 -86.5 17.5t-71 48t-48 71t-17.5 86.5zM310 427v135h260v-135h-260z" />
    <glyph glyph-name="uni062B" unicode="&#x62b;" horiz-adv-x="872" arabic-form="isolated" 
d="M40 223v204h145v-194q0 -26 18.5 -44.5t44.5 -18.5h421q12 0 20 8.5t8 19.5v229h145v-228q0 -41 -15.5 -77.5t-42.5 -63.5t-63.5 -42.5t-77.5 -15.5h-380q-46 0 -86.5 17.5t-71 48t-48 71t-17.5 86.5zM316 562h62v105h130v-105h68v-135h-260v135z" />
    <glyph glyph-name="uni062C" unicode="&#x62c;" horiz-adv-x="709" arabic-form="isolated" 
d="M40 280l30 101q10 33 31.5 58t49.5 40t48.5 17t29.5 2q23 0 45 -6l405 -121l-38 -134l-73 21q-10 3 -15 3.5t-7 0.5q-5 0 -8 -1q-6 -1 -10 -3l-264 -198q-21 -16 -32 -39.5t-11 -49.5t9.5 -48t26.5 -39t39.5 -26.5t47.5 -9.5h279v-170h-279q-59 0 -111 22t-90.5 60.5
t-61 89t-22.5 107.5q0 60 25.5 110.5t70.5 82.5q36 26 59 42.5t41.5 30t36.5 27.5t43 33q19 14 34 24q10 6 12 7l-167 49h-2q-2 0 -5 -1t-5 -6l-38 -108zM407 -59v135h130v-135h-130z" />
    <glyph glyph-name="uni062D" unicode="&#x62d;" horiz-adv-x="709" arabic-form="isolated" 
d="M40 280l30 101q10 33 31.5 58t49.5 40t48.5 17t29.5 2q23 0 45 -6l405 -121l-38 -134l-73 21q-10 3 -15 3.5t-7 0.5q-5 0 -8 -1q-6 -1 -10 -3l-264 -198q-21 -16 -32 -39.5t-11 -49.5t9.5 -48t26.5 -39t39.5 -26.5t47.5 -9.5h279v-170h-279q-59 0 -111 22t-90.5 60.5
t-61 89t-22.5 107.5q0 60 25.5 110.5t70.5 82.5q36 26 59 42.5t41.5 30t36.5 27.5t43 33q19 14 34 24q10 6 12 7l-167 49h-2q-2 0 -5 -1t-5 -6l-38 -108z" />
    <glyph glyph-name="uni062E" unicode="&#x62e;" horiz-adv-x="709" arabic-form="isolated" 
d="M40 280l30 101q10 33 31.5 58t49.5 40t48.5 17t29.5 2q23 0 45 -6l405 -121l-38 -134l-73 21q-10 3 -15 3.5t-7 0.5q-5 0 -8 -1q-6 -1 -10 -3l-264 -198q-21 -16 -32 -39.5t-11 -49.5t9.5 -48t26.5 -39t39.5 -26.5t47.5 -9.5h279v-170h-279q-59 0 -111 22t-90.5 60.5
t-61 89t-22.5 107.5q0 60 25.5 110.5t70.5 82.5q36 26 59 42.5t41.5 30t36.5 27.5t43 33q19 14 34 24q10 6 12 7l-167 49h-2q-2 0 -5 -1t-5 -6l-38 -108zM137 702h130v-135h-130v135z" />
    <glyph glyph-name="uni062F" unicode="&#x62f;" horiz-adv-x="568" arabic-form="isolated" 
d="M40 153v150h120v-117q0 -16 17 -16h167q30 0 39.5 15t9.5 26q0 13 -9 29l-130 235l123 79l136 -243q25 -44 25 -96q0 -3 -1 -31.5t-25 -75t-67 -77.5t-99 -31h-153q-31 0 -59 12t-49 33t-33 49t-12 59z" />
    <glyph glyph-name="uni0630" unicode="&#x630;" horiz-adv-x="568" arabic-form="isolated" 
d="M40 303h120v-117q0 -16 17 -16h167q30 0 39.5 15t9.5 26q0 13 -9 29l-130 235l123 79l136 -243q25 -44 25 -96q0 -3 -1 -31.5t-25 -75t-67 -77.5t-99 -31h-153q-31 0 -59 12t-49 33t-33 49t-12 59v150zM212 621v135h130v-135h-130z" />
    <glyph glyph-name="uni0631" unicode="&#x631;" horiz-adv-x="379" arabic-form="isolated" 
d="M122 -75q33 11 53 38.5t20 62.5v370h144v-355q0 -43 -13 -82.5t-36.5 -72.5t-56.5 -58t-73 -38l-158 -54l-43 133z" />
    <glyph glyph-name="uni0632" unicode="&#x632;" horiz-adv-x="379" arabic-form="isolated" 
d="M122 -75q33 11 53 38.5t20 62.5v370h144v-355q0 -43 -13 -82.5t-36.5 -72.5t-56.5 -58t-73 -38l-158 -54l-43 133zM331 612v-135h-130v135h130z" />
    <glyph glyph-name="uni0633" unicode="&#x633;" horiz-adv-x="1219" arabic-form="isolated" 
d="M185 382v-294q0 -19 7.5 -36t20.5 -30t30 -20t36 -7h183q30 0 52 21.5t22 52.5v330h143v-205q0 -11 8.5 -17.5t18.5 -6.5h35q13 0 23 7.5t12 20.5l40 200l147 -26l-34 -170v-5q0 -9 6.5 -17.5t19.5 -8.5h89v257h145v-280q0 -29 -12 -56t-33 -47.5t-48 -32.5t-57 -12h-69
q-30 0 -65 11.5t-58 40.5q-26 -29 -49.5 -40.5t-55.5 -11.5q-26 0 -41 7t-23 14v-15q0 -29 -15 -61t-42.5 -58.5t-68 -44t-91.5 -17.5h-177q-51 0 -95.5 19.5t-77.5 52.5t-52 77.5t-19 94.5v313h145z" />
    <glyph glyph-name="uni0634" unicode="&#x634;" horiz-adv-x="1219" arabic-form="isolated" 
d="M185 385v-297q0 -19 7.5 -36t20.5 -30t30 -20t36 -7h181q30 0 52 21.5t22 52.5v333h145v-208q0 -11 8.5 -17.5t18.5 -6.5h35q13 0 23 7.5t12 20.5l40 203l147 -26l-34 -173v-5q0 -9 6.5 -17.5t19.5 -8.5h89v260h145v-283q0 -29 -12 -56t-33 -47.5t-48 -32.5t-57 -12h-69
q-30 0 -65 11.5t-58 40.5q-26 -29 -49.5 -40.5t-55.5 -11.5q-26 0 -41 7t-23 14v-15q0 -29 -15 -61t-42.5 -58.5t-68 -44t-91.5 -17.5h-177q-51 0 -95.5 19.5t-77.5 52.5t-52 77.5t-19 94.5v316h145zM717 477v135h62v105h130v-105h68v-135h-260z" />
    <glyph glyph-name="uni0635" unicode="&#x635;" horiz-adv-x="1256" arabic-form="isolated" 
d="M185 384v-295q0 -19 8 -36t21 -29.5t30.5 -20t36.5 -7.5h182q29 0 50.5 21.5t21.5 52.5v328h145v-110q0 -13 2 -20.5t4 -11.5q2 -5 5 -7l108 115q35 37 82 58t98 21h62q38 0 72 -14.5t59 -39.5t39.5 -58.5t14.5 -71.5v-52q0 -43 -16.5 -80.5t-44.5 -65.5t-66 -44.5
t-81 -16.5h-149q-19 0 -47.5 3.5t-56.5 9.5t-52 15t-35 19v-33q0 -41 -18 -75.5t-48 -59.5t-69.5 -39t-81.5 -14h-175q-51 0 -96 19.5t-78.5 52.5t-52.5 77.5t-19 94.5v314h145zM1048 170q14 0 24 10t10 24v43q0 12 -9 21.5t-22 9.5h-109q-41 0 -71 -32l-72 -76h249z" />
    <glyph glyph-name="uni0636" unicode="&#x636;" horiz-adv-x="1256" arabic-form="isolated" 
d="M185 384v-295q0 -19 8 -36t21 -29.5t30.5 -20t36.5 -7.5h182q29 0 50.5 21.5t21.5 52.5v328h145v-110q0 -13 2 -20.5t4 -11.5q2 -5 5 -7l108 115q35 37 82 58t98 21h62q38 0 72 -14.5t59 -39.5t39.5 -58.5t14.5 -71.5v-52q0 -43 -16.5 -80.5t-44.5 -65.5t-66 -44.5
t-81 -16.5h-149q-19 0 -47.5 3.5t-56.5 9.5t-52 15t-35 19v-33q0 -41 -18 -75.5t-48 -59.5t-69.5 -39t-81.5 -14h-175q-51 0 -96 19.5t-78.5 52.5t-52.5 77.5t-19 94.5v314h145zM799 170h249q14 0 24 10t10 24v43q0 12 -9 21.5t-22 9.5h-109q-41 0 -71 -32zM892 649h130
v-135h-130v135z" />
    <glyph glyph-name="uni0637" unicode="&#x637;" horiz-adv-x="733" arabic-form="isolated" 
d="M96 170l100 109v428h144v-225q0 -12 -2.5 -24t-6 -22t-6.5 -16.5t-4 -8.5q0 -2 -2 -4l-1 -3q31 19 66 29.5t73 10.5h61q39 0 73 -14.5t58.5 -39.5t39 -58.5t14.5 -72.5v-51q0 -43 -16.5 -81t-44.5 -66t-66 -44.5t-81 -16.5h-455v170h56zM525 170q14 0 24 9.5t10 23.5v45
q0 13 -9 21.5t-22 8.5h-99q-43 0 -71 -31l-69 -77h236z" />
    <glyph glyph-name="uni0638" unicode="&#x638;" horiz-adv-x="717" arabic-form="isolated" 
d="M80 170l100 109v428h144v-225q0 -12 -3 -24.5t-6 -22.5q-5 -13 -10 -24q1 0 1 -1l-2.5 -3l-2.5 -3v0h1q31 19 66 29.5t73 10.5h61q39 0 73 -14.5t58.5 -39.5t39 -58.5t14.5 -72.5v-51q0 -43 -16.5 -81t-44.5 -66t-66 -44.5t-81 -16.5h-439v170h40zM273 170h236
q14 0 24 9.5t10 23.5v45q0 13 -9 21.5t-22 8.5h-99q-43 0 -71 -31zM523 647v-135h-130v135h130z" />
    <glyph glyph-name="uni0639" unicode="&#x639;" horiz-adv-x="577" arabic-form="isolated" 
d="M45 -89q5 25 17.5 52t34.5 55t55 52q-8 4 -15.5 13t-10.5 23l-32 154q-3 17 -3 33q0 22 8.5 51t33 57t60 45t76.5 17h195v-155h-200q-12 0 -18.5 -8.5t-6.5 -17.5v-5l32 -155l15 5q12 4 29 9t37.5 11.5t41.5 13.5q50 16 111 35l42 -131l-283 -89q-26 -8 -44.5 -35.5
t-18.5 -62.5q0 -26 10 -46t26.5 -34.5t39.5 -22t48 -7.5h158v-171h-158q-61 0 -113 20.5t-90 57t-60 86t-22 106.5q0 19 5 44z" />
    <glyph glyph-name="uni063A" unicode="&#x63a;" horiz-adv-x="577" arabic-form="isolated" 
d="M45 -89q5 25 17.5 52t34.5 55t55 52q-8 4 -15.5 13t-10.5 23l-32 154q-3 17 -3 33q0 22 8.5 51t33 57t60 45t76.5 17h195v-155h-200q-12 0 -18.5 -8.5t-6.5 -17.5v-5l32 -155l15 5q12 4 29 9t37.5 11.5t41.5 13.5q50 16 111 35l42 -131l-283 -89q-26 -8 -44.5 -35.5
t-18.5 -62.5q0 -26 10 -46t26.5 -34.5t39.5 -22t48 -7.5h158v-171h-158q-61 0 -113 20.5t-90 57t-60 86t-22 106.5q0 19 5 44zM371 708v-135h-130v135h130z" />
    <glyph glyph-name="uni0641" unicode="&#x641;" horiz-adv-x="871" arabic-form="isolated" 
d="M184 427v-192q0 -13 5.5 -25t15 -21t21.5 -14t25 -5h422q10 0 17 6t7 18v46q-4 -4 -11 -8q-5 -3 -14 -5.5t-21 -2.5h-55q-43 0 -78.5 16.5t-59.5 45t-32 58t-8 51.5q0 18 4 37l12 62q6 31 22 57t39 45t52 30t60 11h53q38 0 70.5 -14.5t57.5 -39t39 -57.5t14 -70v-257
q0 -41 -15.5 -77t-42.5 -63t-63.5 -43t-77.5 -16h-381q-44 0 -84 17.5t-70.5 47.5t-48.5 70t-18 85v207h144zM565 850h130v-135h-130v135zM559 377q3 -5 9 -5h129v96v2q0 6 -4.5 9.5t-11.5 4.5h-93q-16 0 -19 -16l-13 -81v-2q0 -5 3 -8z" />
    <glyph glyph-name="uni0642" unicode="&#x642;" horiz-adv-x="710" arabic-form="isolated" 
d="M40 304h143v-265q0 -19 7.5 -36.5t20.5 -30t30.5 -20t36.5 -7.5h184q31 0 52.5 17t21.5 41v10q-2 -2 -23 -7.5t-50 -5.5h-29q-43 0 -79 18t-61 48t-33 60.5t-8 53.5q0 18 3 36l16 78q6 31 22 57.5t39 45.5t51.5 29.5t60.5 10.5h55q38 0 70.5 -14t57 -38.5t38.5 -57.5
t14 -70v-261q0 -46 -17 -86t-47 -70t-70 -47.5t-86 -17.5h-176q-50 0 -94.5 19t-77.5 52t-52.5 77.5t-19.5 95.5v285zM345 642h260v-135h-260v135zM400 176q4 -5 10 -5h126v83q0 6 -5 11t-11 5h-89q-16 0 -19 -16l-14 -68q-1 -2 -1 -4q0 -3 3 -6z" />
    <glyph glyph-name="uni0643" unicode="&#x643;" horiz-adv-x="872" arabic-form="isolated" 
d="M40 428h145v-195q0 -26 18.5 -44.5t44.5 -18.5h421q12 0 20 8.5t8 19.5v558h145v-557q0 -41 -16 -77.5t-43 -63.5t-63 -42.5t-77 -15.5h-380q-46 0 -86.5 17.5t-71 48t-48 71t-17.5 86.5v205zM286 448l64 27q-1 0 -7 2t-12 16q-2 4 -3 7q-2 3 -2.5 5.5t-1.5 3.5
q-10 23 -10 45t8 41t23 33t34 22l87 36l42 -104l-79 -33q-5 -2 -5 -7q0 -3 3 -9q2 -3 3 -6t5 -10l100 52l48 -96l-248 -126z" />
    <glyph glyph-name="uni0644" unicode="&#x644;" horiz-adv-x="720" arabic-form="isolated" 
d="M185 353v-264q0 -19 7.5 -36.5t20.5 -30t30 -20t36 -7.5h182q32 0 53 21.5t21 52.5v638h145v-662q0 -45 -17 -85t-47 -70t-70 -47.5t-86 -17.5h-176q-50 0 -94.5 19t-77.5 52t-52.5 77.5t-19.5 95.5v284h145z" />
    <glyph glyph-name="uni0645" unicode="&#x645;" horiz-adv-x="713" arabic-form="isolated" 
d="M48 -243v488q0 41 15.5 77.5t42.5 63.5t63.5 42.5t77.5 15.5h251q38 0 72 -14.5t59 -39.5t39.5 -59t14.5 -72v-111q0 -30 -12 -56.5t-32.5 -47t-47.5 -32.5t-57 -12h-109q-42 0 -77 17.5t-58.5 47t-32 60t-8.5 54.5q0 16 3 32l12 68h-43q-11 0 -19.5 -7t-8.5 -18v-497
h-145zM397 174q3 -4 6 -4h2h133v90v2q0 7 -5 11.5t-12 4.5h-108l-19 -95v-2q0 -4 3 -7z" />
    <glyph glyph-name="uni0646" unicode="&#x646;" horiz-adv-x="720" arabic-form="isolated" 
d="M185 383v-296q0 -20 7.5 -37t20 -29.5t29.5 -19.5t36 -7h183q31 0 52.5 21.5t21.5 52.5v330h145v-354q0 -45 -17.5 -85t-47.5 -70t-70 -47.5t-86 -17.5h-175q-51 0 -95.5 19t-77.5 52t-52 77.5t-19 95.5v315h145zM425 533v-135h-130v135h130z" />
    <glyph glyph-name="uni0647" unicode="&#x647;" horiz-adv-x="509" arabic-form="isolated" 
d="M40 197v29q1 55 27.5 95.5t59.5 58.5q2 2 4 2l3 2l-69 46l77 116l11 -7q11 -7 28.5 -18.5t40 -26t45.5 -29.5q55 -36 125 -82q27 -17 43.5 -37t26.5 -40t13.5 -40t3.5 -37v-31q0 -33 -11.5 -69.5t-37 -67.5t-65.5 -51.5t-98 -20.5h-21q-54 0 -92.5 20.5t-64 51.5
t-37.5 67.5t-12 68.5zM184 237v-42q0 -3 2 -10t7.5 -14t13.5 -11.5t17 -4.5h4h61q15 0 24 5t13.5 11t6 11.5t1.5 7.5v42q0 5 -3 14.5t-17 17.5q-7 4 -18.5 10.5t-22.5 13.5q-12 8 -26 17l-46 -40q-4 -3 -10.5 -9t-6.5 -19z" />
    <glyph glyph-name="uni0648" unicode="&#x648;" horiz-adv-x="509" arabic-form="isolated" 
d="M38 209l18 92q6 31 21.5 57t38.5 45t52 30t61 11h55q38 0 72 -14.5t59 -39.5t39.5 -59t14.5 -72v-219q0 -43 -13 -82t-36.5 -72t-56.5 -58t-73 -39l-158 -54l-43 133l158 54q33 11 54.5 33t21.5 57v5q-14 -8 -34.5 -12.5t-40.5 -4.5h-37q-41 0 -76.5 18t-59.5 47
t-32 58.5t-8 51.5q0 17 3 34zM183 174q3 -4 8 -4h134v90q-2 16 -18 18h-94h-1q-11 0 -16 -14l-16 -81v-2q0 -4 3 -7z" />
    <glyph glyph-name="uni0649" unicode="&#x649;" horiz-adv-x="750" arabic-form="isolated" 
d="M185 261v-208q0 -40 27.5 -67t66.5 -27h225q26 0 44 18t18 44v17l-287 67v127q0 42 14 80.5t40 68.5t62.5 50t81.5 26l160 21l24 -161l-184 -23q-25 -3 -41 -19.5t-16 -41.5v-14l186 -39q47 -10 75.5 -48t28.5 -86v-30q0 -47 -17.5 -88.5t-48.5 -72t-72 -48.5t-88 -18
h-199q-51 0 -95.5 19t-77.5 52t-52.5 77.5t-19.5 95.5v228h145z" />
    <glyph glyph-name="uni064A" unicode="&#x64a;" horiz-adv-x="749" arabic-form="isolated" 
d="M184 261v-208q0 -40 27.5 -67t66.5 -27h225q26 0 44 18t18 44v17l-287 67v127q0 42 14 80.5t40 68.5t62.5 50t81.5 26l160 21l24 -161l-184 -23q-25 -3 -41 -19.5t-16 -41.5v-14l186 -39q47 -10 75.5 -48t28.5 -86v-30q0 -47 -17.5 -88.5t-48.5 -72t-72 -48.5t-88 -18
h-199q-51 0 -95.5 19t-77.5 52t-52.5 77.5t-19.5 95.5v228h145zM246 -315h260v-135h-260v135z" />
    <glyph glyph-name="uni064B" unicode="&#xfe70;" arabic-form="isolated" 
d="M-172 700l-18 101l358 77l22 -101zM-172 838l-18 101l358 77l22 -101z" />
    <glyph glyph-name="uni064C" unicode="&#xfe72;" arabic-form="isolated" 
d="M-202 793l43 11l-21 76l82 21l19 -76l38 7q-2 11 -4.5 19t-5.5 30q0 5 -1 10q1 15 6 29.5t16 27t25 20.5t29 11l53 11q8 2 16 2q11 0 26 -5t29.5 -18t25 -30.5t13.5 -36.5l4 -26q2 -9 2 -17q0 -14 -5.5 -30t-19 -31.5t-32 -26t-38.5 -15.5l-12 -2q-12 -3 -31.5 -7
t-44.5 -9t-51 -10q-61 -13 -138 -29zM50 871l5 -22l29 8q10 3 10 7v1l-5 14q-2 6 -3.5 6t-5.5 -1l-24 -6q-6 -2 -6 -5v-2z" />
    <glyph glyph-name="uni064D" unicode="&#xfe74;" arabic-form="isolated" 
d="M-173 -309l-17 95l358 77l21 -95zM-173 -171l-17 95l358 76l21 -94z" />
    <glyph glyph-name="uni064E" unicode="&#xfe76;" arabic-form="isolated" 
d="M-172 701l-18 101l358 77l22 -101z" />
    <glyph glyph-name="uni064F" unicode="&#xfe78;" arabic-form="isolated" 
d="M-178 800l111 24q-2 5 -3 8.5t-2.5 8t-3 12t-2.5 20.5v8q0 17 7 33t19.5 29t28.5 21.5t31 11.5l51 9q7 1 13 1q13 0 29 -5t31 -17.5t25 -29.5t13 -36l5 -26q2 -10 2 -19q0 -13 -5.5 -29t-19.5 -31.5t-33 -26t-39 -14.5l-11 -2q-11 -2 -28 -6t-39 -8.5t-44 -9.5
q-53 -11 -121 -26zM33 866l7 -23l29 9q10 2 10 6q0 1 -1 3l-7 18q-1 2 -2.5 3t-2.5 1q-2 0 -4 -1l-24 -10q-4 -2 -5 -2t-1 -1t1 -3z" />
    <glyph glyph-name="uni0650" unicode="&#xfe7a;" arabic-form="isolated" 
d="M-173 -178l-18 101l358 77l22 -101z" />
    <glyph glyph-name="uni0651" unicode="&#xfe7c;" arabic-form="isolated" 
d="M-195 819v105h100v-105q0 -3 4 -5h37q5 0 7 6l20 102l87 -19l-18 -83q0 -4 2 -4q1 -1 2 -1h48v112h100v-133q0 -18 -8 -35t-21 -30t-30 -21t-35 -8h-40q-10 0 -28.5 5.5t-32.5 24.5q-14 -19 -37 -24.5t-39 -5.5q-25 0 -46.5 9.5t-37.5 25.5t-25 37.5t-9 46.5z" />
    <glyph glyph-name="uni0652" unicode="&#xfe7e;" arabic-form="isolated" 
d="M-122 828q0 51 32.5 83.5t83.5 33.5h10q24 0 45.5 -9.5t37.5 -25t25 -37t9 -45.5v-11q0 -24 -9 -45.5t-25 -37.5t-37.5 -25t-45.5 -9h-10q-25 0 -46.5 10t-37 26.5t-24 37.5t-8.5 43v11zM-33 833v-19q0 -6 7 -6h52q2 0 4 0.5t2 5.5v18q0 6 -2 7t-4 1h-52q-7 0 -7 -7z" />
    <glyph glyph-name="uni0671" unicode="&#x671;" horiz-adv-x="381" arabic-form="isolated" 
d="M259 631v-631h-145v631h145zM-40 786h58q6 2 6 6v79h89v-28q0 -7 1 -11.5t2 -7.5t3 -5l58 64q22 24 50 35t57 11h24q24 0 44.5 -9t35.5 -24.5t24 -36t9 -43.5v-21q0 -21 -9.5 -41.5t-25.5 -36t-36 -25.5t-41 -10h-124q-32 0 -61 6t-45 25q-15 -19 -32 -25t-34 -6h-53v104
zM327 787v26q0 2 -4 4h-68q-8 -1 -17.5 -4.5t-17.5 -11.5l-15 -14h122z" />
    <glyph glyph-name="uni067E" unicode="&#x67e;" horiz-adv-x="872" arabic-form="isolated" 
d="M185 427v-194q0 -26 18.5 -44.5t44.5 -18.5h421q12 0 20 8.5t8 19.5v229h145v-228q0 -41 -15.5 -77.5t-42.5 -63.5t-63.5 -42.5t-77.5 -15.5h-380q-46 0 -86.5 17.5t-71 48t-48 71t-17.5 86.5v204h145zM302 -255v135h260v-135h-62v-105h-130v105h-68z" />
    <glyph glyph-name="uni0686" unicode="&#x686;" horiz-adv-x="709" arabic-form="isolated" 
d="M40 280l30 101q10 33 31.5 58t49.5 40t48.5 17t29.5 2q23 0 45 -6l405 -121l-38 -134l-73 21q-10 3 -15 3.5t-7 0.5q-5 0 -8 -1q-6 -1 -10 -3l-264 -198q-21 -16 -32 -39.5t-11 -49.5t9.5 -48t26.5 -39t39.5 -26.5t47.5 -9.5h279v-170h-279q-59 0 -111 22t-90.5 60.5
t-61 89t-22.5 107.5q0 60 25.5 110.5t70.5 82.5q36 26 59 42.5t41.5 30t36.5 27.5t43 33q19 14 34 24q10 6 12 7l-167 49h-2q-2 0 -5 -1t-5 -6l-38 -108zM369 94h217v-108h-52v-108h-108v108h-57v108z" />
    <glyph glyph-name="uni0698" unicode="&#x698;" horiz-adv-x="436" arabic-form="isolated" 
d="M-41 -131l163 56q33 11 53 38.5t20 62.5v370h144v-355q0 -43 -13 -82.5t-36.5 -72.5t-56.5 -58t-73 -38l-158 -54zM131 599h62v105h130v-105h68v-135h-260v135z" />
    <glyph glyph-name="uni06A9" unicode="&#x6a9;" horiz-adv-x="919" arabic-form="isolated" 
d="M40 221v142h144v-126q0 -27 20.5 -47t46.5 -20h385q23 0 39 12.5t24.5 30t8.5 36t-9 30.5l-180 239v94l366 183l64 -126l-278 -138l134 -170q28 -35 36.5 -69t8.5 -62q0 -13 -3 -39t-21.5 -63t-48 -65.5t-68.5 -45.5t-85 -17h-363q-44 0 -84 17.5t-70.5 47.5t-48.5 70.5
t-18 85.5z" />
    <glyph glyph-name="uni06AF" unicode="&#x6af;" horiz-adv-x="904" arabic-form="isolated" 
d="M40 221v142h144v-126q0 -27 20.5 -47t46.5 -20h385q23 0 39 12.5t24.5 30t8.5 36t-9 30.5l-180 239v94l366 183l64 -126l-278 -138l134 -170q28 -35 36.5 -69t8.5 -62q0 -13 -3 -39t-21.5 -63t-48 -65.5t-68.5 -45.5t-85 -17h-363q-44 0 -84 17.5t-70.5 47.5t-48.5 70.5
t-18 85.5zM457 755l348 176l43 -98l-347 -177z" />
    <glyph glyph-name="uni06C0" unicode="&#x6c0;" horiz-adv-x="509" arabic-form="isolated" 
d="M40 197v29q1 55 27.5 95.5t59.5 58.5q2 2 4 2l3 2l-69 46l77 116l11 -7q11 -7 28.5 -18.5t40 -26t45.5 -29.5q55 -36 125 -82q27 -17 43.5 -37t26.5 -40t13.5 -40t3.5 -37v-31q0 -33 -11.5 -69.5t-37 -67.5t-65.5 -51.5t-98 -20.5h-21q-54 0 -92.5 20.5t-64 51.5
t-37.5 67.5t-12 68.5zM117 728l64 27q-1 0 -7 2t-12 16q-2 4 -3 7q-2 3 -2.5 5.5t-1.5 3.5q-10 23 -10 45t8 41t23 33t34 22l87 36l42 -104l-79 -33q-5 -2 -5 -7q0 -3 3 -9q2 -3 3 -6t5 -10l100 52l48 -96l-248 -126zM184 237v-42q0 -3 2 -10t7.5 -14t13.5 -11.5t17 -4.5h4
h61q15 0 24 5t13.5 11t6 11.5t1.5 7.5v42q0 5 -3 14.5t-17 17.5q-7 4 -18.5 10.5t-22.5 13.5q-12 8 -26 17l-46 -40q-4 -3 -10.5 -9t-6.5 -19z" />
    <glyph glyph-name="uni06CC" unicode="&#x6cc;" horiz-adv-x="749" arabic-form="isolated" 
d="M184 261v-207q0 -40 27.5 -67t66.5 -27h225q26 0 44 18t18 44v16l-287 67v127q0 42 14 80.5t40 68.5t62.5 50t81.5 26l160 21l24 -161l-184 -23q-25 -3 -41 -19.5t-16 -41.5v-14l186 -39q47 -10 75.5 -48t28.5 -86v-30q0 -47 -17.5 -88.5t-48.5 -72t-72 -48.5t-88 -18
h-199q-51 0 -95.5 19t-77.5 52t-52 77.5t-19 95.5v228h144z" />
    <glyph glyph-name="uniFB51" unicode="&#x671;" horiz-adv-x="339" arabic-form="final" 
d="M104 195v436h145v-433v-2q0 -10 8 -18t19 -8h63q6 0 10 -4.5t4 -10.5v-140q0 -15 -14 -15h-40q-40 0 -76 15.5t-62 41.5t-41.5 62t-15.5 76zM-40 682v104h58q6 2 6 6v79h89v-28q0 -7 1 -11.5t2 -7.5t3 -5l58 64q22 24 50 35t57 11h24q24 0 44.5 -9t35.5 -24.5t24 -36
t9 -43.5v-21q0 -21 -9.5 -41.5t-25.5 -36t-36 -25.5t-41 -10h-124q-32 0 -61 6t-45 25q-15 -19 -32 -25t-34 -6h-53zM327 787v26q0 2 -4 4h-68q-8 -1 -17.5 -4.5t-17.5 -11.5l-15 -14h122z" />
    <glyph glyph-name="uniFB57" unicode="&#x67e;" horiz-adv-x="898" arabic-form="final" 
d="M184 427v-195q0 -26 18.5 -44t44.5 -18h422q12 0 20 8t8 19v201h144v-198q0 -11 8 -20t20 -9h30q6 0 10 -4.5t4 -9.5v-143q0 -5 -4.5 -9t-9.5 -4h-7q-35 0 -66 11.5t-57 39.5q-27 -29 -59 -40.5t-68 -11.5h-380q-46 0 -86.5 17.5t-70.5 48t-47.5 71t-17.5 86.5v204h144z
M332 -120h260v-135h-62v-105h-130v105h-68v135z" />
    <glyph glyph-name="uniFB58" unicode="&#x67e;" horiz-adv-x="442" arabic-form="initial" 
d="M-14 154q0 6 4 11t10 5h230q12 0 20 8.5t8 19.5v229h144v-228q0 -41 -15.5 -77.5t-42.5 -63.5t-63.5 -42.5t-77.5 -15.5h-203q-6 0 -10 4.5t-4 9.5v140zM21 -120h260v-135h-62v-105h-130v105h-68v135z" />
    <glyph glyph-name="uniFB59" unicode="&#x67e;" horiz-adv-x="371" arabic-form="medial" 
d="M-14 155q0 6 4.5 10.5t9.5 4.5h86q12 0 22 7.5t12 20.5l40 200l142 -26l-33 -167q-1 -5 -1 -9q0 -10 6 -18t20 -8h77q6 0 10 -5t4 -10v-141q0 -5 -4 -9.5t-10 -4.5h-77q-31 0 -58 11.5t-50 40.5q-26 -29 -55.5 -40.5t-61.5 -11.5h-69q-5 0 -9.5 4.5t-4.5 9.5v141z
M57 -120h260v-135h-62v-105h-130v105h-68v135z" />
    <glyph glyph-name="uniFB7B" unicode="&#x686;" horiz-adv-x="706" arabic-form="final" 
d="M40 279l30 101q10 33 31 58t49 40t49 17t30 2q23 0 45 -6l405 -121l-38 -134l-73 21q-12 4 -21 4q-5 0 -9 -1q-6 -1 -10 -3v-59q0 -12 8 -20t20 -8h150q6 0 9.5 -4.5t4.5 -9.5v-142q0 -5 -4 -9.5t-10 -4.5h-110q-38 0 -69 13.5t-53 37t-35 53.5t-16 63v5l-159 -113
q-21 -15 -32 -39.5t-11 -50.5q0 -25 9.5 -47.5t26.5 -39t39.5 -26t47.5 -9.5h279v-170h-279q-59 0 -111 22t-90.5 60.5t-61 89t-22.5 107.5q0 60 25.5 110.5t70.5 82.5q27 19 44 31.5t29 21.5t21.5 16t21 15.5t26.5 20t38 28.5q19 14 34 24q9 6 12 7l-167 49h-2q-2 0 -5 -1
t-5 -6l-38 -108zM269 -47v82h189v-82h-53v-72h-82v72h-54z" />
    <glyph glyph-name="uniFB7C" unicode="&#x686;" horiz-adv-x="685" arabic-form="initial" 
d="M-14 154q0 6 4.5 11t9.5 5h202q38 0 76 12t63 42l32 46q5 6 6 9l2 2l-191 56q-2 1 -4 1q-6 0 -8 -8l-38 -108l-122 32l29 101q11 36 33 61.5t50.5 39t48 15.5t27.5 2q23 0 45 -7l404 -121l-38 -134l-64 19q-17 4 -27 4q-2 0 -8.5 -0.5t-17.5 -14.5l-103 -128
q-21 -25 -48 -42.5t-57.5 -28t-64 -15.5t-66.5 -5h-161q-6 0 -10 4.5t-4 9.5v140zM207 -120h260v-135h-62v-105h-130v105h-68v135z" />
    <glyph glyph-name="uniFB7D" unicode="&#x686;" horiz-adv-x="685" arabic-form="medial" 
d="M-14 14v140q0 6 4.5 11t9.5 5h202q38 0 76 12t63 42l32 46q5 6 6 9l2 2l-191 56h-3q-7 0 -9 -7l-38 -108l-124 32l30 101q11 36 33.5 61.5t51 39t48.5 15.5t28 2q23 0 44 -7l404 -121l-38 -134l-73 21q-13 4 -21 4q-3 0 -8.5 -1t-10.5 -3v-34q0 -11 8 -19.5t20 -8.5h153
q5 0 9.5 -3.5t4.5 -10.5v-142q0 -5 -4 -9.5t-10 -4.5h-100q-60 0 -104 30.5t-68 81.5l-16 -21q-45 -48 -107.5 -69t-128.5 -22h-161q-6 0 -10 4.5t-4 9.5zM192 -255v135h260v-135h-62v-105h-130v105h-68z" />
    <glyph glyph-name="uniFB8B" unicode="&#x698;" horiz-adv-x="457" arabic-form="final" 
d="M122 -73q34 11 53.5 39t19.5 63v369h145v-205q0 -11 7.5 -17t18.5 -6h91q14 0 14 -14v-142q0 -14 -14 -14h-67q-12 0 -27.5 6.5t-23.5 14.5v-15q0 -40 -13.5 -73.5t-37.5 -60.5t-57 -47t-71 -33l-157 -54l-44 133zM193 599v105h130v-105h68v-135h-260v135h62z" />
    <glyph glyph-name="uniFB8F" unicode="&#x6a9;" horiz-adv-x="1021" arabic-form="final" 
d="M40 221v142h144v-126q0 -27 21 -47t46 -20h385q23 0 39 12.5t24.5 29.5t8.5 36t-9 31l-180 239v94l366 183l64 -126l-278 -138l265 -333q11 -13 28 -20.5t34 -7.5h23q14 0 14 -13v-143q0 -14 -14 -14h-15q-38 0 -74 16.5t-57 42.5l-59 74q-12 -24 -29.5 -48t-41.5 -43
t-54.5 -30.5t-67.5 -11.5h-362q-43 0 -83 17.5t-71 47.5t-49 70.5t-18 85.5z" />
    <glyph glyph-name="uniFB90" unicode="&#x6a9;" horiz-adv-x="425" arabic-form="initial" 
d="M-14 156q0 6 3.5 10t7.5 4h2h143q23 0 39.5 12.5t24.5 30t8 36t-9 30.5l-179 240v93l365 183l64 -125l-278 -139l134 -170q28 -35 36.5 -68.5t8.5 -59.5q0 -14 -3.5 -40.5t-21.5 -64t-47.5 -66t-68.5 -45.5t-85 -17h-129q-6 0 -10.5 4.5t-4.5 10.5v141z" />
    <glyph glyph-name="uniFB91" unicode="&#x6a9;" horiz-adv-x="528" arabic-form="medial" 
d="M-14 156q0 5 4.5 9.5t9.5 4.5h142q23 0 39 12.5t24.5 29.5t8.5 35.5t-9 31.5l-179 240v93l365 183l64 -125l-278 -139l266 -333q11 -13 28 -20.5t34 -7.5h23q5 0 9.5 -4t4.5 -10v-142v-2q0 -4 -4.5 -8t-9.5 -4h-15q-38 0 -74.5 17t-57.5 43l-59 74q-12 -24 -29.5 -48
t-41.5 -43t-54.5 -31t-66.5 -12h-130q-6 0 -10 4.5t-4 10.5v141z" />
    <glyph glyph-name="uniFB93" unicode="&#x6af;" horiz-adv-x="1021" arabic-form="final" 
d="M40 221v142h144v-126q0 -27 21 -47t46 -20h385q23 0 39 12.5t24.5 29.5t8.5 36t-9 31l-180 239v94l366 183l64 -126l-278 -138l265 -333q11 -13 28 -20.5t34 -7.5h23q14 0 14 -13v-143q0 -14 -14 -14h-15q-38 0 -74 16.5t-57 42.5l-59 74q-12 -24 -29.5 -48t-41.5 -43
t-54.5 -30.5t-67.5 -11.5h-362q-43 0 -83 17.5t-71 47.5t-49 70.5t-18 85.5zM805 931l43 -98l-347 -177l-44 99z" />
    <glyph glyph-name="uniFB94" unicode="&#x6af;" horiz-adv-x="450" arabic-form="initial" 
d="M-15 15v141q0 6 3.5 10t7.5 4h2h184q23 0 39.5 12.5t24.5 30t8 36t-9 30.5l-179 240v93l365 183l64 -125l-278 -139l134 -170q28 -35 36.5 -68.5t8.5 -59.5q0 -14 -3.5 -40.5t-21.5 -64t-47.5 -66t-68.5 -45.5t-85 -17h-170q-6 0 -10.5 4.5t-4.5 10.5zM21 756l348 176
l43 -98l-347 -177z" />
    <glyph glyph-name="uniFB95" unicode="&#x6af;" horiz-adv-x="568" arabic-form="medial" 
d="M-14 156q0 14 14 14h182q23 0 39 12.5t24.5 29.5t8.5 35.5t-9 31.5l-179 240v93l365 183l64 -125l-278 -139l266 -333q11 -13 28 -20.5t34 -7.5h23q14 0 14 -14v-142v-2q0 -4 -4.5 -8t-9.5 -4h-15q-38 0 -74.5 17t-57.5 43l-59 74q-12 -24 -29.5 -48t-41.5 -43t-54.5 -31
t-66.5 -12h-170q-6 0 -10 4.5t-4 9.5v142zM17 756l348 176l43 -98l-347 -177z" />
    <glyph glyph-name="uniFBA5" unicode="&#x6c0;" horiz-adv-x="516" arabic-form="final" 
d="M40 227v63q0 31 11 61.5t30.5 56.5t47.5 45.5t61 26.5l123 28v69h145v-373q0 -13 11 -23.5t27 -10.5h20q14 0 14 -13v-143q0 -14 -14 -14h-20q-54 0 -91 26t-63 69q-14 -10 -38.5 -15t-42.5 -5h-67q-29 0 -57 13t-49.5 34t-34.5 48.5t-13 56.5zM117 717l64 27q-1 0 -7 2
t-12 16l-3 7q-2 3 -2.5 5.5t-1.5 3.5q-11 25 -11 48q0 20 13 48t53 45l87 36l42 -104l-79 -33q-4 -2 -4.5 -3.5t-0.5 -2.5q0 -2 3 -8q2 -4 3 -7.5t5 -10.5l100 52l48 -96l-248 -126zM183 240h130v117l-84 -19q-20 -5 -33 -20t-13 -36v-42z" />
    <glyph glyph-name="uniFBE8" unicode="&#x649;" horiz-adv-x="324" arabic-form="initial" 
d="M-14 154q0 6 4 11t10 5h122q12 0 20 8.5t8 19.5v229h144v-228q0 -41 -15.5 -77.5t-42.5 -63.5t-63.5 -42.5t-77.5 -15.5h-95q-6 0 -10 4.5t-4 9.5v140z" />
    <glyph glyph-name="uniFBE9" unicode="&#x649;" horiz-adv-x="345" arabic-form="medial" 
d="M-14 155q0 6 4.5 10.5t9.5 4.5h67q12 0 22 7.5t12 20.5l40 200l142 -26l-33 -167q-1 -5 -1 -9q0 -10 6 -18t20 -8h70q6 0 10.5 -5t4.5 -10v-141q0 -5 -4.5 -9.5t-10.5 -4.5h-70q-31 0 -58 11.5t-50 40.5q-26 -29 -55.5 -40.5t-61.5 -11.5h-50q-5 0 -9.5 4.5t-4.5 9.5v141
z" />
    <glyph glyph-name="uniFBFD" unicode="&#x6cc;" horiz-adv-x="718" arabic-form="final" 
d="M184 294v-264q0 -19 7.5 -36.5t20.5 -30t30.5 -20t36.5 -7.5h196q26 0 44 16t18 42v6h-202v170h383q14 0 14 -14v-141q0 -6 -4 -10.5t-10 -4.5h-40q3 -3 3 -15v-3q0 -47 -17.5 -86.5t-48.5 -68t-72 -45t-88 -16.5h-171q-51 0 -95.5 19t-77.5 52t-52.5 77.5t-19.5 95.5
v284h145z" />
    <glyph glyph-name="uniFBFE" unicode="&#x6cc;" horiz-adv-x="432" arabic-form="initial" 
d="M-14 154q0 6 4 11t10 5h230q12 0 20 8.5t8 19.5v229h144v-228q0 -41 -15.5 -77.5t-42.5 -63.5t-63.5 -42.5t-77.5 -15.5h-203q-6 0 -10 4.5t-4 9.5v140zM24 -120h260v-135h-260v135z" />
    <glyph glyph-name="uniFBFF" unicode="&#x6cc;" horiz-adv-x="385" arabic-form="medial" 
d="M-14 155q0 6 4.5 10.5t9.5 4.5h97q12 0 22 7.5t12 20.5l40 200l142 -26l-33 -167q-1 -5 -1 -9q0 -10 6 -18t20 -8h80q6 0 10.5 -5t4.5 -10v-141q0 -5 -4.5 -9.5t-10.5 -4.5h-80q-31 0 -58 11.5t-50 40.5q-26 -29 -55.5 -40.5t-61.5 -11.5h-80q-5 0 -9.5 4.5t-4.5 9.5v141
zM64 -120h260v-135h-260v135z" />
    <glyph glyph-name="uniFC5E" unicode="&#xfc5e;" arabic-form="isolated" 
d="M-158 1049l-18 75l92 22l18 -77l29 7q-2 6 -4 13q-3 14 -5 28v10q0 16 6 33t19 31t28.5 23.5t30.5 12.5l52 11q9 2 17 2q11 0 25.5 -5t29.5 -18t25.5 -30.5t13.5 -36.5l4 -26q1 -8 1 -15q0 -13 -5.5 -29.5t-19 -32.5t-31.5 -27t-38 -15l-12 -2q-13 -3 -33.5 -7.5t-46 -10
t-52.5 -11.5q-63 -14 -143 -31l-21 99zM-95 924v-105q0 -3 4 -5h37q5 0 7 6l20 102l87 -19l-18 -83q0 -4 2 -4q1 -1 2 -1h48v112h100v-133q0 -18 -8 -35t-21 -30t-30 -21t-35 -8h-40q-10 0 -28.5 5.5t-32.5 24.5q-14 -19 -37 -24.5t-39 -5.5q-25 0 -46.5 9.5t-37.5 25.5
t-25 37.5t-9 46.5v105h100zM64 1116l7 -21l28 9q10 3 10 8v2l-5 15q-2 6 -8 6q-2 0 -4 -1l-24 -10q-4 -2 -4 -5v-3z" />
    <glyph glyph-name="uniFC5F" unicode="&#xfc5f;" arabic-form="isolated" 
d="M-194 1178v105h100v-105q0 -3 4 -5h37q5 0 7 6l20 102l87 -19l-18 -83q0 -4 2 -4q1 -1 2 -1h48v112h100v-133q0 -18 -8 -35t-21 -30t-30 -21t-35 -8h-40q-10 0 -28.5 5.5t-32.5 24.5q-14 -19 -37 -24.5t-39 -5.5q-25 0 -46.5 9.5t-37.5 25.5t-25 37.5t-9 46.5zM-195 803
l357 77l23 -101l-363 -78zM162 1018l23 -101l-363 -78l-17 102z" />
    <glyph glyph-name="uniFC60" unicode="&#xfc60;" arabic-form="isolated" 
d="M-190 819v105h100v-105q0 -3 4 -5h37q5 0 7 6l20 102l87 -19l-18 -83q0 -4 2 -4q1 -1 2 -1h48v112h100v-133q0 -18 -8 -35t-21 -30t-30 -21t-35 -8h-40q-10 0 -28.5 5.5t-32.5 24.5q-14 -19 -37 -24.5t-39 -5.5q-25 0 -46.5 9.5t-37.5 25.5t-25 37.5t-9 46.5zM-180 960
l-18 101l358 77l22 -101z" />
    <glyph glyph-name="uniFC61" unicode="&#xfc61;" arabic-form="isolated" 
d="M-95 924v-105q0 -3 4 -5h37q5 0 7 6l20 102l87 -19l-18 -83q0 -4 2 -4q1 -1 2 -1h48v112h100v-133q0 -18 -8 -35t-21 -30t-30 -21t-35 -8h-40q-10 0 -28.5 5.5t-32.5 24.5q-14 -19 -37 -24.5t-39 -5.5q-25 0 -46.5 9.5t-37.5 25.5t-25 37.5t-9 46.5v105h100zM-57 1062
q0 2 -1.5 9t-3.5 15t-3.5 15.5t-1.5 9.5v9q0 16 6.5 31.5t19.5 29t28.5 21.5t30.5 11l52 10q7 1 13 1q13 0 28.5 -5t30 -17t25 -29.5t13.5 -36.5l5 -26q2 -10 2 -19q0 -12 -5.5 -28t-19.5 -31.5t-32.5 -26t-38.5 -15.5q-18 -4 -38 -8q-17 -4 -38.5 -8.5t-44.5 -9.5
q-54 -11 -121 -26l-16 100zM44 1102l6 -20l29 7q10 2 10 7q0 2 -1 3l-6 15q-2 5 -6 5h-3l-23 -8q-6 -2 -6 -7v-2z" />
    <glyph glyph-name="uniFC62" unicode="&#xfc62;" arabic-form="isolated" 
d="M-177 701l-18 101l358 77l22 -101zM-194 999v105h100v-105q0 -3 4 -5h37q5 0 7 6l20 102l87 -19l-18 -83q0 -4 2 -4q1 -1 2 -1h48v112h100v-133q0 -18 -8 -35t-21 -30t-30 -21t-35 -8h-40q-10 0 -28.5 5.5t-32.5 24.5q-14 -19 -37 -24.5t-39 -5.5q-25 0 -46.5 9.5
t-37.5 25.5t-25 37.5t-9 46.5z" />
    <glyph glyph-name="uniFC63" unicode="&#xfc63;" arabic-form="isolated" 
d="M-194 924h100v-105q0 -3 4 -5h37q5 0 7 6l20 102l87 -19l-18 -83q0 -4 2 -4q1 -1 2 -1h48v112h100v-133q0 -18 -8 -35t-21 -30t-30 -21t-35 -8h-40q-10 0 -28.5 5.5t-32.5 24.5q-14 -19 -37 -24.5t-39 -5.5q-25 0 -46.5 9.5t-37.5 25.5t-25 37.5t-9 46.5v105zM-46 951
v198h109v-198h-109z" />
    <glyph glyph-name="uniFE82" unicode="&#x622;" horiz-adv-x="315" arabic-form="final" 
d="M245 631v-433q0 -11 8.5 -19.5t19.5 -8.5h42q6 0 10 -4.5t4 -10.5v-141q0 -5 -4 -9.5t-10 -4.5h-20q-40 0 -76 15.5t-62 41.5t-41.5 61.5t-15.5 75.5v437h145zM-30 643v57q0 29 9 49.5t24.5 33.5t35 19.5t40.5 6.5h201v-124h-212q-9 0 -9 -8v-34h-89z" />
    <glyph glyph-name="uniFE84" unicode="&#x623;" horiz-adv-x="257" arabic-form="final" 
d="M171 629v-431q0 -11 8.5 -19.5t19.5 -8.5h58q6 0 10 -5t4 -10v-141q0 -5 -4 -9.5t-10 -4.5h-36q-40 0 -75.5 15.5t-62 41.5t-41.5 62t-15 76v434h144zM-33 773l64 27q-1 0 -7 2t-12 16l-3 7q-2 3 -2.5 5.5t-1.5 3.5q-11 25 -11 48q0 19 13.5 47.5t52.5 45.5l87 36
l42 -104l-80 -33q-5 -1 -5 -5q0 -3 2 -6l9 -21l100 53l49 -97l-249 -126z" />
    <glyph glyph-name="uniFE86" unicode="&#x624;" horiz-adv-x="504" arabic-form="final" 
d="M38 209l18 92q6 31 21.5 57t38.5 45t52 30t61 11h55q38 0 71.5 -14.5t58.5 -39.5t40 -59t15 -72v-89h35q14 0 14 -13v-143q0 -14 -14 -14h-36q-7 -75 -56.5 -130.5t-121.5 -80.5l-158 -54l-43 133l158 54q32 11 54 32.5t22 56.5v7q-14 -8 -34.5 -13t-40.5 -5h-37
q-41 0 -76 17.5t-59 47t-32.5 59.5t-8.5 53q0 16 3 32zM142 633q-1 0 -7 2t-12 16q-2 4 -3 7q-2 3 -2.5 5.5t-1.5 3.5q-10 23 -10 45t8 41t23 33t34 22l87 36l42 -104l-79 -33q-5 -2 -5 -7q0 -3 3 -9q2 -3 3 -6t5 -10l100 52l48 -96l-248 -126l-49 101zM182 174q4 -4 9 -4
h134l-1 90q0 7 -5 12t-12 6h-94h-1q-11 0 -16 -14l-16 -81q-1 -2 -1 -3q0 -3 3 -6z" />
    <glyph glyph-name="uniFE88" unicode="&#x625;" horiz-adv-x="274" arabic-form="final" 
d="M185 707v-509q0 -12 8 -20t20 -8h61q6 0 10 -4.5t4 -10.5v-141q0 -14 -14 -14h-39q-40 0 -76 15.5t-62 41.5t-41.5 62t-15.5 76v512h145zM-11 -263l64 27q-1 0 -7 2t-12 16l-3 7q-2 3 -2.5 5.5t-1.5 3.5q-10 23 -10 45t8 41t23 33t34 22l87 36l42 -104l-79 -33
q-3 -1 -4 -3.5t-1 -3.5q0 -2 1 -4l10 -21l100 52l48 -96l-248 -126z" />
    <glyph glyph-name="uniFE8A" unicode="&#x626;" horiz-adv-x="718" arabic-form="final" 
d="M40 10v284h144v-264q0 -19 7.5 -36.5t20.5 -30t30.5 -20t36.5 -7.5h196q26 0 44 16t18 42v6h-202v170h383q14 0 14 -14v-141q0 -6 -4 -10.5t-10 -4.5h-40q3 -3 3 -15v-3q0 -47 -17.5 -86.5t-48.5 -68t-72 -45t-88 -16.5h-171q-51 0 -95.5 19t-77.5 52t-52 77.5t-19 95.5z
M120 509q-1 0 -7 2t-12 16l-3 7q-2 3 -2.5 5.5t-1.5 3.5q-11 25 -11 48q0 20 13 48t53 45l87 36l42 -104l-79 -33q-4 -2 -4.5 -3.5t-0.5 -2.5q0 -2 3 -8q2 -4 3 -7.5t5 -10.5l100 52l48 -96l-248 -126l-49 101z" />
    <glyph glyph-name="uniFE8B" unicode="&#x626;" horiz-adv-x="324" arabic-form="initial" 
d="M-14 154q0 6 4 11t10 5h122q12 0 20 8.5t8 19.5v229h144v-228q0 -41 -15.5 -77.5t-42.5 -63.5t-63.5 -42.5t-77.5 -15.5h-95q-6 0 -10 4.5t-4 9.5v140zM-5 552l64 27q-1 0 -7 2t-12 16l-3 7q-2 3 -2.5 5.5t-1.5 3.5q-11 25 -11 48q0 20 13 48t53 45l87 36l42 -104
l-79 -33q-4 -2 -4.5 -3.5t-0.5 -2.5q0 -2 3 -8q2 -4 3 -7.5t5 -10.5l100 52l48 -96l-248 -126z" />
    <glyph glyph-name="uniFE8C" unicode="&#x626;" horiz-adv-x="385" arabic-form="medial" 
d="M-14 155q0 6 4.5 10.5t9.5 4.5h97q12 0 22 7.5t12 20.5l40 200l142 -26l-33 -167q-1 -5 -1 -9q0 -10 6 -18t20 -8h80q6 0 10.5 -5t4.5 -10v-141q0 -5 -4.5 -9.5t-10.5 -4.5h-80q-31 0 -58 11.5t-50 40.5q-26 -29 -55.5 -40.5t-61.5 -11.5h-80q-5 0 -9.5 4.5t-4.5 9.5v141
zM45 555l64 27q-1 0 -7 2t-12 16l-3 7q-2 3 -2.5 5.5t-1.5 3.5q-11 25 -11 48q0 20 13 48t53 45l87 36l42 -104l-79 -33q-4 -2 -4.5 -3.5t-0.5 -2.5q0 -2 3 -8q2 -4 3 -7.5t5 -10.5l100 52l48 -96l-248 -126z" />
    <glyph glyph-name="uniFE8E" unicode="&#x627;" horiz-adv-x="255" arabic-form="final" 
d="M40 195v512h145v-509q0 -12 8 -20t20 -8h42q6 0 10 -4.5t4 -10.5v-141q0 -14 -14 -14h-20q-40 0 -76 15.5t-62 41.5t-41.5 62t-15.5 76z" />
    <glyph glyph-name="uniFE90" unicode="&#x628;" horiz-adv-x="899" arabic-form="final" 
d="M40 222v204h144v-195q0 -26 18.5 -44t44.5 -18h422q12 0 20 8t8 19v201h144v-198q0 -11 8 -20t20 -9h30q6 0 10 -4.5t4 -9.5v-143q0 -5 -4.5 -9t-9.5 -4h-7q-35 0 -66 11.5t-57 39.5q-27 -29 -59 -40.5t-68 -11.5h-380q-46 0 -86.5 17.5t-70.5 48t-47.5 71t-17.5 86.5z
M371 -118h130v-135h-130v135z" />
    <glyph glyph-name="uniFE91" unicode="&#x628;" horiz-adv-x="324" arabic-form="initial" 
d="M-14 154q0 6 4 11t10 5h122q12 0 20 8.5t8 19.5v229h144v-228q0 -41 -15.5 -77.5t-42.5 -63.5t-63.5 -42.5t-77.5 -15.5h-95q-6 0 -10 4.5t-4 9.5v140zM132 -120v-135h-130v135h130z" />
    <glyph glyph-name="uniFE92" unicode="&#x628;" horiz-adv-x="344" arabic-form="medial" 
d="M-14 155q0 6 4.5 10.5t9.5 4.5h67q12 0 22 7.5t12 20.5l40 200l142 -26l-33 -167q-1 -5 -1 -9q0 -10 6 -18t20 -8h70q6 0 10.5 -5t4.5 -10v-141q0 -5 -4.5 -9.5t-10.5 -4.5h-70q-31 0 -58 11.5t-50 40.5q-26 -29 -55.5 -40.5t-61.5 -11.5h-50q-5 0 -9.5 4.5t-4.5 9.5v141
zM232 -121v-135h-130v135h130z" />
    <glyph glyph-name="uniFE94" unicode="&#x629;" horiz-adv-x="516" arabic-form="final" 
d="M40 227v63q0 31 11 61.5t30.5 56.5t47.5 45.5t61 26.5l123 28v69h145v-373q0 -13 11 -23.5t27 -10.5h20q14 0 14 -13v-143q0 -14 -14 -14h-20q-54 0 -91 26t-63 69q-14 -10 -38.5 -15t-42.5 -5h-67q-29 0 -57 13t-49.5 34t-34.5 48.5t-13 56.5zM118 810h260v-135h-260
v135zM313 240v117l-84 -19q-20 -5 -33 -20t-13 -36v-42h130z" />
    <glyph glyph-name="uniFE96" unicode="&#x62a;" horiz-adv-x="898" arabic-form="final" 
d="M40 223v204h144v-195q0 -26 18.5 -44t44.5 -18h422q12 0 20 8t8 19v201h144v-198q0 -11 8 -20t20 -9h30q6 0 10 -4.5t4 -9.5v-143q0 -5 -4.5 -9t-9.5 -4h-7q-35 0 -66 11.5t-57 39.5q-27 -29 -59 -40.5t-68 -11.5h-380q-46 0 -86.5 17.5t-70.5 48t-47.5 71t-17.5 86.5z
M310 427v135h260v-135h-260z" />
    <glyph glyph-name="uniFE97" unicode="&#x62a;" horiz-adv-x="326" arabic-form="initial" 
d="M-14 154q0 6 4 11t10 5h122q12 0 20 8.5t8 19.5v229h144v-228q0 -41 -15.5 -77.5t-42.5 -63.5t-63.5 -42.5t-77.5 -15.5h-95q-6 0 -10 4.5t-4 9.5v140zM36 631h260v-135h-260v135z" />
    <glyph glyph-name="uniFE98" unicode="&#x62a;" horiz-adv-x="361" arabic-form="medial" 
d="M-14 155q0 6 4.5 10.5t9.5 4.5h86q12 0 22 7.5t12 20.5l40 200l142 -26l-33 -167q-1 -5 -1 -9q0 -10 6 -18t20 -8h67q6 0 10.5 -5t4.5 -10v-141q0 -5 -4.5 -9.5t-10.5 -4.5h-67q-31 0 -58 11.5t-50 40.5q-26 -29 -55.5 -40.5t-61.5 -11.5h-69q-5 0 -9.5 4.5t-4.5 9.5v141
zM46 602h260v-135h-260v135z" />
    <glyph glyph-name="uniFE9A" unicode="&#x62b;" horiz-adv-x="898" arabic-form="final" 
d="M40 223v204h144v-195q0 -26 18.5 -44t44.5 -18h422q12 0 20 8t8 19v201h144v-198q0 -11 8 -20t20 -9h30q6 0 10 -4.5t4 -9.5v-143q0 -5 -4.5 -9t-9.5 -4h-7q-35 0 -66 11.5t-57 39.5q-27 -29 -59 -40.5t-68 -11.5h-380q-46 0 -86.5 17.5t-70.5 48t-47.5 71t-17.5 86.5z
M316 562h62v105h130v-105h68v-135h-260v135z" />
    <glyph glyph-name="uniFE9B" unicode="&#x62b;" horiz-adv-x="326" arabic-form="initial" 
d="M-14 154q0 6 4 11t10 5h122q12 0 20 8.5t8 19.5v229h144v-228q0 -41 -15.5 -77.5t-42.5 -63.5t-63.5 -42.5t-77.5 -15.5h-95q-6 0 -10 4.5t-4 9.5v140zM98 631v105h130v-105h68v-135h-260v135h62z" />
    <glyph glyph-name="uniFE9C" unicode="&#x62b;" horiz-adv-x="362" arabic-form="medial" 
d="M-14 155q0 6 4.5 10.5t9.5 4.5h86q12 0 22 7.5t12 20.5l40 200l142 -26l-33 -167q-1 -5 -1 -9q0 -10 6 -18t20 -8h67q6 0 10.5 -5t4.5 -10v-141q0 -5 -4.5 -9.5t-10.5 -4.5h-67q-31 0 -58 11.5t-50 40.5q-26 -29 -55.5 -40.5t-61.5 -11.5h-69q-5 0 -9.5 4.5t-4.5 9.5v141
zM48 602h62v105h130v-105h68v-135h-260v135z" />
    <glyph glyph-name="uniFE9E" unicode="&#x62c;" horiz-adv-x="706" arabic-form="final" 
d="M40 279l30 101q10 33 31 58t49 40t49 17t30 2q23 0 45 -6l405 -121l-38 -134l-73 21q-12 4 -21 4q-5 0 -9 -1q-6 -1 -10 -3v-59q0 -12 8 -20t20 -8h150q6 0 9.5 -4.5t4.5 -9.5v-142q0 -5 -4 -9.5t-10 -4.5h-110q-38 0 -69 13.5t-53 37t-35 53.5t-16 63v5l-159 -113
q-21 -15 -32 -39.5t-11 -50.5q0 -25 9.5 -47.5t26.5 -39t39.5 -26t47.5 -9.5h279v-170h-279q-59 0 -111 22t-90.5 60.5t-61 89t-22.5 107.5q0 60 25.5 110.5t70.5 82.5q27 19 44 31.5t29 21.5t21.5 16t21 15.5t26.5 20t38 28.5q19 14 34 24q9 6 12 7l-167 49h-2q-2 0 -5 -1
t-5 -6l-38 -108zM435 50v-135h-130v135h130z" />
    <glyph glyph-name="uniFE9F" unicode="&#x62c;" horiz-adv-x="685" arabic-form="initial" 
d="M-14 154q0 6 4.5 11t9.5 5h202q38 0 76 12t63 42l32 46q5 6 6 9l2 2l-191 56q-2 1 -4 1q-6 0 -8 -8l-38 -108l-122 32l29 101q11 36 33 61.5t50.5 39t48 15.5t27.5 2q23 0 45 -7l404 -121l-38 -134l-64 19q-17 4 -27 4q-2 0 -8.5 -0.5t-17.5 -14.5l-103 -128
q-21 -25 -48 -42.5t-57.5 -28t-64 -15.5t-66.5 -5h-161q-6 0 -10 4.5t-4 9.5v140zM283 -120h130v-135h-130v135z" />
    <glyph glyph-name="uniFEA0" unicode="&#x62c;" horiz-adv-x="685" arabic-form="medial" 
d="M-10 165q5 5 10 5h202q38 0 76 12t63 42l32 46q5 6 6 9l2 2l-191 56h-3q-7 0 -9 -7l-38 -108l-124 32l30 101q11 36 33.5 61.5t51 39t48.5 15.5t28 2q23 0 44 -7l404 -121l-38 -134l-73 21q-13 4 -21 4q-3 0 -8.5 -1t-10.5 -3v-34q0 -11 8 -19.5t20 -8.5h153
q5 0 9.5 -3.5t4.5 -10.5v-142q0 -5 -4 -9.5t-10 -4.5h-100q-60 0 -104 30.5t-68 81.5l-16 -21q-45 -48 -107.5 -69t-128.5 -22h-161q-6 0 -10 4.5t-4 9.5v140q0 6 4 11zM409 -120v-135h-130v135h130z" />
    <glyph glyph-name="uniFEA2" unicode="&#x62d;" horiz-adv-x="706" arabic-form="final" 
d="M70 380q10 33 31 58t49 40t49 17t30 2q23 0 45 -6l405 -121l-38 -134l-73 21q-12 4 -21 4q-5 0 -9 -1q-6 -1 -10 -3v-59q0 -12 8 -20t20 -8h150q6 0 9.5 -4.5t4.5 -9.5v-142q0 -5 -4 -9.5t-10 -4.5h-110q-38 0 -69 13.5t-53 37t-35 53.5t-16 63v5l-159 -113
q-21 -15 -32 -39.5t-11 -50.5q0 -25 9.5 -47.5t26.5 -39t39.5 -26t47.5 -9.5h279v-170h-279q-59 0 -111 22t-90.5 60.5t-61 89t-22.5 107.5q0 60 25.5 110.5t70.5 82.5q27 19 44 31.5t29 21.5t21.5 16t21 15.5t26.5 20t38 28.5q19 14 34 24q9 6 12 7l-167 49h-2q-2 0 -5 -1
t-5 -6l-38 -108l-124 32z" />
    <glyph glyph-name="uniFEA3" unicode="&#x62d;" horiz-adv-x="685" arabic-form="initial" 
d="M-14 154q0 6 4.5 11t9.5 5h202q38 0 76 12t63 42l32 46q5 6 6 9l2 2l-191 56q-2 1 -4 1q-6 0 -8 -8l-38 -108l-122 32l29 101q11 36 33 61.5t50.5 39t48 15.5t27.5 2q23 0 45 -7l404 -121l-38 -134l-64 19q-17 4 -27 4q-2 0 -8.5 -0.5t-17.5 -14.5l-103 -128
q-21 -25 -48 -42.5t-57.5 -28t-64 -15.5t-66.5 -5h-161q-6 0 -10 4.5t-4 9.5v140z" />
    <glyph glyph-name="uniFEA4" unicode="&#x62d;" horiz-adv-x="685" arabic-form="medial" 
d="M-14 14v140q0 6 4.5 11t9.5 5h202q38 0 76 12t63 42l32 46q5 6 6 9l2 2l-191 56h-3q-7 0 -9 -7l-38 -108l-124 32l30 101q11 36 33.5 61.5t51 39t48.5 15.5t28 2q23 0 44 -7l404 -121l-38 -134l-73 21q-13 4 -21 4q-3 0 -8.5 -1t-10.5 -3v-34q0 -11 8 -19.5t20 -8.5h153
q5 0 9.5 -3.5t4.5 -10.5v-142q0 -5 -4 -9.5t-10 -4.5h-100q-60 0 -104 30.5t-68 81.5l-16 -21q-45 -48 -107.5 -69t-128.5 -22h-161q-6 0 -10 4.5t-4 9.5z" />
    <glyph glyph-name="uniFEA6" unicode="&#x62e;" horiz-adv-x="706" arabic-form="final" 
d="M40 279l30 101q10 33 31 58t49 40t49 17t30 2q23 0 45 -6l405 -121l-38 -134l-73 21q-12 4 -21 4q-5 0 -9 -1q-6 -1 -10 -3v-59q0 -12 8 -20t20 -8h150q6 0 9.5 -4.5t4.5 -9.5v-142q0 -5 -4 -9.5t-10 -4.5h-110q-38 0 -69 13.5t-53 37t-35 53.5t-16 63v5l-159 -113
q-21 -15 -32 -39.5t-11 -50.5q0 -25 9.5 -47.5t26.5 -39t39.5 -26t47.5 -9.5h279v-170h-279q-59 0 -111 22t-90.5 60.5t-61 89t-22.5 107.5q0 60 25.5 110.5t70.5 82.5q27 19 44 31.5t29 21.5t21.5 16t21 15.5t26.5 20t38 28.5q19 14 34 24q9 6 12 7l-167 49h-2q-2 0 -5 -1
t-5 -6l-38 -108zM137 702h130v-135h-130v135z" />
    <glyph glyph-name="uniFEA7" unicode="&#x62e;" horiz-adv-x="685" arabic-form="initial" 
d="M-14 154q0 6 4.5 11t9.5 5h202q38 0 76 12t63 42l32 46q5 6 6 9l2 2l-191 56q-2 1 -4 1q-6 0 -8 -8l-38 -108l-122 32l29 101q11 36 33 61.5t50.5 39t48 15.5t27.5 2q23 0 45 -7l404 -121l-38 -134l-64 19q-17 4 -27 4q-2 0 -8.5 -0.5t-17.5 -14.5l-103 -128
q-21 -25 -48 -42.5t-57.5 -28t-64 -15.5t-66.5 -5h-161q-6 0 -10 4.5t-4 9.5v140zM149 677h130v-135h-130v135z" />
    <glyph glyph-name="uniFEA8" unicode="&#x62e;" horiz-adv-x="685" arabic-form="medial" 
d="M-10 165q5 5 10 5h202q38 0 76 12t63 42l32 46q5 6 6 9l2 2l-191 56h-3q-7 0 -9 -7l-38 -108l-124 32l30 101q11 36 33.5 61.5t51 39t48.5 15.5t28 2q23 0 44 -7l404 -121l-38 -134l-73 21q-13 4 -21 4q-3 0 -8.5 -1t-10.5 -3v-34q0 -11 8 -19.5t20 -8.5h153
q5 0 9.5 -3.5t4.5 -10.5v-142q0 -5 -4 -9.5t-10 -4.5h-100q-60 0 -104 30.5t-68 81.5l-16 -21q-45 -48 -107.5 -69t-128.5 -22h-161q-6 0 -10 4.5t-4 9.5v140q0 6 4 11zM149 542v135h130v-135h-130z" />
    <glyph glyph-name="uniFEAA" unicode="&#x62f;" horiz-adv-x="587" arabic-form="final" 
d="M40 152v150h120v-116q0 -16 17 -16h144q21 0 35 11.5t14 26.5q0 6 -2 12l-85 305l137 50l107 -381q3 -11 12 -17.5t20 -6.5h28q5 0 9.5 -5t4.5 -11v-140q0 -5 -4 -9.5t-10 -4.5h-15q-41 0 -71.5 16t-51.5 36q-28 -29 -61 -40.5t-69 -11.5h-126q-31 0 -59 12t-49 32.5
t-33 48.5t-12 59z" />
    <glyph glyph-name="uniFEAC" unicode="&#x630;" horiz-adv-x="593" arabic-form="final" 
d="M40 152v150h120v-116q0 -16 17 -16h144q21 0 35 11.5t14 26.5q0 6 -2 12l-85 305l137 50l107 -381q3 -11 12 -17.5t20 -6.5h28q5 0 9.5 -5t4.5 -11v-140q0 -5 -4 -9.5t-10 -4.5h-15q-41 0 -71.5 16t-51.5 36q-28 -29 -61 -40.5t-69 -11.5h-126q-31 0 -59 12t-49 32.5
t-33 48.5t-12 59zM269 780h130v-135h-130v135z" />
    <glyph glyph-name="uniFEAE" unicode="&#x631;" horiz-adv-x="410" arabic-form="final" 
d="M-41 -129l163 56q34 11 53.5 39t19.5 63v369h145v-205q0 -11 7.5 -17t18.5 -6h44q14 0 14 -14v-142q0 -14 -14 -14h-20q-12 0 -27.5 6.5t-23.5 14.5v-15q0 -40 -13.5 -73.5t-37.5 -60.5t-57 -47t-71 -33l-157 -54z" />
    <glyph glyph-name="uniFEB0" unicode="&#x632;" horiz-adv-x="410" arabic-form="final" 
d="M122 -73q34 11 53.5 39t19.5 63v369h145v-205q0 -11 7.5 -17t18.5 -6h44q14 0 14 -14v-142q0 -14 -14 -14h-20q-12 0 -27.5 6.5t-23.5 14.5v-15q0 -40 -13.5 -73.5t-37.5 -60.5t-57 -47t-71 -33l-157 -54l-44 133zM201 612h130v-135h-130v135z" />
    <glyph glyph-name="uniFEB2" unicode="&#x633;" horiz-adv-x="1256" arabic-form="final" 
d="M185 381v-294q0 -39 27 -66t66 -27h183q31 0 52 21.5t22 52.5v330h145v-198q0 -15 9.5 -22.5t17.5 -7.5h37q12 0 21.5 7.5t11.5 20.5l40 199l147 -24l-34 -168q-1 -4 -1 -8q0 -10 6.5 -18.5t20.5 -8.5h55q12 0 20 8.5t8 19.5v225h145v-221q0 -32 28 -32h44q14 0 14 -14
v-142q0 -14 -14 -14h-20q-36 0 -67.5 11.5t-57.5 40.5q-26 -28 -60 -40t-69 -12q-15 0 -33.5 2.5t-37 8.5t-35 16t-28.5 25q-23 -29 -49.5 -40.5t-55.5 -11.5q-17 0 -33 4.5t-31 16.5v-8q0 -40 -18.5 -74.5t-49 -60t-70.5 -40t-82 -14.5h-175q-51 0 -95.5 19.5t-77.5 52.5
t-52 77.5t-19 94.5v313h145z" />
    <glyph glyph-name="uniFEB3" unicode="&#x633;" horiz-adv-x="752" arabic-form="initial" 
d="M-14 155q0 6 4.5 10.5t9.5 4.5h46q11 0 19.5 9.5t8.5 20.5v197h144v-197q0 -12 8 -21t20 -9h34q28 0 35 28l40 199l147 -25l-34 -167q-1 -4 -1 -8q0 -9 7 -18t20 -9h84v253h144v-275q0 -29 -12 -56t-32.5 -47.5t-47.5 -32.5t-57 -12h-80q-30 0 -57 11t-50 40
q-26 -29 -54.5 -40t-60.5 -11q-35 0 -67 12t-58 39q-26 -27 -58.5 -39t-67.5 -12h-20q-6 0 -10 4.5t-4 9.5v141z" />
    <glyph glyph-name="uniFEB4" unicode="&#x633;" horiz-adv-x="790" arabic-form="medial" 
d="M-14 155q0 6 4.5 10.5t9.5 4.5h42q12 0 20 8.5t8 20.5v198h144v-197q0 -14 9.5 -22t17.5 -8h37q12 0 21.5 7.5t11.5 20.5l40 199l147 -24l-34 -168q-1 -5 -1 -9q0 -9 6.5 -17.5t20.5 -8.5h56q12 0 20 8.5t8 19.5v225h144v-221q0 -32 28 -32h44q14 0 14 -14v-142
q0 -14 -14 -14h-20q-36 0 -67.5 11.5t-57.5 40.5q-26 -28 -60 -40t-69 -12q-15 0 -33.5 2.5t-37 8.5t-35 16t-28.5 25q-26 -29 -54.5 -40.5t-60.5 -11.5q-34 0 -66.5 11.5t-58.5 40.5q-26 -29 -56.5 -40.5t-65.5 -11.5h-20q-6 0 -10 4.5t-4 9.5v141z" />
    <glyph glyph-name="uniFEB6" unicode="&#x634;" horiz-adv-x="1254" arabic-form="final" 
d="M40 68v312h145v-292q0 -39 27 -66t66 -27h184q31 0 52.5 21.5t21.5 52.5v328h144v-198q0 -14 9.5 -21.5t17.5 -7.5h37q12 0 21.5 7t11.5 20l40 199l147 -24l-34 -168q-1 -5 -1 -9q0 -9 6.5 -17t20.5 -8h55q12 0 20 8t8 19v225h145v-221q0 -31 28 -31h42q14 0 14 -14v-142
q0 -14 -14 -14h-18q-36 0 -67.5 11.5t-57.5 40.5q-26 -28 -60 -40t-69 -12q-15 0 -33.5 2.5t-37 8.5t-35 16t-28.5 25q-23 -29 -49.5 -40.5t-55.5 -11.5q-17 0 -33 4.5t-31 16.5v-8q0 -40 -18.5 -75t-49 -60.5t-70.5 -40t-82 -14.5h-175q-51 0 -95.5 19.5t-77.5 52.5
t-52 77.5t-19 95.5zM779 612v105h130v-105h68v-135h-260v135h62z" />
    <glyph glyph-name="uniFEB7" unicode="&#x634;" horiz-adv-x="752" arabic-form="initial" 
d="M-14 155q0 6 4.5 10.5t9.5 4.5h46q11 0 19.5 9.5t8.5 20.5v197h144v-197q0 -12 8 -21t20 -9h34q28 0 35 28l40 199l147 -25l-34 -167q-1 -4 -1 -8q0 -9 7 -18t20 -9h84v253h144v-275q0 -29 -12 -56t-32.5 -47.5t-47.5 -32.5t-57 -12h-80q-30 0 -57 11t-50 40
q-26 -29 -54.5 -40t-60.5 -11q-35 0 -67 12t-58 39q-26 -27 -58.5 -39t-67.5 -12h-20q-6 0 -10 4.5t-4 9.5v141zM256 477v135h62v105h130v-105h68v-135h-260z" />
    <glyph glyph-name="uniFEB8" unicode="&#x634;" horiz-adv-x="790" arabic-form="medial" 
d="M-14 14v141q0 6 4.5 10.5t9.5 4.5h42q12 0 20 8.5t8 20.5v198h144v-197q0 -14 9.5 -22t17.5 -8h37q12 0 21.5 7.5t11.5 20.5l40 199l147 -24l-34 -168q-1 -5 -1 -9q0 -9 6.5 -17.5t20.5 -8.5h56q12 0 20 8.5t8 19.5v225h144v-221q0 -32 28 -32h44q14 0 14 -14v-142
q0 -14 -14 -14h-20q-36 0 -67.5 11.5t-57.5 40.5q-26 -28 -60 -40t-69 -12q-15 0 -33.5 2.5t-37 8.5t-35 16t-28.5 25q-26 -29 -54.5 -40.5t-60.5 -11.5q-34 0 -66.5 11.5t-58.5 40.5q-26 -29 -56.5 -40.5t-65.5 -11.5h-20q-6 0 -10 4.5t-4 9.5zM252 477v135h62v105h130
v-105h68v-135h-260z" />
    <glyph glyph-name="uniFEBA" unicode="&#x635;" horiz-adv-x="1293" arabic-form="final" 
d="M184 384v-293q0 -19 7.5 -36.5t20 -30t30 -20t36.5 -7.5h184q30 0 52 21.5t22 52.5v328h144v-111q0 -12 2 -19.5t4 -11.5q2 -6 5 -8l108 116q34 37 81.5 57.5t98.5 20.5h62q38 0 72 -14.5t59 -39.5t39.5 -58.5t14.5 -71.5v-61q0 -11 8 -19.5t19 -8.5h39q4 0 9.5 -4.5
t5.5 -10.5v-140q0 -5 -4 -10t-10 -5h-16q-36 0 -68.5 11.5t-58.5 32.5q-28 -21 -61.5 -32.5t-70.5 -11.5h-144q-33 0 -65.5 4.5t-59.5 11.5t-46 15.5t-25 15.5v-33q0 -40 -18 -74t-48 -59t-69.5 -39.5t-82.5 -14.5h-176q-50 0 -94.5 19t-77.5 52t-52.5 77.5t-19.5 95.5v313
h144zM1048 171q14 0 23.5 10t9.5 24v42q0 13 -9 21.5t-22 8.5h-108q-20 0 -39 -8t-33 -23l-71 -75h249z" />
    <glyph glyph-name="uniFEBB" unicode="&#x635;" horiz-adv-x="794" arabic-form="initial" 
d="M-14 15v138q0 6 3.5 11.5t10.5 5.5h46q12 0 20 8.5t8 19.5v185h144v-95q0 -11 2 -18.5t4 -12.5t5 -8l107 116q35 38 83 58t99 20h61q38 0 72 -14.5t59 -39.5t39.5 -58.5t14.5 -71.5v-51q0 -43 -16.5 -81t-44.5 -66t-66 -44.5t-81 -16.5h-250q-18 0 -40.5 3t-45 9
t-42.5 16t-33 24q-26 -28 -58 -40t-67 -12h-20q-6 0 -10 4.5t-4 10.5zM586 170q14 0 24 11t10 25v41q0 13 -9 22t-22 9h-109q-41 0 -71 -32l-71 -76h248z" />
    <glyph glyph-name="uniFEBC" unicode="&#x635;" horiz-adv-x="835" arabic-form="medial" 
d="M-14 154q0 6 4 11t10 5h47q11 0 19.5 7.5t8.5 19.5v187h144v-96q0 -23 5 -30.5t5 -8.5l108 116q35 38 82.5 58.5t98.5 20.5h61q38 0 72 -14.5t59 -39.5t39.5 -59t14.5 -72v-61q0 -12 8 -20t20 -8h43q6 0 10.5 -5t4.5 -11v-140q0 -5 -4.5 -9.5t-10.5 -4.5h-20
q-36 0 -68.5 11.5t-58.5 32.5q-28 -20 -61.5 -32t-70.5 -12h-250q-18 0 -40 3t-44.5 9t-42.5 16t-33 24q-26 -28 -58.5 -40t-67.5 -12h-20q-6 0 -10 4.5t-4 9.5v140zM586 170q14 0 24 10.5t10 24.5v43q0 13 -9 21.5t-22 8.5h-109q-43 0 -71 -31l-70 -77h247z" />
    <glyph glyph-name="uniFEBE" unicode="&#x636;" horiz-adv-x="1297" arabic-form="final" 
d="M184 384v-293q0 -19 7.5 -36.5t20 -30t30 -20t36.5 -7.5h184q30 0 52 21.5t22 52.5v328h144v-111q0 -12 2 -19.5t4 -11.5q2 -6 5 -8l108 116q34 37 81.5 57.5t98.5 20.5h62q38 0 72 -14.5t59 -39.5t39.5 -58.5t14.5 -71.5v-61q0 -11 8 -19.5t19 -8.5h44q6 0 10 -4.5
t4 -10.5v-140q0 -5 -4 -10t-10 -5h-20q-36 0 -68.5 11.5t-58.5 32.5q-28 -21 -61.5 -32.5t-70.5 -11.5h-144q-33 0 -65.5 4.5t-59.5 11.5t-46 15.5t-25 15.5v-33q0 -40 -18 -74t-48 -59t-69.5 -39.5t-82.5 -14.5h-176q-50 0 -94.5 19t-77.5 52t-52.5 77.5t-19.5 95.5v313
h144zM799 171h249q14 0 23.5 10t9.5 24v42q0 13 -9 21.5t-22 8.5h-108q-20 0 -39 -8t-33 -23zM1023 647v-135h-130v135h130z" />
    <glyph glyph-name="uniFEBF" unicode="&#x636;" horiz-adv-x="794" arabic-form="initial" 
d="M-14 153q0 6 3.5 11.5t10.5 5.5h46q12 0 20 8.5t8 19.5v185h144v-95q0 -11 2 -18.5t4 -12.5t5 -8l107 116q35 38 83 58t99 20h61q38 0 72 -14.5t59 -39.5t39.5 -58.5t14.5 -71.5v-51q0 -43 -16.5 -81t-44.5 -66t-66 -44.5t-81 -16.5h-250q-18 0 -40.5 3t-45 9t-42.5 16
t-33 24q-26 -28 -58 -40t-67 -12h-20q-6 0 -10 4.5t-4 10.5v138zM338 170h248q14 0 24 11t10 25v41q0 13 -9 22t-22 9h-109q-41 0 -71 -32zM632 647v-135h-130v135h130z" />
    <glyph glyph-name="uniFEC0" unicode="&#x636;" horiz-adv-x="835" arabic-form="medial" 
d="M-14 154q0 6 4 11t10 5h47q11 0 19.5 7.5t8.5 19.5v187h144v-96q0 -23 5 -30.5t5 -8.5l108 116q35 38 82.5 58.5t98.5 20.5h61q38 0 72 -14.5t59 -39.5t39.5 -59t14.5 -72v-61q0 -12 8 -20t20 -8h43q6 0 10.5 -5t4.5 -11v-140q0 -5 -4.5 -9.5t-10.5 -4.5h-20
q-36 0 -68.5 11.5t-58.5 32.5q-28 -20 -61.5 -32t-70.5 -12h-250q-18 0 -40 3t-44.5 9t-42.5 16t-33 24q-26 -28 -58.5 -40t-67.5 -12h-20q-6 0 -10 4.5t-4 9.5v140zM586 170q14 0 24 10.5t10 24.5v43q0 13 -9 21.5t-22 8.5h-109q-43 0 -71 -31l-70 -77h247zM616 647v-135
h-130v135h130z" />
    <glyph glyph-name="uniFEC2" unicode="&#x637;" horiz-adv-x="759" arabic-form="final" 
d="M80 170l100 109v428h144v-225q0 -12 -3 -24.5t-6.5 -23t-5.5 -17.5l-3 -7v0v0l-2 -3t-2 -4v0q31 20 66.5 30.5t72.5 10.5h61q39 0 73 -14.5t58.5 -39.5t39 -58.5t14.5 -72.5v-63q1 -11 9 -18t19 -7h44q14 0 14 -14v-143q0 -14 -14 -14h-20q-36 0 -69 12.5t-59 39.5
q-28 -27 -61.5 -39.5t-70.5 -12.5h-439v170h40zM509 170q14 0 24 10t10 24v43q0 14 -9 22.5t-22 8.5h-99q-43 0 -71 -31l-69 -77h236z" />
    <glyph glyph-name="uniFEC3" unicode="&#x637;" horiz-adv-x="657" arabic-form="initial" 
d="M-14 14v142q0 5 4 9.5t10 4.5h20l100 109v428h144v-225q0 -12 -3 -24.5t-6 -22.5q-5 -13 -10 -24q0 -1 -2 -5q0 -1 -1 -2q31 19 66 29.5t73 10.5h61q39 0 73 -14.5t58.5 -39.5t39 -58.5t14.5 -72.5v-51q0 -43 -16.5 -81t-44.5 -66t-66 -44.5t-81 -16.5h-419q-5 0 -9.5 4
t-4.5 10zM449 170q14 0 24 9.5t10 23.5v45q0 13 -9 21.5t-22 8.5h-99q-43 0 -71 -31l-69 -77h236z" />
    <glyph glyph-name="uniFEC4" unicode="&#x637;" horiz-adv-x="699" arabic-form="medial" 
d="M-14 156q0 6 4 10.5t10 4.5h20l100 108v428h144v-225q0 -12 -2.5 -24t-5.5 -22.5t-6 -17t-4 -8.5q-2 -4 -3 -5q0 -1 -1 -2q31 20 66.5 30.5t72.5 10.5h61q39 0 73 -14.5t58.5 -39.5t39 -58.5t14.5 -72.5v-64q1 -11 9 -18t19 -7h44q14 0 14 -14v-142q0 -14 -14 -14h-20
q-36 0 -69 12.5t-59 40.5q-28 -28 -61.5 -40.5t-70.5 -12.5h-419h-2q-5 0 -8.5 4t-3.5 10v142zM449 170q14 0 24 9.5t10 23.5v44q0 14 -9 22.5t-22 8.5h-99q-43 0 -71 -31l-69 -77h236z" />
    <glyph glyph-name="uniFEC6" unicode="&#x638;" horiz-adv-x="759" arabic-form="final" 
d="M40 170h40l100 109v428h144v-225q0 -12 -3 -24.5t-6.5 -23t-5.5 -17.5l-3 -7v0v0l-2 -3t-2 -4v0q31 20 66.5 30.5t72.5 10.5h61q39 0 73 -14.5t58.5 -39.5t39 -58.5t14.5 -72.5v-63q1 -11 9 -18t19 -7h44q14 0 14 -14v-143q0 -14 -14 -14h-20q-36 0 -69 12.5t-59 39.5
q-28 -27 -61.5 -39.5t-70.5 -12.5h-439v170zM273 170h236q14 0 24 10t10 24v43q0 14 -9 22.5t-22 8.5h-99q-43 0 -71 -31zM419 646h130v-135h-130v135z" />
    <glyph glyph-name="uniFEC7" unicode="&#x638;" horiz-adv-x="657" arabic-form="initial" 
d="M-14 156q0 5 4 9.5t10 4.5h20l100 109v428h144v-225q0 -12 -3 -24.5t-6 -22.5q-5 -13 -10 -24q0 -1 -2 -5q0 -1 -1 -2q31 19 66 29.5t73 10.5h61q39 0 73 -14.5t58.5 -39.5t39 -58.5t14.5 -72.5v-51q0 -43 -16.5 -81t-44.5 -66t-66 -44.5t-81 -16.5h-419q-5 0 -9.5 4
t-4.5 10v142zM213 170h236q14 0 24 9.5t10 23.5v45q0 13 -9 21.5t-22 8.5h-99q-43 0 -71 -31zM469 647v-135h-130v135h130z" />
    <glyph glyph-name="uniFEC8" unicode="&#x638;" horiz-adv-x="699" arabic-form="medial" 
d="M-14 156q0 6 4 10.5t10 4.5h20l100 108v428h144v-225q0 -12 -2.5 -24t-5.5 -22.5t-6 -17t-4 -8.5q-2 -4 -3 -5q0 -1 -1 -2q31 20 66.5 30.5t72.5 10.5h61q39 0 73 -14.5t58.5 -39.5t39 -58.5t14.5 -72.5v-64q1 -11 9 -18t19 -7h44q14 0 14 -14v-142q0 -14 -14 -14h-20
q-36 0 -69 12.5t-59 40.5q-28 -28 -61.5 -40.5t-70.5 -12.5h-419h-2q-5 0 -8.5 4t-3.5 10v142zM449 170q14 0 24 9.5t10 23.5v44q0 14 -9 22.5t-22 8.5h-99q-43 0 -71 -31l-69 -77h236zM469 646v-135h-130v135h130z" />
    <glyph glyph-name="uniFECA" unicode="&#x639;" horiz-adv-x="621" arabic-form="final" 
d="M40 -119q0 59 24 111t67 84l62 47l-117 84v138q0 61 36.5 97t96.5 36h181q36 0 67 -14t54.5 -37.5t37 -54.5t13.5 -66v-27q0 -34 -16 -63t-42 -48l-14 -11q2 1 10 3t19.5 4.5t25 4t26.5 1.5h50q14 0 14 -14v-142q0 -5 -4 -9.5t-10 -4.5h-124q-46 0 -89.5 11t-85.5 29
l-78 -55q-20 -14 -31 -38.5t-11 -50.5q0 -25 9.5 -47.5t26.5 -39t39.5 -26t47.5 -9.5h280v-171h-280q-59 0 -111 22.5t-90.5 60.5t-61 88.5t-22.5 106.5zM220 329v-41l104 -78l92 62v28q0 12 -8.5 20.5t-20.5 8.5h-167z" />
    <glyph glyph-name="uniFECB" unicode="&#x639;" horiz-adv-x="484" arabic-form="initial" 
d="M-14 155q0 6 3.5 10.5t10.5 4.5h57q-4 4 -6.5 13.5t-4.5 19.5l-16 95q-3 15 -3 30q0 24 9.5 54t33.5 58t59 45t76 17h197v-156h-202q-12 0 -18 -8.5t-6 -17.5v-5l25 -141l228 26l25 -159l-191 -25q-60 -8 -119 -12t-116 -4h-28q-5 0 -9.5 3.5t-4.5 10.5v141z" />
    <glyph glyph-name="uniFECC" unicode="&#x639;" horiz-adv-x="549" arabic-form="medial" 
d="M-14 13v142q0 6 4 10.5t10 4.5h20q15 0 31 -2t30.5 -4t24.5 -4.5t12 -2.5l-85 58v128q0 61 36.5 97t96.5 36h181q36 0 67.5 -13.5t55 -37t37 -55t13.5 -67.5v-26q0 -33 -15 -63.5t-43 -48.5l-15 -10q2 0 12.5 2.5t23.5 5.5l26 5q13 2 20 2h20q8 0 11 -4.5t3 -10.5v-142
q0 -13 -14 -13h-67q-54 0 -106.5 13t-100.5 42q-49 -29 -102 -42t-107 -13h-66q-5 0 -9.5 4t-4.5 9zM177 286q6 -4 23 -17t34 -27q21 -16 45 -35l95 62v29q0 11 -8.5 21.5t-19.5 10.5h-169v-44z" />
    <glyph glyph-name="uniFECE" unicode="&#x63a;" horiz-adv-x="621" arabic-form="final" 
d="M64 -8q24 52 67 84l62 47l-117 84v138q0 61 36.5 97t96.5 36h181q36 0 67 -14t54.5 -37.5t37 -54.5t13.5 -66v-27q0 -34 -16 -63t-42 -48l-14 -11q2 1 10 3t19.5 4.5t25 4t26.5 1.5h50q14 0 14 -14v-142q0 -5 -4 -9.5t-10 -4.5h-124q-46 0 -89.5 11t-85.5 29l-78 -55
q-20 -14 -31 -38.5t-11 -50.5q0 -25 9.5 -47.5t26.5 -39t39.5 -26t47.5 -9.5h280v-171h-280q-59 0 -111 22.5t-90.5 60.5t-61 88.5t-22.5 106.5q0 59 24 111zM258 697h130v-135h-130v135zM324 210l92 62v28q0 12 -8.5 20.5t-20.5 8.5h-167v-41z" />
    <glyph glyph-name="uniFECF" unicode="&#x63a;" horiz-adv-x="484" arabic-form="initial" 
d="M-14 14v141q0 6 3.5 10.5t10.5 4.5h57q-4 4 -6.5 13.5t-4.5 19.5l-16 95q-3 15 -3 30q0 24 9.5 54t33.5 58t59 45t76 17h197v-156h-202q-12 0 -18 -8.5t-6 -17.5v-5l25 -141l228 26l25 -159l-191 -25q-60 -8 -119 -12t-116 -4h-28q-5 0 -9.5 3.5t-4.5 10.5zM312 716v-135
h-130v135h130z" />
    <glyph glyph-name="uniFED0" unicode="&#x63a;" horiz-adv-x="549" arabic-form="medial" 
d="M-14 13v142q0 6 4 10.5t10 4.5h20q15 0 31 -2t30.5 -4t24.5 -4.5t12 -2.5l-85 58v128q0 61 36.5 97t96.5 36h181q36 0 67.5 -13.5t55 -37t37 -55t13.5 -67.5v-26q0 -33 -15 -63.5t-43 -48.5l-15 -10q2 0 12.5 2.5t23.5 5.5l26 5q13 2 20 2h20q8 0 11 -4.5t3 -10.5v-142
q0 -13 -14 -13h-67q-54 0 -106.5 13t-100.5 42q-49 -29 -102 -42t-107 -13h-66q-5 0 -9.5 4t-4.5 9zM214 561v135h130v-135h-130zM177 286q6 -4 23 -17t34 -27q21 -16 45 -35l95 62v29q0 11 -8.5 21.5t-19.5 10.5h-169v-44z" />
    <glyph glyph-name="uniFED2" unicode="&#x641;" horiz-adv-x="959" arabic-form="final" 
d="M184 428v-191q0 -13 6 -25t15.5 -21t21.5 -14.5t24 -5.5h205q17 0 24 -1l19 -3q-5 22 -6.5 43t-1.5 37v30q0 42 18 80t47.5 67t67 46t76.5 17h18q42 0 78.5 -16t64 -43t43.5 -64t16 -79v-38q0 -17 -1.5 -38t-6.5 -43q7 2 15.5 3t11.5 1h20q7 0 11 -4.5t4 -10.5v-141
q0 -5 -4.5 -9.5t-10.5 -4.5h-72q-26 0 -47 2t-41.5 7.5t-43 14t-50.5 21.5q-28 -13 -50 -21.5t-43 -14t-42 -7.5t-46 -2h-263q-44 0 -84 17.5t-70.5 47.5t-48.5 70.5t-18 85.5v207h144zM766 691v-135h-130v135h130zM634 233q0 -12 19.5 -26.5t51.5 -25.5q32 11 51 25.5
t19 26.5v30q0 24 -17 41t-41 17h-25q-24 0 -41 -17t-17 -41v-30z" />
    <glyph glyph-name="uniFED3" unicode="&#x641;" horiz-adv-x="495" arabic-form="initial" 
d="M-14 14v141q0 6 3.5 10.5t10.5 4.5h297q10 0 17 6t7 18v46q-4 -4 -11 -8q-5 -3 -14 -5.5t-21 -2.5h-55q-43 0 -78.5 16.5t-59.5 45t-32 58t-8 51.5q0 18 4 37l12 62q6 31 22 57t39 45t52 30t60 11h53q38 0 70.5 -14.5t57.5 -39t39 -57.5t14 -70v-257q0 -41 -15.5 -77
t-42.5 -63t-63.5 -43t-77.5 -16h-266q-6 0 -10 4.5t-4 9.5zM189 850h130v-135h-130v135zM183 377q3 -5 9 -5h129v96v2q0 6 -4.5 9.5t-11.5 4.5h-93q-16 0 -19 -16l-13 -81v-2q0 -5 3 -8z" />
    <glyph glyph-name="uniFED4" unicode="&#x641;" horiz-adv-x="522" arabic-form="medial" 
d="M-14 14v140q0 6 4 11t10 5h20q11 0 21.5 -1.5t12.5 -1.5q-5 22 -6.5 43t-1.5 38v29q0 45 18 83.5t47.5 66.5t67 44t76.5 16h18q42 0 78.5 -15.5t64 -43t43.5 -64t16 -78.5v-38q0 -17 -1 -38.5t-6 -42.5q2 0 12.5 1.5t21.5 1.5h20q6 0 10 -5t4 -11v-140q0 -5 -4.5 -9.5
t-9.5 -4.5h-80q-25 0 -46.5 1.5t-42.5 6.5t-43 14t-50 24q-27 -15 -49 -24t-43 -14t-42.5 -6.5t-47.5 -1.5h-78q-6 0 -9.5 4.5t-4.5 9.5zM326 691v-135h-130v135h130zM189 233q0 -13 19.5 -27t51.5 -25q32 11 51 25.5t19 26.5v30q0 24 -17 41t-41 17h-25q-24 0 -41 -16.5
t-17 -40.5v-31z" />
    <glyph glyph-name="uniFED6" unicode="&#x642;" horiz-adv-x="720" arabic-form="final" 
d="M40 19v283h144v-263q0 -19 7.5 -36.5t20.5 -30t30.5 -20t36.5 -7.5h183q31 0 52.5 16.5t21.5 41.5v9q-17 -6 -36 -9t-37 -3h-29q-42 0 -78 18t-61 48t-33 60t-8 53q0 18 3 36l16 78q6 30 22 56.5t38.5 45.5t51 30t60.5 11h55q38 0 70.5 -14.5t57 -39t38.5 -57t14 -69.5
v-86h40q6 0 10 -4.5t4 -10.5v-141q0 -5 -4 -9.5t-10 -4.5h-40v-5q0 -46 -17 -86t-47 -70t-70 -47t-86 -17h-175q-51 0 -95.5 19t-77.5 52t-52.5 77.5t-19.5 95.5zM345 640h260v-135h-260v135zM410 170h126v83q-1 6 -5.5 11t-11.5 5h-89q-15 0 -18 -15l-15 -69v-3
q0 -10 13 -12z" />
    <glyph glyph-name="uniFED7" unicode="&#x642;" horiz-adv-x="495" arabic-form="initial" 
d="M-14 14v141q0 6 3.5 10.5t10.5 4.5h297q10 0 17 6t7 18v46q-4 -4 -11 -8q-5 -3 -14 -5.5t-21 -2.5h-55q-43 0 -78.5 16.5t-59.5 45t-32 58t-8 51.5q0 18 4 37l12 62q6 31 22 57t39 45t52 30t60 11h53q38 0 70.5 -14.5t57.5 -39t39 -57.5t14 -70v-257q0 -41 -15.5 -77
t-42.5 -63t-63.5 -43t-77.5 -16h-266q-6 0 -10 4.5t-4 9.5zM122 846h260v-135h-260v135zM183 377q3 -5 9 -5h129v96v2q0 6 -4.5 9.5t-11.5 4.5h-93q-16 0 -19 -16l-13 -81v-2q0 -5 3 -8z" />
    <glyph glyph-name="uniFED8" unicode="&#x642;" horiz-adv-x="522" arabic-form="medial" 
d="M-14 154q0 6 4 11t10 5h20q11 0 21.5 -1.5t12.5 -1.5q-5 22 -6.5 43t-1.5 38v29q0 45 18 83.5t47.5 66.5t67 44t76.5 16h18q42 0 78.5 -15.5t64 -43t43.5 -64t16 -78.5v-38q0 -17 -1 -38.5t-6 -42.5q2 0 12.5 1.5t21.5 1.5h20q6 0 10 -5t4 -11v-140q0 -5 -4.5 -9.5
t-9.5 -4.5h-80q-25 0 -46.5 1.5t-42.5 6.5t-43 14t-50 24q-27 -15 -49 -24t-43 -14t-42.5 -6.5t-47.5 -1.5h-78q-6 0 -9.5 4.5t-4.5 9.5v140zM133 691h260v-135h-260v135zM189 233q0 -13 19.5 -27t51.5 -25q32 11 51 25.5t19 26.5v30q0 24 -17 41t-41 17h-25
q-24 0 -41 -16.5t-17 -40.5v-31z" />
    <glyph glyph-name="uniFEDA" unicode="&#x643;" horiz-adv-x="908" arabic-form="final" 
d="M40 428h145v-195q0 -26 18.5 -44.5t44.5 -18.5h420q12 0 20 8t8 18v2v557h145v-557q0 -12 8.5 -20t19.5 -8h39q14 0 14 -14v-142q0 -6 -4.5 -10t-9.5 -4h-15q-36 0 -67 11t-57 31q-26 -20 -58.5 -31t-67.5 -11h-380q-46 0 -86.5 17.5t-71 48t-48 71t-17.5 86.5v205z
M350 475q-1 0 -6.5 2t-11.5 16q0 1 -3 7.5t-4 7.5q-11 25 -11 48q0 20 13.5 48t52.5 45l86 36l42 -104l-79 -33q-5 -2 -5 -6t3 -9q2 -3 3 -6t5 -10l100 52l48 -96l-247 -126l-49 101z" />
    <glyph glyph-name="uniFEDB" unicode="&#x643;" horiz-adv-x="425" arabic-form="initial" 
d="M-14 156q0 6 3.5 10t7.5 4h2h143q23 0 39.5 12.5t24.5 30t8 36t-9 30.5l-179 240v93l365 183l64 -125l-278 -139l134 -170q28 -35 36.5 -68.5t8.5 -59.5q0 -14 -3.5 -40.5t-21.5 -64t-47.5 -66t-68.5 -45.5t-85 -17h-129q-6 0 -10.5 4.5t-4.5 10.5v141z" />
    <glyph glyph-name="uniFEDC" unicode="&#x643;" horiz-adv-x="528" arabic-form="medial" 
d="M-14 156q0 5 4.5 9.5t9.5 4.5h142q23 0 39 12.5t24.5 29.5t8.5 35.5t-9 31.5l-179 240v93l365 183l64 -125l-278 -139l266 -333q11 -13 28 -20.5t34 -7.5h23q5 0 9.5 -4t4.5 -10v-142v-2q0 -4 -4.5 -8t-9.5 -4h-15q-38 0 -74.5 17t-57.5 43l-59 74q-12 -24 -29.5 -48
t-41.5 -43t-54.5 -31t-66.5 -12h-130q-6 0 -10 4.5t-4 10.5v141z" />
    <glyph glyph-name="uniFEDE" unicode="&#x644;" horiz-adv-x="763" arabic-form="final" 
d="M40 353h144v-266q0 -19 7.5 -36t20.5 -29.5t30 -20t36 -7.5h183q31 0 52.5 21.5t21.5 52.5v638h145v-509q0 -11 8.5 -18.5t19.5 -8.5h55q14 0 14 -14v-143q0 -13 -14 -13h-20q-18 0 -34.5 5t-29.5 16v-13q0 -27 -14 -59t-42 -60t-69 -46.5t-95 -18.5h-175
q-51 0 -95.5 19.5t-77.5 52.5t-52 77.5t-19 94.5v285z" />
    <glyph glyph-name="uniFEDF" unicode="&#x644;" horiz-adv-x="249" arabic-form="initial" 
d="M-14 14v143q0 13 14 13h47q12 0 20 7.5t8 19.5v510h144v-508q0 -41 -15.5 -77.5t-42.5 -63.5t-63.5 -42.5t-77.5 -15.5h-20q-5 0 -9.5 4t-4.5 10z" />
    <glyph glyph-name="uniFEE0" unicode="&#x644;" horiz-adv-x="290" arabic-form="medial" 
d="M-14 14v142q0 14 14 14h47q11 0 19.5 8t8.5 20v509h144v-515q5 -22 27 -22h44q14 0 14 -14v-142q0 -14 -14 -14h-20q-35 0 -66.5 12t-57.5 40q-26 -28 -58.5 -40t-67.5 -12h-20q-5 0 -9.5 4t-4.5 10z" />
    <glyph glyph-name="uniFEE2" unicode="&#x645;" horiz-adv-x="741" arabic-form="final" 
d="M40 -243v488q0 41 15.5 77.5t42.5 63.5t63.5 42.5t77.5 15.5h251q38 0 71.5 -14.5t58.5 -39.5t39.5 -59t14.5 -72v-61q0 -11 7.5 -19.5t18.5 -8.5h2h39q14 0 14 -14v-142q0 -14 -14 -14h-15q-59 0 -108 29q-21 -14 -45 -21.5t-47 -7.5h-109q-42 0 -76.5 17.5t-58.5 47
t-32.5 60t-8.5 54.5q0 16 3 32l12 68h-43q-11 0 -19.5 -7t-8.5 -18v-497h-145zM389 174q3 -4 6 -4h2h132v90q0 8 -5 13t-12 5h-107l-19 -95v-2q0 -4 3 -7z" />
    <glyph glyph-name="uniFEE3" unicode="&#x645;" horiz-adv-x="527" arabic-form="initial" 
d="M0 170h30q13 0 21.5 7.5t12.5 19.5l20 104q6 31 21.5 57.5t39 45.5t52.5 29.5t60 10.5h56q38 0 71.5 -14.5t58.5 -39.5t39.5 -59t14.5 -72v-111q0 -29 -12 -56t-32.5 -47.5t-47 -32.5t-56.5 -12h-110q-28 0 -55.5 10t-52.5 42q-24 -29 -52 -40.5t-59 -11.5h-20
q-5 0 -9.5 4t-4.5 10v143q0 13 14 13zM211 174q3 -4 9 -4h133v90q-1 7 -5.5 12.5t-12.5 5.5h-93q-7 0 -11.5 -4.5t-6.5 -9.5l-15 -81q-1 -2 -1 -3q0 -3 3 -6z" />
    <glyph glyph-name="uniFEE4" unicode="&#x645;" horiz-adv-x="569" arabic-form="medial" 
d="M-14 14v143q0 13 14 13h30q13 0 22 7.5t12 19.5l20 104q6 31 22 57t39 45t52 30t60 11h56q38 0 71.5 -14.5t58.5 -39.5t39.5 -59t14.5 -72v-60q0 -12 8.5 -20.5t19.5 -8.5h44q5 0 9.5 -4t4.5 -10v-141q0 -6 -4.5 -10.5t-9.5 -4.5h-20q-29 0 -58 8t-49 32
q-19 -23 -44 -31.5t-49 -8.5h-110q-28 0 -55.5 10t-52.5 41q-24 -29 -52 -40t-59 -11h-20q-5 0 -9.5 4t-4.5 10zM211 174q3 -4 9 -4h133v90q-1 8 -5.5 13t-12.5 5h-93q-13 0 -18 -14l-15 -81q-1 -2 -1 -3q0 -3 3 -6z" />
    <glyph glyph-name="uniFEE6" unicode="&#x646;" horiz-adv-x="762" arabic-form="final" 
d="M185 383v-295q0 -20 7.5 -37t20.5 -30t30 -20t36 -7h182q31 0 52.5 21.5t21.5 52.5v330h145v-201q0 -11 5.5 -19t15.5 -8h61q6 0 10.5 -4.5t4.5 -9.5v-142q0 -6 -4.5 -10t-10.5 -4h-20q-23 0 -40.5 7.5t-23.5 13.5v-15q0 -37 -18 -70t-48.5 -58t-70 -39.5t-82.5 -14.5
h-175q-51 0 -95.5 19t-77.5 52t-52 77.5t-19 95.5v315h145zM425 398h-130v135h130v-135z" />
    <glyph glyph-name="uniFEE7" unicode="&#x646;" horiz-adv-x="324" arabic-form="initial" 
d="M-14 154q0 6 4 11t10 5h122q12 0 20 8.5t8 19.5v229h144v-228q0 -41 -15.5 -77.5t-42.5 -63.5t-63.5 -42.5t-77.5 -15.5h-95q-6 0 -10 4.5t-4 9.5v140zM155 494v135h130v-135h-130z" />
    <glyph glyph-name="uniFEE8" unicode="&#x646;" horiz-adv-x="335" arabic-form="medial" 
d="M-14 155q0 6 4.5 10.5t9.5 4.5h52q12 0 22 7.5t12 20.5l40 200l142 -26l-33 -167q-1 -5 -1 -9q0 -10 6 -18t20 -8h75q6 0 10.5 -5t4.5 -10v-141q0 -5 -4.5 -9.5t-10.5 -4.5h-75q-31 0 -58 11.5t-50 40.5q-26 -29 -55.5 -40.5t-61.5 -11.5h-35q-5 0 -9.5 4.5t-4.5 9.5v141
zM241 612v-135h-130v135h130z" />
    <glyph glyph-name="uniFEEA" unicode="&#x647;" horiz-adv-x="516" arabic-form="final" 
d="M51 352q11 30 30.5 56t47.5 45.5t61 26.5l123 28v69h145v-373q0 -13 11 -23.5t27 -10.5h20q14 0 14 -13v-143q0 -14 -14 -14h-20q-54 0 -91 26t-63 69q-14 -10 -38.5 -15t-42.5 -5h-67q-29 0 -57 13t-49.5 34t-34.5 48.5t-13 56.5v63q0 31 11 62zM183 282v-42h130v117
l-84 -19q-20 -5 -33 -20t-13 -36z" />
    <glyph glyph-name="uniFEEB" unicode="&#x647;" horiz-adv-x="760" arabic-form="initial" 
d="M-14 155q0 6 3 10.5t11 4.5h35q-7 5 -7.5 13.5t-0.5 10.5q0 12 3 26l16 77q6 32 22.5 59t40 47t53.5 31l12 4l40 148l368 -114q34 -10 61.5 -31t46.5 -48.5t29.5 -59t10.5 -63.5v-117q0 -30 -13 -57.5t-34.5 -48.5t-49 -34t-56.5 -13h-171v80l-6 -12q-7 -13 -22 -28
t-38.5 -27.5t-56.5 -12.5h-283q-14 0 -14 14v141zM422 359q9 -13 16 -28q15 -34 15 -73v-41q0 -23 -2.5 -33.5t-3.5 -12.5h139v106q0 10 -8 22.5t-22 17.5zM177 177q4 -6 11 -7h120v104q0 8 -5 13t-13 5h-82h-3q-6 0 -11.5 -4.5t-6.5 -12.5l-14 -85q0 -8 4 -13z" />
    <glyph glyph-name="uniFEEC" unicode="&#x647;" horiz-adv-x="632" arabic-form="medial" 
d="M-15 156q0 6 4.5 10t10.5 4h33v83q0 37 14.5 70t39 57.5t57.5 38.5t70 14h32q32 0 60.5 -10.5t51.5 -29.5t39 -45t22 -57l16 -75q4 -19 4 -38q0 -22 -8 -51.5t-33 -59.5t-61.5 -47.5t-78.5 -17.5h-4q-44 0 -80 13v-11q0 -8 5.5 -15t12.5 -9l125 -45l120 141q37 44 80 69
t100 25h15q5 0 9.5 -4t4.5 -10v-141q0 -6 -4 -10.5t-10 -4.5h-32q-18 0 -35.5 -8.5t-29.5 -25.5q-7 -9 -21.5 -27.5t-32.5 -41.5t-37 -47t-34 -42.5t-22.5 -27.5l-7.5 -9v0l1 1l-269 90q-17 6 -31.5 21t-24.5 35t-15.5 42t-5.5 40h-35q-6 0 -10.5 4.5t-4.5 10.5v141z
M177 251v-80h106q6 0 9 4t3 8v3l-12 65q-4 16 -19 16h-71q-6 0 -11 -4.5t-5 -11.5z" />
    <glyph glyph-name="uniFEEE" unicode="&#x648;" horiz-adv-x="504" arabic-form="final" 
d="M38 209l18 92q6 31 21.5 57t38.5 45t52 30t61 11h55q38 0 71.5 -14.5t58.5 -39.5t40 -59t15 -72v-89h35q14 0 14 -13v-143q0 -14 -14 -14h-36q-7 -75 -56.5 -130.5t-121.5 -80.5l-158 -54l-43 133l158 54q32 11 54 32.5t22 56.5v7q-14 -8 -34.5 -13t-40.5 -5h-37
q-41 0 -76 17.5t-59 47t-32.5 59.5t-8.5 53q0 16 3 32zM182 174q4 -4 9 -4h134l-1 90q0 7 -5 12t-12 6h-94h-1q-11 0 -16 -14l-16 -81q-1 -2 -1 -3q0 -3 3 -6z" />
    <glyph glyph-name="uniFEF0" unicode="&#x649;" horiz-adv-x="726" arabic-form="final" 
d="M192 294v-264q0 -19 7.5 -36.5t20.5 -30t30.5 -20t36.5 -7.5h196q26 0 44 16t18 42v6h-202v170h383q14 0 14 -14v-141q0 -6 -4 -10.5t-10 -4.5h-40q3 -3 3 -15v-3q0 -47 -17.5 -86.5t-48.5 -68t-72 -45t-88 -16.5h-171q-51 0 -95.5 19t-77.5 52t-52 77.5t-19 95.5v284
h144z" />
    <glyph glyph-name="uniFEF2" unicode="&#x64a;" horiz-adv-x="718" arabic-form="final" 
d="M184 294v-264q0 -19 7.5 -36.5t20.5 -30t30.5 -20t36.5 -7.5h196q26 0 44 16t18 42v6h-202v170h383q14 0 14 -14v-141q0 -6 -4 -10.5t-10 -4.5h-40q3 -3 3 -15v-3q0 -47 -17.5 -86.5t-48.5 -68t-72 -45t-88 -16.5h-171q-51 0 -95.5 19t-77.5 52t-52.5 77.5t-19.5 95.5
v284h145zM220 -315h260v-135h-260v135z" />
    <glyph glyph-name="uniFEF3" unicode="&#x64a;" horiz-adv-x="432" arabic-form="initial" 
d="M-14 154q0 6 4 11t10 5h230q12 0 20 8.5t8 19.5v229h144v-228q0 -41 -15.5 -77.5t-42.5 -63.5t-63.5 -42.5t-77.5 -15.5h-203q-6 0 -10 4.5t-4 9.5v140zM20 -120h260v-135h-260v135z" />
    <glyph glyph-name="uniFEF4" unicode="&#x64a;" horiz-adv-x="384" arabic-form="medial" 
d="M-14 155q0 6 4.5 10.5t9.5 4.5h97q12 0 22 7.5t12 20.5l40 200l142 -26l-33 -167q-1 -5 -1 -9q0 -10 6 -18t20 -8h80q6 0 10.5 -5t4.5 -10v-141q0 -5 -4.5 -9.5t-10.5 -4.5h-80q-31 0 -58 11.5t-50 40.5q-26 -29 -55.5 -40.5t-61.5 -11.5h-80q-5 0 -9.5 4.5t-4.5 9.5v141
zM65 -120h260v-135h-260v135z" />
    <glyph glyph-name=".notdef" horiz-adv-x="250" 
 />
    <glyph glyph-name=".null" 
 />
    <glyph glyph-name=".null" 
 />
    <glyph glyph-name="uni000D" unicode="&#xd;" horiz-adv-x="250" 
 />
    <glyph glyph-name="space" unicode=" " horiz-adv-x="80" 
 />
    <glyph glyph-name="exclam" unicode="!" horiz-adv-x="285" 
d="M66 0v153h150v-153h-150zM70 262l-18 412h181l-19 -412h-144z" />
    <glyph glyph-name="quotedbl" unicode="&#x22;" horiz-adv-x="412" 
d="M228 674h159l-9 -250h-145zM25 674h158l-8 -250h-145z" />
    <glyph glyph-name="numbersign" unicode="#" horiz-adv-x="637" 
d="M53 136v137h87v94h-87v138h87v152h142v-152h77v152h142v-152h88v-138h-88v-94h88v-137h-88v-136h-142v136h-77v-136h-142v136h-87zM282 273h77v94h-77v-94z" />
    <glyph glyph-name="dollar" unicode="$" horiz-adv-x="575" 
d="M52 470q1 13 3 32.5t9 41.5t21.5 44.5t40.5 40.5t66 29.5t98 12.5l19 145h89l-19 -153q34 -2 68 -6.5t66 -13.5l-13 -130q-22 2 -39.5 3.5t-33.5 3.5l-32 3q-16 1 -34 2l-14 -120q33 -12 64.5 -25t56 -34t40 -54t15.5 -84q0 -54 -16.5 -95t-47 -68.5t-74 -41.5t-96.5 -14
h7l-16 -123q-89 3 -89 8l14 122q-18 2 -34 4.5t-32.5 5.5t-35 6.5t-43.5 8.5l16 127q84 -10 147 -15l18 137q-39 12 -73.5 28.5t-61 40t-40.5 55t-14 70.5v6zM215 479q1 -8 8.5 -18.5t37.5 -26.5l11 93q-34 -4 -45.5 -20t-11.5 -26v-2zM350 155q11 15 11 32q0 18 -6.5 30
t-27.5 26l-13 -110q24 6 36 22z" />
    <glyph glyph-name="percent" unicode="%" horiz-adv-x="627" 
d="M336 135q0 149 125 149q126 0 126 -150q0 -147 -125 -147q-65 0 -95.5 36.5t-30.5 111.5zM40 524q0 149 125 149q126 0 126 -149q0 -75 -30.5 -111.5t-95.5 -36.5q-125 0 -125 148zM142 -10l252 719l86 -32l-251 -717zM461 83q23 0 23 53q0 25 -6 39t-17 14
q-22 0 -22 -55q0 -51 22 -51zM145 523q0 -52 20 -52t20 52q0 54 -20 54t-20 -54z" />
    <glyph glyph-name="ampersand" unicode="&#x26;" horiz-adv-x="751" 
d="M40 199q0 68 31 117t103 80q-21 26 -34.5 46.5t-22 38.5t-11.5 34.5t-3 32.5q0 86 58.5 128t164.5 42t163 -42.5t57 -129.5q0 -34 -13 -63t-32.5 -54t-41.5 -46.5t-41 -39.5l69 -70q2 5 4.5 22t5 35.5t3.5 34.5t1 18l161 -4q-15 -109 -54 -201l103 -85l-93 -107l-97 73
q-24 -18 -47.5 -31.5t-50 -22.5t-58 -13.5t-72.5 -4.5q-125 0 -189 52.5t-64 159.5zM299 135q14 0 31 1.5t32.5 3.5t28.5 5l17 3l-152 153q-23 -17 -35.5 -43t-12.5 -51q0 -72 91 -72zM279 509q6 -14 14.5 -27.5t18 -25.5t16.5 -20q8 8 17 20t16 25.5t11.5 26t4.5 21.5
q0 49 -50 49q-27 0 -40.5 -13t-13.5 -34q0 -9 6 -22z" />
    <glyph glyph-name="quotesingle" unicode="'" horiz-adv-x="208" 
d="M30 424l-5 250h158l-8 -250h-145z" />
    <glyph glyph-name="parenleft" unicode="(" horiz-adv-x="354" 
d="M50 300q0 53 10 116t27 124.5t39.5 116.5t46.5 93h156q-10 -25 -21 -61t-21.5 -77.5t-20 -85.5t-16.5 -85t-11.5 -77t-4.5 -60q0 -43 4.5 -88.5t16 -97.5t29.5 -112t45 -131h-156q-26 32 -48.5 87.5t-39 117.5t-26 121.5t-9.5 98.5z" />
    <glyph glyph-name="parenright" unicode=")" horiz-adv-x="354" 
d="M182 750q24 -38 46 -93t39 -116.5t27 -124.5t10 -116q0 -26 -4 -62t-12 -76t-19 -82t-24.5 -80.5t-29.5 -71t-33 -53.5h-156q27 71 45 131t29 112t15.5 97.5t4.5 88.5q0 25 -4.5 60.5t-11.5 76.5t-16.5 85t-20 85.5t-21.5 77.5t-21 61h157z" />
    <glyph glyph-name="asterisk" unicode="*" horiz-adv-x="571" 
d="M157 484l129 -128l128 128l105 -105l-128 -128l128 -129l-105 -105l-128 129l-129 -129l-105 105l129 129l-129 128z" />
    <glyph glyph-name="plus" unicode="+" horiz-adv-x="569" 
d="M210 325v154h147v-154h160v-148h-160v-156h-147v156h-158v148h158z" />
    <glyph glyph-name="comma" unicode="," horiz-adv-x="267" 
d="M47 42q0 9 3 27t8 32l57 174l85 -30l-43 -141l62 -25l-51 -141q-9 2 -25.5 9t-36.5 18q-24 13 -41.5 34t-17.5 41v2z" />
    <glyph glyph-name="hyphen" unicode="-" horiz-adv-x="372" 
d="M40 186v150h292v-150h-292z" />
    <glyph glyph-name="period" unicode="." horiz-adv-x="282" 
d="M66 0v153h150v-153h-150z" />
    <glyph glyph-name="slash" unicode="/" horiz-adv-x="489" 
d="M172 -45l-146 52l291 716l146 -51z" />
    <glyph glyph-name="zero" unicode="0" horiz-adv-x="613" 
d="M103 592q64 83 200 83q134 0 199 -83t65 -259t-64.5 -259.5t-199.5 -83.5q-136 0 -200.5 83.5t-64.5 259.5t65 259zM219 243q5 -37 15.5 -60.5t27.5 -34t41 -10.5q48 0 68 44.5t20 150.5q0 53 -4.5 90t-15 60t-27.5 33.5t-41 10.5t-41 -10.5t-27.5 -33.5t-15.5 -60
t-5 -90t5 -90z" />
    <glyph glyph-name="one" unicode="1" horiz-adv-x="443" 
d="M224 0v467l-128 -82l-78 127l222 148h155v-660h-171z" />
    <glyph glyph-name="two" unicode="2" horiz-adv-x="541" 
d="M170 257l87 94q28 33 37.5 54.5t9.5 45.5q0 38 -17.5 54.5t-49.5 16.5q-37 0 -73.5 -3t-73.5 -7l-23 -2l-7 132q99 31 207 31q213 0 213 -198q0 -39 -8 -76q-6 -21 -17.5 -42t-29 -43t-42 -46.5t-57.5 -53.5l-82 -63h244v-151h-432v147z" />
    <glyph glyph-name="three" unicode="3" horiz-adv-x="556" 
d="M63 152q57 -8 101.5 -12t70.5 -4q28 0 45.5 4t27.5 11.5t13.5 17t3.5 21.5q0 35 -21.5 52t-52.5 17h-133v140h133q28 0 46 21.5t18 56.5q0 46 -88 46q-22 0 -53.5 -3t-78.5 -10l-26 -3l-10 125q89 40 203 40q118 0 173.5 -43.5t55.5 -137.5q0 -28 -3 -49.5t-10.5 -39
t-20 -32.5t-31.5 -32q23 -15 38 -27t23 -26.5t11 -34t3 -50.5q0 -109 -54.5 -161t-171.5 -52q-45 0 -90 7.5t-96 21.5l-33 9z" />
    <glyph glyph-name="four" unicode="4" horiz-adv-x="561" 
d="M190 660h188l-169 -414h90v174h170v-174h52v-148h-52v-98h-170v98h-259v130z" />
    <glyph glyph-name="five" unicode="5" horiz-adv-x="586" 
d="M56 28l19 124q122 -18 206 -18q70 0 70 75q0 31 -13 49t-41 18q-34 0 -56.5 -4.5t-36 -10t-18.5 -9.5l-5 -5l-101 20l18 393h413v-148h-282l-16 -103q27 8 52 11.5t53 3.5q103 0 156 -50.5t53 -153.5q0 -111 -58.5 -172.5t-164.5 -61.5q-22 0 -51.5 2.5t-59 7.5t-56 10.5
t-43.5 11.5z" />
    <glyph glyph-name="six" unicode="6" horiz-adv-x="628" 
d="M56 331q0 175 73 258.5t212 83.5q22 0 48.5 -3.5t54 -8.5t54.5 -11t50 -12l-15 -129q-54 8 -98 12t-80 4q-63 0 -92.5 -27t-29.5 -87q25 5 52 11t52 6q116 0 173 -51t57 -160q0 -116 -65 -173t-193 -57q-124 0 -188.5 88.5t-64.5 255.5zM253 166q22 -31 64 -31
q35 0 54.5 20t19.5 57q0 68 -69 68q-20 0 -45 -4.5t-45 -8.5v-6q0 -65 21 -95z" />
    <glyph glyph-name="seven" unicode="7" horiz-adv-x="514" 
d="M256 -13l-158 43l213 443v36h-258v151h428v-186z" />
    <glyph glyph-name="eight" unicode="8" horiz-adv-x="662" 
d="M69 176q0 45 15 84t52 77q-32 34 -44 69.5t-12 81.5q0 47 22.5 82t57 57.5t75.5 33.5t78 11q36 0 80 -10.5t82.5 -33t65 -57.5t26.5 -84q0 -25 -2 -44.5t-8 -37t-16 -34t-26 -34.5q30 -38 46 -72.5t16 -80.5q0 -49 -18.5 -86t-52 -62t-81 -37t-104.5 -12
q-127 0 -189.5 46t-62.5 143zM271 156q18 -16 53 -16t52 15.5t17 42.5q0 19 -7.5 35t-20.5 24h-78q-34 -17 -34 -57q0 -28 18 -44zM270 432q6 -14 17 -31h78q8 17 13 33t5 31q0 26 -15 40t-44 14q-60 0 -60 -65q0 -8 6 -22z" />
    <glyph glyph-name="nine" unicode="9" horiz-adv-x="608" 
d="M131 616q67 57 193 57q122 0 185.5 -88t63.5 -257q0 -177 -71 -259t-212 -82q-41 0 -84 7t-88 19l-34 9l15 129q54 -8 102.5 -12t90.5 -4q105 0 105 121v5q-24 -7 -40.5 -12t-27.5 -8t-18 -4.5t-13 -1.5q-112 0 -173 54.5t-61 159.5q0 109 67 167zM240 451q0 -68 74 -68
q35 0 74 13l10 3v6q0 120 -86 120q-72 0 -72 -74z" />
    <glyph glyph-name="colon" unicode=":" horiz-adv-x="282" 
d="M66 0v153h150v-153h-150zM66 312v153h150v-153h-150z" />
    <glyph glyph-name="semicolon" unicode=";" horiz-adv-x="265" 
d="M98 194q20 -5 43 -15t42 -25q12 -11 21 -23t12 -27q2 -9 2 -19q0 -9 -2.5 -24.5t-7.5 -29.5l-56 -172l-86 30l43 139l-62 25zM62 451h146v-152h-146v152z" />
    <glyph glyph-name="less" unicode="&#x3c;" horiz-adv-x="481" 
d="M40 184v134l401 172v-167l-219 -68l219 -80v-166z" />
    <glyph glyph-name="equal" unicode="=" horiz-adv-x="555" 
d="M52 67v149h451v-149h-451zM503 436v-148h-451v148h451z" />
    <glyph glyph-name="greater" unicode="&#x3e;" horiz-adv-x="480" 
d="M440 318v-134l-400 -175v166l219 80l-219 68v167z" />
    <glyph glyph-name="question" unicode="?" horiz-adv-x="427" 
d="M25 649q78 37 187 37h8q89 0 135 -40.5t46 -109.5v-6q0 -44 -3.5 -73.5t-12 -50t-22.5 -35.5t-37 -30q-24 -15 -37 -26t-19.5 -20.5t-8 -19t-1.5 -21.5v-28h-131q-1 2 -7.5 10t-13.5 22t-12.5 33t-5.5 42q0 10 15.5 27.5t35.5 35.5t40.5 34.5t29.5 24.5q5 4 12.5 19.5
t7.5 28.5q0 16 -15.5 26t-44.5 10q-70 0 -138 -13zM263 153v-153h-150v153h150z" />
    <glyph glyph-name="at" unicode="@" horiz-adv-x="999" 
d="M74 461q34 87 96 147.5t149.5 92t193.5 31.5q107 0 190 -29t140 -84.5t86.5 -136t29.5 -182.5q0 -90 -15 -148t-42.5 -91t-65 -45.5t-82.5 -12.5t-83 15t-57 39q-72 -54 -134 -54q-103 0 -147.5 65t-44.5 188q0 125 43 183t142 58q15 0 38 -8t37 -16v11h168v-172
q0 -89 4.5 -129.5t27.5 -40.5q12 0 21 4.5t14.5 20.5t8 47.5t2.5 85.5q0 146 -68.5 216t-214.5 70q-72 0 -129 -23.5t-96 -67t-60 -105.5t-21 -140q0 -87 19 -147.5t57 -98t95.5 -54t133.5 -16.5l143 8l6 -144q-40 -5 -77 -7.5t-72 -2.5q-111 0 -198.5 30.5t-148 90t-92 148
t-31.5 204.5q0 112 34 200zM456 255q0 -106 38 -106q36 0 59 13q-2 14 -3.5 31.5t-1.5 38.5v115q-14 2 -23 3t-14 1q-18 0 -29 -4t-16.5 -14.5t-7.5 -29.5t-2 -48z" />
    <glyph glyph-name="A" unicode="A" horiz-adv-x="609" 
d="M149 674h312l133 -674h-171l-15 93h-207l-14 -93h-172zM377 241l-49 293h-47l-49 -293h145z" />
    <glyph glyph-name="B" unicode="B" horiz-adv-x="571" 
d="M318 672q112 0 163.5 -43.5t51.5 -142.5q0 -47 -13.5 -79.5t-51.5 -61.5q37 -18 55 -52.5t18 -90.5q0 -101 -58 -152t-167 -51h-276v673h278zM307 147q31 0 44 13t13 51q0 23 -9 36.5t-45 13.5h-94v-114h91zM216 524v-115h90q51 0 51 55q0 28 -13 44t-35 16h-93z" />
    <glyph glyph-name="C" unicode="C" horiz-adv-x="528" 
d="M39 458q9 63 36 114t77.5 83t133.5 32q97 0 212 -30l-5 -135q-50 7 -88 10.5t-66 3.5q-39 0 -64.5 -16t-41 -44t-21.5 -66t-6 -81q0 -32 2.5 -66t14.5 -61.5t37 -45.5t70 -18q66 0 166 12v-139q-112 -24 -195 -24q-78 0 -130 26t-83.5 72t-44.5 109.5t-13 138.5
q0 62 9 125z" />
    <glyph glyph-name="D" unicode="D" horiz-adv-x="599" 
d="M268 674q91 0 150 -23.5t94 -66t49 -103t14 -134.5q0 -77 -14.5 -141t-50 -109.5t-94.5 -71t-148 -25.5h-219v674h219zM220 148h48q45 0 70.5 12.5t39 35t17.5 54t4 68.5t-2.5 74t-15 67t-39 48.5t-74.5 18.5h-48v-378z" />
    <glyph glyph-name="E" unicode="E" horiz-adv-x="532" 
d="M499 674v-148h-279v-116h219v-148h-219v-114h279v-148h-450v674h450z" />
    <glyph glyph-name="F" unicode="F" horiz-adv-x="508" 
d="M494 674v-148h-274v-163h219v-148h-219v-215h-171v674h445z" />
    <glyph glyph-name="G" unicode="G" horiz-adv-x="605" 
d="M47 502q15 65 48.5 106.5t87 60t130.5 18.5q45 0 95 -5.5t106 -16.5l37 -7l-5 -131q-111 9 -185 9q-56 0 -87 -23.5t-45.5 -57.5t-17.5 -71t-3 -63q0 -29 2.5 -62t14.5 -60.5t37 -45.5t70 -18h35q14 0 16 -1v88h-64v148h232v-360q-79 -12 -136.5 -17.5t-90.5 -5.5
q-82 0 -137.5 30t-90 79.5t-49.5 113.5t-15 132q0 94 15 160z" />
    <glyph glyph-name="H" unicode="H" horiz-adv-x="633" 
d="M220 674v-261h200v261h171v-675h-171v266h-200v-266h-171v675h171z" />
    <glyph glyph-name="I" unicode="I" horiz-adv-x="276" 
d="M49 0v674h171v-674h-171z" />
    <glyph glyph-name="J" unicode="J" horiz-adv-x="268" 
d="M21 79q29 0 42 13.5t13 36.5v545h171v-548q0 -101 -56 -148t-170 -47v148z" />
    <glyph glyph-name="K" unicode="K" horiz-adv-x="582" 
d="M49 674h171v-284l83 12l74 272h194l-120 -336l120 -338h-195l-76 254l-80 -12v-242h-171v674z" />
    <glyph glyph-name="L" unicode="L" horiz-adv-x="455" 
d="M49 0v674h171v-523h219v-151h-390z" />
    <glyph glyph-name="M" unicode="M" horiz-adv-x="829" 
d="M336 674l79 -449l79 449h287v-674h-171v481h-17l-95 -448h-166l-96 448h-16v-481h-171v674h287z" />
    <glyph glyph-name="N" unicode="N" horiz-adv-x="663" 
d="M330 674l108 -526h6v526h171v-674h-273l-116 526h-6v-526h-171v674h281z" />
    <glyph glyph-name="O" unicode="O" horiz-adv-x="633" 
d="M31 335q0 121 28.5 198t91 115.5t166.5 38.5q105 0 168 -38.5t91.5 -115.5t28.5 -198q0 -116 -27.5 -192t-91 -116t-169.5 -40q-103 0 -165.5 37t-91.5 113.5t-29 197.5zM207 334q0 -65 7.5 -107.5t31.5 -67t71 -24.5q43 0 67.5 19.5t34.5 63t10 117.5t-10.5 117.5
t-35 65t-66.5 21.5q-41 0 -65 -21.5t-34.5 -65.5t-10.5 -118z" />
    <glyph glyph-name="P" unicode="P" horiz-adv-x="573" 
d="M49 0v674h249q126 0 189.5 -61t63.5 -182q0 -122 -64 -187t-189 -65h-78v-179h-171zM220 324h77q83 0 83 107q0 52 -19.5 75t-63.5 23h-77v-205z" />
    <glyph glyph-name="Q" unicode="Q" horiz-adv-x="633" 
d="M47 491q15 66 49.5 109.5t89 65t132.5 21.5t133 -21.5t89 -64t49.5 -107.5t15.5 -152q0 -66 -7.5 -114t-21 -83t-32 -59.5t-39.5 -42.5l82 -133l-155 -72l-91 149h-23q-78 0 -132.5 17.5t-89 58t-50 107t-15.5 164.5q0 90 16 157zM210 272q2 -34 13.5 -64.5t33.5 -51.5
t61 -21q31 0 52 7t34 28t19 59.5t6 101.5q0 68 -6.5 109t-19.5 63t-33 29t-47 7q-31 0 -53.5 -8.5t-36 -31t-20 -63t-6.5 -104.5q0 -26 3 -60z" />
    <glyph glyph-name="R" unicode="R" horiz-adv-x="597" 
d="M316 674q125 0 188 -57.5t63 -168.5q0 -125 -86 -199l78 -249h-188l-53 208h-98v-208h-171v674h267zM220 529v-176h99q34 0 53 25t19 62q0 39 -20.5 64t-54.5 25h-96z" />
    <glyph glyph-name="S" unicode="S" horiz-adv-x="558" 
d="M99 632q64 54 173 54q21 0 42.5 -1.5t48 -5t60.5 -9.5t81 -15l-13 -132q-39 4 -92.5 9.5t-107.5 5.5q-85 0 -85 -50q0 -15 20.5 -28t46 -23.5t47.5 -18t25 -9.5q35 -12 66.5 -30t55 -43t37.5 -58.5t14 -77.5q0 -50 -18 -89.5t-50.5 -67.5t-77.5 -42.5t-99 -14.5t-113 12
t-116 24l18 130q134 -18 204 -18q81 0 81 61q0 15 -13 26.5t-30 20t-34 14.5t-26 10q-66 20 -106.5 41t-63.5 45.5t-31 52.5t-8 62q0 110 64 165z" />
    <glyph glyph-name="T" unicode="T" horiz-adv-x="515" 
d="M9 674h500v-151h-164v-524h-171v524h-165v151z" />
    <glyph glyph-name="U" unicode="U" horiz-adv-x="641" 
d="M51 241v433h171v-437q0 -102 96 -102q49 0 73.5 26t24.5 76v437h171v-433q0 -130 -65.5 -192t-201.5 -62q-137 0 -203 62t-66 192z" />
    <glyph glyph-name="V" unicode="V" horiz-adv-x="634" 
d="M17 674h180l96 -526h39l96 526h180l-145 -674h-300z" />
    <glyph glyph-name="W" unicode="W" horiz-adv-x="973" 
d="M14 674h180l66 -529h8l111 532h198l112 -532h7l66 529h180l-124 -674h-246l-94 477l-94 -477h-246z" />
    <glyph glyph-name="X" unicode="X" horiz-adv-x="616" 
d="M19 0l186 319l-186 355h188l100 -226l104 226h175l-187 -345l187 -329h-189l-100 207l-103 -207h-175z" />
    <glyph glyph-name="Y" unicode="Y" horiz-adv-x="637" 
d="M211 674l100 -243l100 243h188l-202 -408v-266h-171v266l-204 408h189z" />
    <glyph glyph-name="Z" unicode="Z" horiz-adv-x="525" 
d="M489 674v-136l-242 -374v-16h242v-148h-450v135l242 375v16h-242v148h450z" />
    <glyph glyph-name="bracketleft" unicode="[" horiz-adv-x="355" 
d="M315 749v-148h-105v-575h105v-149h-275v872h275z" />
    <glyph glyph-name="backslash" unicode="\" horiz-adv-x="518" 
d="M350 -48l-324 705l139 64l327 -708z" />
    <glyph glyph-name="bracketright" unicode="]" horiz-adv-x="355" 
d="M315 749v-872h-275v149h105v575h-105v148h275z" />
    <glyph glyph-name="asciicircum" unicode="^" horiz-adv-x="614" 
d="M239 660h139l196 -350h-172l-91 190l-99 -190h-172z" />
    <glyph glyph-name="underscore" unicode="_" horiz-adv-x="508" 
d="M40 -203v140h428v-140h-428z" />
    <glyph glyph-name="a" unicode="a" horiz-adv-x="500" 
d="M24 153q0 43 11 72t33.5 48t57.5 28t84 12l81 4v24q0 20 -9 26t-37 6q-47 0 -92.5 -1t-90.5 -4l-5 112q107 33 206 33q104 0 149 -40.5t45 -131.5v-182q1 -7 1 -14.5t1.5 -14t5.5 -12t12 -8.5l-5 -123q-29 0 -50.5 1t-39 4.5t-33 10t-33.5 16.5q-66 -32 -130 -32
q-162 0 -162 166zM190 156q0 -35 34 -35q24 0 57 6l10 2v75l-61 -4q-40 -5 -40 -44z" />
    <glyph glyph-name="b" unicode="b" horiz-adv-x="532" 
d="M54 2v688h166v-200q21 8 34.5 12.5t24 7t19.5 3t22 0.5q50 0 87.5 -15.5t62.5 -48.5t37.5 -84.5t12.5 -124.5q0 -71 -12.5 -119.5t-41 -78.5t-73 -43t-109.5 -13q-59 0 -115.5 5.5t-114.5 10.5zM220 139q11 -2 23 -3t25 -1q47 0 65.5 23t18.5 83q0 66 -20 94.5t-60 28.5
q-7 0 -20.5 -1t-31.5 -3v-221z" />
    <glyph glyph-name="c" unicode="c" horiz-adv-x="432" 
d="M34 250q0 77 13 127.5t40 80.5t69 42t100 12q13 0 27.5 -1t33.5 -4t43.5 -8t58.5 -12l-4 -130q-44 4 -73 6t-44 2q-29 0 -47.5 -3.5t-29.5 -15t-15 -33.5t-4 -60q0 -25 3 -46.5t13 -37.5t29.5 -25t51.5 -9l115 8l5 -131q-110 -25 -178 -25q-106 0 -156.5 63.5
t-50.5 199.5z" />
    <glyph glyph-name="d" unicode="d" horiz-adv-x="568" 
d="M84 448q49 65 146 65q26 0 108 -15v192h168v-690h-166v14q-21 -9 -36.5 -14t-28.5 -8t-24 -4t-22 -1q-104 0 -149.5 64t-45.5 193q0 139 50 204zM218 159q15 -24 50 -24q13 0 25 0.5t34 3.5h11v222q-48 9 -71 9q-33 0 -49 -27t-16 -96q0 -64 16 -88z" />
    <glyph glyph-name="e" unicode="e" horiz-adv-x="513" 
d="M90 445q56 68 175 68q109 0 166.5 -56t57.5 -166l-14 -98h-274q2 -16 7.5 -27t15.5 -18.5t26.5 -11t41.5 -3.5q40 0 77 1t75 5l27 3l2 -121q-114 -34 -214 -34q-58 0 -100 12.5t-70 41.5t-41.5 76t-13.5 117q0 142 56 211zM200 304h126q0 44 -12.5 59t-49.5 15
q-38 0 -50.5 -16t-13.5 -58z" />
    <glyph glyph-name="f" unicode="f" horiz-adv-x="390" 
d="M30 493h50v17q0 55 7.5 92t25.5 59.5t47.5 32t72.5 9.5l120 -10l-2 -140q-20 1 -36 2q-14 1 -26 2t-14 1q-12 0 -20.5 -12.5t-8.5 -36.5v-16h108v-140h-108v-353h-166v353h-50v140z" />
    <glyph glyph-name="g" unicode="g" horiz-adv-x="591" 
d="M50 -37q15 28 52 59q-20 14 -31 33t-11 37q0 12 4.5 24.5t11 24.5t14 23t12.5 19q-62 57 -62 146q0 45 15.5 79t44 56.5t68 34t87.5 11.5q49 0 107 -13l168 5v-129l-64 8q5 -11 8.5 -18.5t5 -13.5t2 -13t0.5 -17q0 -90 -53.5 -129.5t-160.5 -39.5q-31 0 -44 4
q-5 -12 -5 -17v-13q0 -11 12.5 -16t29.5 -6.5t34 -1.5h24q51 -2 86 -5.5t65 -11.5q38 -14 51 -46t13 -82q0 -94 -66 -138t-197 -44q-51 0 -94.5 7.5t-75 23t-49.5 40.5t-18 60q0 31 16 59zM197 -71q0 -17 18 -21t66 -5h13q34 0 54 10.5t20 24.5q0 11 -12 17.5t-27 9.5t-27 4
l-13 1h-80q-7 -10 -9.5 -23.5t-2.5 -17.5zM222 292q15 -15 41 -15t41 14.5t15 38.5t-15.5 38.5t-41.5 14.5t-41 -14.5t-15 -37.5q0 -25 16 -39z" />
    <glyph glyph-name="h" unicode="h" horiz-adv-x="521" 
d="M54 0v690h167v-212q36 19 60 27t57 8q43 0 74.5 -13.5t52.5 -42t31.5 -73.5t10.5 -109v-275h-166v271q0 33 -4 52t-11 28t-17 11.5t-21 2.5q-18 0 -36 -2.5t-32 -6.5v-356h-166z" />
    <glyph glyph-name="i" unicode="i" horiz-adv-x="223" 
d="M27 0v500h166v-500h-166zM193 712v-160h-166v160h166z" />
    <glyph glyph-name="j" unicode="j" horiz-adv-x="249" 
d="M17 -65q16 19 21 38.5t5 56.5v470h166v-471q0 -74 -15.5 -117t-53 -74.5t-115.5 -71.5l-65 121q40 30 57 48zM209 712v-160h-166v160h166z" />
    <glyph glyph-name="k" unicode="k" horiz-adv-x="544" 
d="M54 690h166v-384l37 12l75 182h185l-112 -241l119 -259h-187l-75 175l-42 -12v-163h-166v690z" />
    <glyph glyph-name="l" unicode="l" horiz-adv-x="279" 
d="M52 0v690h166v-690h-166z" />
    <glyph glyph-name="m" unicode="m" horiz-adv-x="779" 
d="M192 500v-24q18 10 32.5 17t26.5 11.5t23 6.5t24 2q30 0 62.5 -11t55.5 -34q26 12 47 20.5t40.5 14t39 8t42.5 2.5q44 0 76.5 -10.5t54 -37.5t32.5 -73t11 -117v-275h-166v270q0 33 -4 51.5t-11 28.5t-17.5 12.5t-22.5 2.5q-4 0 -13 -1.5t-19 -3.5t-19.5 -3.5t-15.5 -2.5
q1 -9 2 -22q0 -12 0.5 -29.5t0.5 -43.5v-259h-166v257q0 14 -1 32.5t-6 35.5t-15.5 28.5t-30.5 11.5q-13 0 -32 -3.5t-30 -4.5v-357h-166v500h165z" />
    <glyph glyph-name="n" unicode="n" horiz-adv-x="505" 
d="M27 0v500h165v-24q34 20 60 28.5t59 8.5q42 0 73.5 -13t52.5 -41.5t32 -73.5t11 -110v-275h-166v270q0 36 -4 55t-12.5 28t-20.5 10.5t-29 1.5q-6 0 -24.5 -3t-30.5 -5v-357h-166z" />
    <glyph glyph-name="o" unicode="o" horiz-adv-x="517" 
d="M37 369q17 49 48.5 81t75.5 47.5t98 15.5q111 0 175 -66t64 -196q0 -67 -17 -116.5t-48.5 -82.5t-75.5 -49t-98 -16q-112 0 -175.5 68t-63.5 198q0 67 17 116zM194 189q6 -25 16 -38.5t22.5 -18.5t25.5 -5q15 0 28 6t23 20.5t15.5 38.5t5.5 61q0 40 -6 63.5t-16 36
t-22.5 16.5t-24.5 4q-15 0 -28.5 -5t-23.5 -18.5t-15.5 -37t-5.5 -60.5q0 -39 6 -63z" />
    <glyph glyph-name="p" unicode="p" horiz-adv-x="495" 
d="M27 500h165v-22q19 11 33 18t25.5 11t22 5t22.5 1q99 0 148 -64.5t49 -206.5q0 -72 -13 -121t-40 -78.5t-68.5 -42.5t-99.5 -13q-20 0 -39 1.5t-39 4.5v-197h-166v704zM220 131q13 -1 21 -1q47 0 65 25.5t18 88.5q0 62 -16.5 91.5t-56.5 29.5q-14 0 -30 -3t-28 -7v-221
q14 -2 27 -3z" />
    <glyph glyph-name="q" unicode="q" horiz-adv-x="527" 
d="M48 357q14 47 44.5 81.5t79 54.5t117.5 20l210 -14v-703h-167l1 215q-19 -7 -33 -11.5t-25 -7.5t-21.5 -4t-23.5 -1q-50 0 -87 14.5t-61 47t-36 83.5t-12 123q0 54 14 102zM200 262q0 -70 18 -98.5t59 -28.5q12 0 26 1.5t30 3.5v227q-21 3 -44 3q-25 0 -42.5 -4.5
t-27.5 -16.5t-14.5 -33t-4.5 -54z" />
    <glyph glyph-name="r" unicode="r" horiz-adv-x="366" 
d="M27 500h164v-45q87 45 148 57v-166q-34 -4 -71 -10.5t-75 -17.5v-318h-166v500z" />
    <glyph glyph-name="s" unicode="s" horiz-adv-x="460" 
d="M77 469q53 43 142 43q48 0 102.5 -10t102.5 -19l-2 -136q-69 8 -115 16t-69 9q-21 0 -35 -3.5t-14 -22.5q0 -5 2 -9.5t9 -8t20 -7.5t35 -9q39 -7 72 -15.5t57.5 -24t38.5 -41.5t14 -68q0 -176 -204 -176q-48 0 -99.5 8.5t-101.5 18.5l4 139q21 -4 46.5 -9t50.5 -8.5
t46.5 -6t34.5 -2.5q24 0 40.5 3.5t16.5 16.5q0 11 -12 18t-28 12t-32 8.5t-24 5.5q-29 8 -56.5 18.5t-48.5 27t-34 42.5t-13 65q0 81 54 125z" />
    <glyph glyph-name="t" unicode="t" horiz-adv-x="375" 
d="M17 500h52v132h166v-132h104v-140h-104v-187q0 -27 5.5 -32t14.5 -5h6h69l7 -131q-21 -5 -36 -8.5t-27 -5.5t-22 -2.5t-21 -0.5q-47 0 -78 10t-50 33t-26.5 59.5t-7.5 90.5v179h-52v140z" />
    <glyph glyph-name="u" unicode="u" horiz-adv-x="494" 
d="M28 500h166v-273q0 -16 1 -32t7 -29.5t17.5 -22t32.5 -8.5h12q5 0 11.5 1t16.5 2.5t27 4.5v357h166v-500h-164v24q-21 -11 -38 -18.5t-32 -11.5t-29 -5.5t-30 -1.5q-44 0 -75 11.5t-51 40t-29 77t-9 122.5v262z" />
    <glyph glyph-name="v" unicode="v" horiz-adv-x="528" 
d="M17 500h172l60 -360h23l64 360h168l-109 -500h-270z" />
    <glyph glyph-name="w" unicode="w" horiz-adv-x="767" 
d="M15 500h163l39 -360h28l53 350h170l53 -350h28l40 360h163l-82 -500h-242l-45 260l-44 -260h-242z" />
    <glyph glyph-name="x" unicode="x" horiz-adv-x="515" 
d="M18 500h176l57 -133l59 133h176l-133 -243l134 -257h-176l-60 131l-57 -131h-176l126 251z" />
    <glyph glyph-name="y" unicode="y" horiz-adv-x="532" 
d="M17 500h162l73 -360h18l72 360h162l-158 -704h-161l49 204h-104z" />
    <glyph glyph-name="z" unicode="z" horiz-adv-x="385" 
d="M383 500v-148l-173 -203h173v-149h-371v149l172 203h-172v148h371z" />
    <glyph glyph-name="braceleft" unicode="{" horiz-adv-x="401" 
d="M40 250v127q56 13 85.5 34.5t29.5 47.5v4l-7 127q-1 11 -1 21q0 35 9.5 64t35 48.5t67 29t102.5 11.5l-1 -140q-30 -5 -41 -15t-11 -27v-6l7 -130q1 -12 1 -22q0 -19 -3 -36.5t-15.5 -31t-36 -23t-62.5 -18.5q38 -9 61.5 -19.5t37 -26.5t17 -35t3.5 -40q0 -10 -1 -21
l-7 -118v-7q0 -19 10 -30.5t37 -14.5l1 -140q-58 2 -99.5 12t-67 29.5t-35 47.5t-9.5 61q0 10 1 20l7 121v4q0 31 -29.5 54.5t-85.5 37.5z" />
    <glyph glyph-name="bar" unicode="|" horiz-adv-x="247" 
d="M40 -204v894h166v-894h-166z" />
    <glyph glyph-name="braceright" unicode="}" horiz-adv-x="400" 
d="M40 764q61 -2 102.5 -11.5t67 -29t35 -48.5t9.5 -64q0 -10 -1 -21l-7 -127v-4q0 -26 29.5 -47.5t85.5 -34.5v-127q-56 -14 -85.5 -37.5t-29.5 -54.5v-4l7 -121q1 -10 1 -19q0 -34 -10 -62t-35.5 -47.5t-66.5 -29.5t-99 -12l1 140q27 3 37 14.5t10 30.5v7l-7 118
q-1 11 -1 21q0 21 3.5 40t16.5 35t37 26.5t62 19.5q-39 9 -62.5 18.5t-36 23t-15.5 31t-3 36.5q0 10 1 22l7 130v6q0 17 -11 27t-41 15z" />
    <glyph glyph-name="asciitilde" unicode="~" horiz-adv-x="521" 
d="M40 287q62 52 127 52q29 0 104 -18q79 -17 98 -17q11 0 24.5 3.5t28 8.5t28.5 11t24 11l7 -132q-6 -7 -19.5 -15.5t-30 -16t-33.5 -12.5t-30 -5q-15 0 -42 4t-68 13q-80 17 -100 17q-9 0 -23.5 -4t-30 -9t-30 -11t-24.5 -11z" />
    <glyph glyph-name="exclamdown" unicode="&#xa1;" horiz-adv-x="285" 
d="M52 -174l17 412h145l19 -412h-181zM66 346v153h150v-153h-150z" />
    <glyph glyph-name="cent" unicode="&#xa2;" horiz-adv-x="490" 
d="M100 407q46 57 137 66v92h134v-97l67 -14l-4 -121q-39 1 -71 1h-58q-40 0 -62.5 -20.5t-22.5 -62.5q0 -44 24 -65.5t78 -21.5l112 3l4 -121q-24 -11 -67 -14v-104h-134l1 97q-91 8 -138 67t-47 158q0 100 47 157z" />
    <glyph glyph-name="sterling" unicode="&#xa3;" horiz-adv-x="534" 
d="M53 140h68v161h-63v141h63v61q0 54 11.5 87t33.5 51t54.5 24t75.5 6q17 0 38.5 -2t43.5 -6t43.5 -9t38.5 -10l-6 -127q-16 2 -29 2.5t-26 1.5t-27 1h-31q-22 0 -39.5 -9.5t-17.5 -28.5v-42h144v-141h-144v-161h108l65 16l25 -138l-80 -18h-350z" />
    <glyph glyph-name="currency" unicode="&#xa4;" horiz-adv-x="635" 
d="M165 517l74 -74q41 15 79 15t77 -15l75 74l113 -113l-75 -74q15 -40 15 -78q0 -37 -15 -79l75 -73l-113 -113l-75 74q-39 -15 -77 -15q-36 0 -78 15l-74 -74l-113 113l73 73q-8 17 -11 37t-3 42q0 46 14 78l-74 74zM247 252q0 -27 22 -49q21 -21 49 -21t49 20.5t21 49.5
t-21 49.5t-49 20.5q-29 0 -50 -20.5t-21 -49.5z" />
    <glyph glyph-name="yen" unicode="&#xa5;" horiz-adv-x="675" 
d="M52 660h189l97 -179l96 179h189l-128 -245h64v-126h-135v-47h134v-124h-134v-118h-170v118h-139v124h139v47h-139v126h67z" />
    <glyph glyph-name="brokenbar" unicode="&#xa6;" horiz-adv-x="246" 
d="M206 178v-382h-166v382h166zM40 319v371h166v-371h-166z" />
    <glyph glyph-name="section" unicode="&#xa7;" horiz-adv-x="544" 
d="M40 191q0 17 6 36.5t15.5 38.5t21.5 35.5t24 27.5q-44 32 -44 106q0 196 231 196q18 0 42 -2.5t48.5 -6.5t48.5 -9t43 -10l-7 -132q-55 8 -96 12.5t-70 4.5q-25 0 -41 -2t-24 -7.5t-11 -15.5t-3 -26q0 -4 22.5 -13t84.5 -27q37 -10 68.5 -22.5t55 -30.5t36.5 -43.5
t13 -61.5q0 -71 -54 -146q11 -11 18.5 -21t12 -22.5t6.5 -29t2 -41.5q0 -52 -13 -88t-40.5 -58.5t-71.5 -33t-106 -10.5q-48 0 -96 9t-96 17l16 132q108 -15 161 -15q49 0 68.5 7.5t19.5 25.5q0 14 -18.5 25t-42.5 19t-46.5 13t-29.5 8q-25 8 -52 19t-49.5 29t-37.5 45.5
t-15 67.5zM207 209q0 -9 3 -14t10 -8l21 -9q13 -5 32.5 -11.5t47.5 -15.5q8 10 10.5 21.5t3.5 35.5v5q0 14 -9.5 24t-20.5 15q-3 1 -16 4.5t-28 7.5t-28 7t-17 3q-9 -10 -9 -41v-24z" />
    <glyph glyph-name="copyright" unicode="&#xa9;" horiz-adv-x="644" 
d="M77 584q36 66 100.5 103t147.5 37q81 0 145 -38q65 -38 99.5 -105t34.5 -149q0 -83 -35 -148q-35 -66 -99 -103t-145 -37q-80 0 -147 38q-65 38 -101.5 105t-36.5 149q0 84 37 148zM140 323q27 -51 75 -80.5t108 -29.5q61 0 106 29q48 29 75.5 80t27.5 111t-28 110
q-28 51 -76 81.5t-106 30.5q-87 0 -149 -64q-61 -67 -61 -157q0 -61 28 -111zM199 435q0 49 7.5 81.5t24 51.5t43 26.5t64.5 7.5q39 0 72 -15l10 -3l-9 -104q-33 6 -55 6q-20 0 -26 -9t-6 -37q0 -27 7 -43.5t15 -16.5l65 5l9 -98q-22 -22 -96 -22q-33 0 -56.5 8.5t-39 28.5
t-22.5 52.5t-7 80.5z" />
    <glyph glyph-name="guillemotleft" unicode="&#xab;" horiz-adv-x="628" 
d="M40 296l241 176v-166l-101 -65l101 -76v-166l-241 182v115zM347 296l241 176v-166l-101 -65l101 -76v-166l-241 182v115z" />
    <glyph glyph-name="registered" unicode="&#xae;" horiz-adv-x="644" 
d="M77 585q36 66 100.5 102.5t146.5 36.5q80 0 145 -38q64 -39 99.5 -106t35.5 -149q0 -80 -35 -147q-35 -66 -97 -103t-146 -37q-81 0 -148 38q-65 38 -101.5 103.5t-36.5 149.5q0 85 37 150zM141 323q27 -51 75.5 -80.5t107.5 -29.5q57 0 105 30t75.5 80.5t27.5 110.5
q0 61 -28 111q-28 51 -76 80.5t-106 29.5q-60 0 -109 -32q-48 -31 -74.5 -81.5t-26.5 -107.5q0 -59 29 -111zM195 594h150q50 0 82 -27t32 -74q0 -24 -1.5 -40.5t-5 -29t-9.5 -22.5t-15 -21l34 -107h-114l-17 86h-29v-86h-107v321zM322 443q25 0 25 34q0 32 -21 32h-25v-66
h21z" />
    <glyph glyph-name="degree" unicode="&#xb0;" horiz-adv-x="388" 
d="M40 532q0 35 11.5 63.5t31.5 48.5t48.5 31.5t62.5 11.5t62.5 -11.5t48.5 -31.5t31.5 -48.5t11.5 -63.5q0 -34 -11 -62.5t-31.5 -49t-48.5 -31.5t-63 -11q-34 0 -62.5 11t-49 31.5t-31.5 49t-11 62.5zM146 484q18 -19 48 -19t49.5 18.5t19.5 48.5t-19.5 49t-49.5 19
q-32 0 -49 -19.5t-17 -48.5t18 -48z" />
    <glyph glyph-name="plusminus" unicode="&#xb1;" horiz-adv-x="545" 
d="M198 420v98h147v-98h160v-149h-160v-85h-147v85h-158v149h158zM40 9v148h465v-148h-465z" />
    <glyph glyph-name="paragraph" unicode="&#xb6;" horiz-adv-x="601" 
d="M40 469q0 45 13.5 82.5t38 65t59.5 42.5t77 15h333v-141h-17v-533h-139v533h-33v-533h-139v266h-7q-40 0 -74.5 17t-59 45.5t-38.5 65t-14 75.5z" />
    <glyph glyph-name="periodcentered" unicode="&#xb7;" horiz-adv-x="284" 
d="M67 174v153h150v-153h-150z" />
    <glyph glyph-name="guillemotright" unicode="&#xbb;" horiz-adv-x="628" 
d="M588 296v-115l-241 -182v166l101 76l-101 65v166zM40 -1v166l101 76l-101 65v166l241 -176v-115z" />
    <glyph glyph-name="questiondown" unicode="&#xbf;" horiz-adv-x="427" 
d="M26 -33q0 44 3.5 73.5t12 50t23 35.5t36.5 30q24 15 37 26t19.5 20.5t8 19t1.5 21.5v28h131q11 -14 20 -31q7 -14 13 -33.5t6 -42.5q0 -10 -15.5 -27.5t-35.5 -35.5t-40.5 -34.5t-29.5 -24.5q-5 -4 -12.5 -19.5t-7.5 -28.5q0 -16 15.5 -26t44.5 -10q70 0 138 13l8 -123
q-78 -37 -187 -37h-8q-89 0 -135 40.5t-46 109.5v6zM164 497h150v-153h-150v153z" />
    <glyph glyph-name="multiply" unicode="&#xd7;" horiz-adv-x="571" 
d="M157 484l129 -128l128 128l105 -105l-128 -128l128 -129l-105 -105l-128 129l-129 -129l-105 105l129 129l-129 128z" />
    <glyph glyph-name="divide" unicode="&#xf7;" horiz-adv-x="640" 
d="M587 412v-145h-535v145h535zM236 204h163v-149h-163v149zM236 473v149h163v-149h-163z" />
    <glyph glyph-name="tilde" unicode="&#x2dc;" horiz-adv-x="521" 
d="M40 287q62 52 127 52q29 0 104 -18q79 -17 98 -17q11 0 24.5 3.5t28 8.5t28.5 11t24 11l7 -132q-6 -7 -19.5 -15.5t-30 -16t-33.5 -12.5t-30 -5q-15 0 -42 4t-68 13q-80 17 -100 17q-9 0 -23.5 -4t-30 -9t-30 -11t-24.5 -11z" />
    <glyph glyph-name="uni060C" unicode="&#x60c;" horiz-adv-x="252" 
d="M43 69q4 18 8 32l52 164l85 -29l-38 -132l62 -25l-51 -141q-9 2 -25.5 9t-36.5 18q-24 13 -40.5 32t-18.5 45v4q0 9 3 23z" />
    <glyph glyph-name="uni060D" unicode="&#x60d;" horiz-adv-x="302" 
d="M159 -129h-119l54 277h161z" />
    <glyph glyph-name="uni061B" unicode="&#x61b;" horiz-adv-x="252" 
d="M40 367q0 8 3 26t8 32l53 163l85 -30l-39 -130l62 -25l-51 -141q-9 2 -25.5 9t-36.5 18q-24 13 -41.5 32t-17.5 43v3zM49 153h146v-153h-146v153z" />
    <glyph glyph-name="uni061F" unicode="&#x61f;" horiz-adv-x="426" 
d="M71 649q46 40 134 40h9q109 0 187 -37l-8 -123q-68 13 -138 13q-29 0 -44.5 -10t-15.5 -26q0 -13 7.5 -28.5t12.5 -19.5q9 -8 29.5 -24.5t40.5 -34.5t35.5 -35.5t15.5 -27.5q0 -13 -3 -28t-8.5 -29.5t-12.5 -27.5t-15 -22h-131v28q0 12 -1.5 21.5t-8 19t-19.5 20.5
t-37 26q-22 15 -36.5 30t-23 35.5t-12 50t-3.5 73.5v6q0 69 46 110zM163 3v153h150v-153h-150z" />
    <glyph glyph-name="uni0640" unicode="&#x640;" horiz-adv-x="124" 
d="M-14 14v143q0 14 14 14h124q14 0 14 -14v-143q0 -6 -4.5 -10t-9.5 -4h-124q-5 0 -9.5 4t-4.5 10z" />
    <glyph glyph-name="uni0653" unicode="&#x653;" 
d="M-154 700v67q0 25 9 45t23.5 34t33.5 21.5t40 7.5h201v-123h-178q-11 0 -14.5 -4.5t-3.5 -12.5v-35h-111z" />
    <glyph glyph-name="uni0653" unicode="&#x6e4;" 
d="M-154 700v67q0 25 9 45t23.5 34t33.5 21.5t40 7.5h201v-123h-178q-11 0 -14.5 -4.5t-3.5 -12.5v-35h-111z" />
    <glyph glyph-name="uni0654" unicode="&#x654;" 
d="M-178 807l79 18q0 1 -3 4.5t-5 12.5q0 1 -1 5t-1.5 8.5t-1.5 9t-1 5.5q-2 12 -2 24q0 42 27.5 68.5t83.5 31.5l107 13l14 -113l-97 -11q-14 -2 -17.5 -6t-3.5 -12q0 -3 1 -8l2 -13q6 2 29 6.5t49 10.5q30 6 66 14l30 -106l-336 -68z" />
    <glyph glyph-name="uni0655" unicode="&#x655;" 
d="M-167 -193l82 11q-3 0 -7 11q-1 3 -2 8t-2 9q-3 15 -3 28q0 24 10.5 46t30 37.5t40 22t27.5 7.5l107 13l14 -109l-114 -18q-2 -1 -4.5 -1.5t-2.5 -2.5t1 -5l5 -27q6 1 29 6t49 11q30 6 66 14l30 -106l-336 -68z" />
    <glyph glyph-name="uni0656" unicode="&#x656;" 
d="M54 -198h-108v198h108v-198z" />
    <glyph glyph-name="uni0660" unicode="&#x660;" horiz-adv-x="306" 
d="M52 253h201v-201h-201v201z" />
    <glyph glyph-name="uni0661" unicode="&#x661;" horiz-adv-x="303" 
d="M48 736l158 28l22 -110q11 -51 15.5 -100.5t4.5 -98.5v-455h-161v457q0 89 -18 174z" />
    <glyph glyph-name="uni0662" unicode="&#x662;" horiz-adv-x="574" 
d="M214 764l6 -21q5 -21 11.5 -53t12.5 -70t8 -72q1 -11 9 -16t18 -5h103v228h161v-251q0 -29 -12.5 -56t-33 -47.5t-47 -32.5t-55.5 -12h-85q-17 0 -34.5 7t-19.5 12v-375h-161v457q0 44 -5 87.5t-13 86.5l-21 105z" />
    <glyph glyph-name="uni0663" unicode="&#x663;" horiz-adv-x="736" 
d="M48 736l158 28q1 -4 5 -23t9.5 -48t12 -66.5t11.5 -78.5q3 -15 13.5 -18t13.5 -3h13q13 0 22.5 8t11.5 19l41 202l158 -28l-35 -175v-3q0 -7 3.5 -15t20.5 -8h68v229h160v-258q0 -29 -11 -55t-30.5 -45.5t-45 -30.5t-55.5 -11h-69q-29 0 -57.5 9.5t-53.5 35.5
q-26 -24 -49 -34.5t-49 -10.5q-18 0 -38.5 5t-27.5 17v-378h-161v457q0 87 -18 174z" />
    <glyph glyph-name="uni0664" unicode="&#x664;" horiz-adv-x="480" 
d="M51 178v80q0 38 11.5 72t32.5 63q-8 15 -12.5 30t-8.5 32l-17 92q-4 19 -4 37q0 22 8 51.5t32 58t59.5 45.5t77.5 17h174v-165h-179q-3 0 -7 -4.5t-4 -9.5q0 -2 1 -4l15 -80q2 -13 5.5 -17t8.5 -4q3 0 7 1l146 44l43 -159l-198 -58q-13 -4 -21.5 -16t-8.5 -26v-76
q0 -14 14 -14h238v-168h-236q-36 0 -68 13t-56.5 36.5t-38.5 56.5t-14 72z" />
    <glyph glyph-name="uni0665" unicode="&#x665;" horiz-adv-x="667" 
d="M47 218q0 59 11 107.5t32 93t53 87t74 87.5l-59 54l96 136l205 -194q74 -71 117 -160.5t43 -196.5v-14q-1 -46 -14.5 -86t-38 -69.5t-61.5 -46t-85 -16.5h-174q-48 0 -85 16.5t-62.5 46t-38.5 69.5t-13 86zM208 218q0 -17 4 -32t24 -15h194q20 0 24 16.5t4 37.5
q0 37 -5.5 68t-19.5 61t-38 61.5t-62 68.5q-38 -39 -62.5 -71t-38.5 -62.5t-19 -62t-5 -70.5z" />
    <glyph glyph-name="uni0666" unicode="&#x666;" horiz-adv-x="552" 
d="M-9 606l14 162q41 -4 71.5 -8t55 -6t46 -3t45.5 -1q45 0 88.5 4t77.5 8.5t55 8.5l21 3v-464q0 -85 18 -175l21 -105l-158 -28l-22 111q-20 103 -20 198v272q-20 -1 -34 -1.5t-21 -0.5q-15 0 -31 1q-24 0 -47 1t-49 4t-57.5 7.5t-73.5 11.5z" />
    <glyph glyph-name="uni0667" unicode="&#x667;" horiz-adv-x="658" 
d="M152 784q5 -6 20 -32t34.5 -65t41 -88t39.5 -102t30 -107.5t12 -104.5q0 48 12 101t30 106t39.5 102t41.5 89t35 66.5t19 34.5l128 -106q-50 -73 -90.5 -155t-69.5 -169t-47.5 -177t-25.5 -178h-144q-9 91 -28 181.5t-47.5 176.5t-67.5 167t-90 154z" />
    <glyph glyph-name="uni0668" unicode="&#x668;" horiz-adv-x="658" 
d="M24 105q51 73 90 154t67.5 167t47.5 176.5t28 181.5h144q7 -88 25.5 -177.5t47.5 -176.5t69.5 -169.5t90.5 -155.5l-128 -106q-4 8 -19 34.5t-35 66.5t-41.5 89t-39.5 102t-30 106.5t-12 100.5q0 -50 -12 -104.5t-30 -107.5t-39.5 -102t-41 -88t-34.5 -65t-20 -32z" />
    <glyph glyph-name="uni0669" unicode="&#x669;" horiz-adv-x="538" 
d="M21 528l18 92q6 31 22 57t38.5 45t51.5 29.5t60 10.5h56q38 0 71.5 -14.5t58.5 -39.5t40 -58.5t15 -71.5v-271q0 -42 4 -85.5t13 -88.5l22 -105l-144 -28l-22 110q-20 103 -20 199v21h1h-1l-4.5 -1t-14.5 -3.5t-23.5 -5t-26.5 -2.5h-42q-44 0 -80 14t-60 40.5t-31 55.5
t-7 51q0 23 5 49zM167 491q2 -2 10 -2h128v94q0 14 -6.5 16.5t-11.5 2.5h-88q-15 0 -18 -15l-15 -85q-1 -4 -1 -6q0 -4 2 -5z" />
    <glyph glyph-name="uni066A" unicode="&#x66a;" horiz-adv-x="503" 
d="M328 165h165v-165h-165v165zM99 -12l-60 41l393 632l61 -39zM30 665h165v-165h-165v165z" />
    <glyph glyph-name="uni066B" unicode="&#x66b;" horiz-adv-x="158" 
d="M159 -129h-119l54 277h161z" />
    <glyph glyph-name="uni066C" unicode="&#x66c;" horiz-adv-x="158" 
d="M159 383h-119l54 277h161z" />
    <glyph glyph-name="uni066D" unicode="&#x66d;" horiz-adv-x="415" 
d="M81 389l-56 69l104 78l-101 70l55 75l98 -71l38 119l89 -30l-37 -120h119v-86h-118l37 -118l-87 -25l-41 118z" />
    <glyph glyph-name="uni0670" unicode="&#x670;" 
d="M55 700h-109v197h109v-197z" />
    <glyph glyph-name="uni06F0" unicode="&#x6f0;" horiz-adv-x="523" 
d="M67 354q14 34 39 59t58.5 39.5t71.5 14.5h50q38 0 71.5 -14.5t58.5 -39.5t39.5 -59t14.5 -72v-50q0 -38 -14.5 -72t-39.5 -59t-58.5 -39.5t-71.5 -14.5h-50q-37 0 -70.5 14.5t-58.5 39.5t-40 59t-15 72v50q0 38 15 72zM214 283v-47q0 -8 5.5 -13t13.5 -5h58q11 0 15 5
t4 13v48q-2 17 -19 17h-58h-2q-7 0 -12 -5t-5 -13z" />
    <glyph glyph-name="uni06F1" unicode="&#x6f1;" horiz-adv-x="303" 
d="M48 736l158 28l22 -110q11 -51 15.5 -100.5t4.5 -98.5v-455h-161v457q0 89 -18 174z" />
    <glyph glyph-name="uni06F2" unicode="&#x6f2;" horiz-adv-x="566" 
d="M214 765l6 -21q5 -21 11.5 -53t12.5 -70t8 -72q1 -11 9 -16t18 -5h103v228h161v-251q0 -29 -12.5 -56t-33 -47.5t-47 -32.5t-55.5 -12h-85q-17 0 -34.5 7t-19.5 12v-375h-161v457q0 44 -5 87.5t-13 86.5l-21 105z" />
    <glyph glyph-name="uni06F3" unicode="&#x6f3;" horiz-adv-x="736" 
d="M48 737l158 28q1 -4 5 -23t9.5 -48t12 -66.5t11.5 -78.5q3 -15 13.5 -18t13.5 -3h13q13 0 22.5 8t11.5 19l41 202l158 -28l-35 -175v-3q0 -7 3.5 -15t20.5 -8h68v229h160v-258q0 -29 -11 -55t-30.5 -45.5t-45 -30.5t-55.5 -11h-69q-29 0 -57.5 9.5t-53.5 35.5
q-26 -24 -49 -34.5t-49 -10.5q-18 0 -38.5 5t-27.5 17v-378h-161v457q0 87 -18 174z" />
    <glyph glyph-name="uni06F4" unicode="&#x6f4;" horiz-adv-x="681" 
d="M206 765q-103 -382 -103 -383v-1q1 1 104 380q3 -17 9.5 -50.5t14 -77.5t13.5 -85q3 -12 6.5 -16t12.5 -4h40q-1 1 -7 6.5t-8 18.5q-1 8 -3 14q-1 5 -1.5 10t-1.5 6q-4 22 -4 43q0 20 6.5 48.5t29.5 56.5t59 44.5t82 16.5h113v-166h-136q-8 0 -9.5 -3.5t-1.5 -6.5v-3
l16 -81q26 2 54 4.5t50.5 4.5t36.5 4l14 1l25 -148q-62 -10 -102.5 -17.5t-72.5 -13t-63.5 -8t-76.5 -2.5q-4 0 -11 1t-15.5 3.5t-16 6t-11.5 7.5v-375h-161v457q0 26 -1.5 52t-6 58t-12 73t-19.5 97z" />
    <glyph glyph-name="uni06F5" unicode="&#x6f5;" horiz-adv-x="694" 
d="M32 220q0 64 16 119.5t43 105t62 93t72 83.5l-34 32l108 133l144 -139q42 -40 82 -83.5t70.5 -94t49 -111.5t18.5 -138q0 -47 -11.5 -87t-35.5 -69.5t-60.5 -46t-86.5 -16.5q-35 0 -66.5 8t-52.5 20q-22 -11 -54 -19.5t-59 -8.5q-57 0 -96 19t-63 49.5t-35 70t-11 80.5z
M176 219q0 -30 18.5 -38.5t39.5 -8.5h2q13 0 21.5 9.5t17.5 41.5l15 55l137 -27l-14 -63q5 -11 12 -14t18 -3h21q19 0 37 10t18 38v10q0 40 -8 72t-27.5 63.5t-52.5 65.5t-81 80q-57 -52 -91 -88.5t-52.5 -67t-24.5 -62t-6 -73.5z" />
    <glyph glyph-name="uni06F6" unicode="&#x6f6;" horiz-adv-x="657" 
d="M273 384q-1 -1 -9 -1q-4 0 -15 0.5t-32 17.5l-79 61q-36 27 -50.5 62t-14.5 69q0 4 1 25.5t19 57t49 60.5l148 116l92 -118l-143 -121q-5 -3 -6 -8t-1 -6q0 -7 8 -14l112 -84q44 54 97 106l81 78l115 -98l-75 -74q-32 -31 -59.5 -67.5t-52.5 -72.5l-261 -375l-138 84z
" />
    <glyph glyph-name="uni06F7" unicode="&#x6f7;" horiz-adv-x="658" 
d="M152 784q5 -6 20 -32t34.5 -65t41 -88t39.5 -102t30 -107.5t12 -104.5q0 48 12 101t30 106t39.5 102t41.5 89t35 66.5t19 34.5l128 -106q-50 -73 -90.5 -155t-69.5 -169t-47.5 -177t-25.5 -178h-144q-9 91 -28 181.5t-47.5 176.5t-67.5 167t-90 154z" />
    <glyph glyph-name="uni06F8" unicode="&#x6f8;" horiz-adv-x="658" 
d="M24 105q51 73 90 154t67.5 167t47.5 176.5t28 181.5h144q7 -88 25.5 -177.5t47.5 -176.5t69.5 -169.5t90.5 -155.5l-128 -106q-4 8 -19 34.5t-35 66.5t-41.5 89t-39.5 102t-30 106.5t-12 100.5q0 -50 -12 -104.5t-30 -107.5t-39.5 -102t-41 -88t-34.5 -65t-20 -32z" />
    <glyph glyph-name="uni06F9" unicode="&#x6f9;" horiz-adv-x="545" 
d="M21 528l18 92q6 31 22 57t38.5 45t51.5 29.5t60 10.5h56q38 0 71.5 -14.5t58.5 -39.5t40 -58.5t15 -71.5v-271q0 -42 4 -85.5t13 -88.5l22 -105l-144 -28l-22 110q-20 103 -20 199v21h1h-1l-4.5 -1t-14.5 -3.5t-23.5 -5t-26.5 -2.5h-42q-44 0 -80 14t-60 40.5t-31 55.5
t-7 51q0 23 5 49zM167 491q2 -2 10 -2h128v94q0 14 -6.5 16.5t-11.5 2.5h-88q-15 0 -18 -15l-15 -85q-1 -4 -1 -6q0 -4 2 -5z" />
    <glyph glyph-name="uni200B" unicode="&#x200b;" horiz-adv-x="333" 
 />
    <glyph glyph-name="uni200C" unicode="&#x200c;" horiz-adv-x="333" 
 />
    <glyph glyph-name="endash" unicode="&#x2013;" horiz-adv-x="580" 
d="M40 195v140h500v-140h-500z" />
    <glyph glyph-name="emdash" unicode="&#x2014;" horiz-adv-x="1080" 
d="M40 195v140h1000v-140h-1000z" />
    <glyph glyph-name="quoteleft" unicode="&#x2018;" horiz-adv-x="303" 
d="M40 401l96 262h127l-50 -262h-173z" />
    <glyph glyph-name="quoteright" unicode="&#x2019;" horiz-adv-x="303" 
d="M40 403l50 262h173l-96 -262h-127z" />
    <glyph glyph-name="quotesinglbase" unicode="&#x201a;" horiz-adv-x="295" 
d="M40 -129l96 277h119l-54 -277h-161z" />
    <glyph glyph-name="quotedblleft" unicode="&#x201c;" horiz-adv-x="504" 
d="M40 401l96 262h127l-50 -262h-173zM241 401l96 262h127l-50 -262h-173z" />
    <glyph glyph-name="quotedblright" unicode="&#x201d;" horiz-adv-x="504" 
d="M40 403l50 262h173l-96 -262h-127zM241 403l50 262h173l-96 -262h-127z" />
    <glyph glyph-name="quotedblbase" unicode="&#x201e;" horiz-adv-x="504" 
d="M40 -142l96 262h127l-50 -262h-173zM241 -142l96 262h127l-50 -262h-173z" />
    <glyph glyph-name="dagger" unicode="&#x2020;" horiz-adv-x="512" 
d="M173 500v174h166v-174h133v-140h-133l-13 -428h-140l-13 428h-133v140h133z" />
    <glyph glyph-name="daggerdbl" unicode="&#x2021;" horiz-adv-x="511" 
d="M40 500h133v174h166v-174h131v-140h-131v-114h132v-141h-132v-173h-166v173h-133v141h133v114h-133v140z" />
    <glyph glyph-name="bullet" unicode="&#x2022;" horiz-adv-x="428" 
d="M339 109h-250v288h250v-288z" />
    <glyph glyph-name="ellipsis" unicode="&#x2026;" horiz-adv-x="794" 
d="M66 0v153h150v-153h-150zM321 0v153h150v-153h-150zM578 0v153h150v-153h-150z" />
    <glyph glyph-name="guilsinglleft" unicode="&#x2039;" horiz-adv-x="321" 
d="M40 296l241 176v-166l-101 -65l101 -76v-166l-241 182v115z" />
    <glyph glyph-name="guilsinglright" unicode="&#x203a;" horiz-adv-x="321" 
d="M281 312v-115l-241 -182v165l101 76l-101 65v166z" />
    <glyph glyph-name="fraction" unicode="&#x2044;" horiz-adv-x="126" 
d="M-173 -12l-60 41l393 632l61 -39z" />
    <glyph glyph-name="Euro" unicode="&#x20ac;" horiz-adv-x="613" 
d="M112 495q8 57 25.5 96.5t47.5 64t73.5 35t103.5 10.5q35 0 84 -6.5t115 -20.5l-5 -132q-46 7 -82.5 10t-65.5 3q-32 0 -52.5 -2t-34 -8t-22 -18t-14.5 -32h207v-125h-217v-49h217v-125h-201q7 -11 15.5 -22t21.5 -20t31 -14.5t43 -5.5q29 0 67 3t87 8l3 -133
q-104 -25 -214 -25q-48 0 -86 15t-66.5 42.5t-48 66t-28.5 85.5h-64v125h52v49h-52v125h60z" />
    <glyph glyph-name="trademark" unicode="&#x2122;" horiz-adv-x="599" 
d="M262 331v321h120l27 -131l31 131h119v-321h-88v157l-31 -133h-51l-39 133v-157h-88zM40 652h200v-95h-27v-225h-106v225h-67v95z" />
    <glyph glyph-name="minus" unicode="&#x2212;" horiz-adv-x="545" 
d="M52 177v148h441v-148h-441z" />
    <glyph glyph-name="uniFBB2" unicode="&#xfbb2;" 
d="M275 1v139h140v-140z" />
    <glyph glyph-name="uniFBB3" unicode="&#xfbb3;" 
d="M275 -141l-1 141h140l1 -141h-140z" />
    <glyph glyph-name="uniFBB4" unicode="&#xfbb4;" 
d="M404 140h140v-140h-140v140zM352 140v-140h-140v140h140z" />
    <glyph glyph-name="uniFBB5" unicode="&#xfbb5;" 
d="M402 0h140v-140h-140v140zM350 0v-140h-138v140h138z" />
    <glyph glyph-name="uniFBB6" unicode="&#xfbb6;" 
d="M402 140h140v-140h-140v140zM445 317v-140h-140v140h140zM350 140v-140h-140v140h140z" />
    <glyph glyph-name="uniFBB7" unicode="&#xfbb7;" 
d="M404 0h140v-140h-140v140zM444 -177v-140h-140v140h140zM352 0v-140h-140v140h140z" />
    <glyph glyph-name="uniFBB7" unicode="&#xfbb9;" 
d="M404 0h140v-140h-140v140zM444 -177v-140h-140v140h140zM352 0v-140h-140v140h140z" />
    <glyph glyph-name="uniFE70FE7C" 
d="M-191 924h100v-105q0 -3 4 -5h37q5 0 7 6l20 102l87 -19l-18 -83q0 -4 2 -4q1 -1 2 -1h48v112h100v-133q0 -18 -8 -35t-21 -30t-30 -21t-35 -8h-40q-10 0 -28.5 5.5t-32.5 24.5q-14 -19 -37 -24.5t-39 -5.5q-25 0 -46.5 9.5t-37.5 25.5t-25 37.5t-9 46.5v105zM-197 1217
l358 77l22 -101l-362 -78zM161 1156l22 -101l-362 -78l-18 102z" />
    <glyph glyph-name="uniFB8E.alt" horiz-adv-x="1125" 
d="M184 418v-181q0 -13 6 -25t15.5 -21.5t21.5 -15t24 -5.5h682q8 0 13 5.5t5 13.5v75q-1 9 -7 16t-16 7h-520l-104 99l320 375l104 -96l-187 -220h370q38 0 71.5 -14.5t58.5 -39.5t39.5 -59t14.5 -72v-76q0 -39 -16 -72.5t-41.5 -58.5t-58.5 -39t-68 -14h-650
q-44 0 -84 17.5t-70.5 48t-48.5 71t-18 85.5v196h144z" />
    <glyph glyph-name="uniFB8F.alt" horiz-adv-x="1162" 
d="M184 418v-182q0 -13 6 -25t15.5 -21t21.5 -14.5t24 -5.5h682q8 0 13 5.5t5 13.5v75q-1 9 -7 16t-16 7h-520l-104 99l320 375l104 -96l-187 -220h370q38 0 71.5 -14.5t58.5 -39.5t39.5 -59t14.5 -72v-68q5 -22 28 -22h39q6 0 10 -4t4 -9v-2v-140v-2q0 -5 -4 -9t-10 -4h-15
q-34 0 -65 10t-57 28q-26 -19 -55.5 -28.5t-58.5 -9.5h-650q-44 0 -84 17.5t-70.5 47.5t-48.5 70.5t-18 85.5v197h144z" />
    <glyph glyph-name="uniFB91.alt" horiz-adv-x="895" 
d="M-14 15v141q0 14 14 14h665q5 0 11.5 5t6.5 15v73q0 10 -7 16.5t-16 6.5h-520l-103 99l319 375l104 -96l-186 -220h369q38 0 71.5 -14.5t58.5 -39.5t39.5 -59t14.5 -72v-61q0 -12 8.5 -20t20.5 -8h39q5 0 9.5 -4t4.5 -11v-141q0 -5 -4.5 -9.5t-9.5 -4.5h-15q-34 0 -65 10
t-57 28q-27 -18 -58 -28t-63 -10h-637q-6 0 -10 4.5t-4 10.5z" />
    <glyph glyph-name="uniFB90.alt" horiz-adv-x="857" 
d="M-14 156q0 5 4 9.5t10 4.5h665q5 0 11.5 4t6.5 14v75q0 10 -7 16.5t-16 6.5h-520l-103 99l319 375l104 -96l-186 -220h369q38 0 71.5 -14.5t58.5 -39.5t39.5 -58.5t14.5 -72.5v-74q0 -40 -16 -74t-42.5 -59t-60.5 -38.5t-71 -13.5h-637q-5 0 -9.5 4.5t-4.5 9.5v142z" />
    <glyph glyph-name="uniFB92.alt" horiz-adv-x="1125" 
d="M40 418h144v-182q0 -13 6 -25t15.5 -21t21.5 -14.5t24 -5.5h682q8 0 13 5.5t5 13.5v75q0 9 -6.5 16t-16.5 7h-490l-104 99l320 375l104 -96l-187 -220h340q38 0 71.5 -14.5t58.5 -39.5t39.5 -59t14.5 -72v-76q0 -39 -16 -72.5t-41.5 -58.5t-58.5 -39t-68 -14h-650
q-44 0 -84 17.5t-70.5 47.5t-48.5 70.5t-18 85.5v197zM487 808l66 -66l-252 -294l-74 56z" />
    <glyph glyph-name="uniFB93.alt" horiz-adv-x="1162" 
d="M40 418h144v-181q0 -13 6 -25t15.5 -21.5t21.5 -15t24 -5.5h682q8 0 13 5.5t5 13.5v75q-1 9 -7 16t-16 7h-490l-104 99l320 375l104 -96l-187 -220h340q38 0 71.5 -14.5t58.5 -39.5t39.5 -59t14.5 -72v-68q5 -22 28 -22h39q14 0 14 -15v-140q0 -15 -14 -15h-15
q-34 0 -65 10t-57 28q-26 -19 -55.5 -28.5t-58.5 -9.5h-650q-44 0 -84 17.5t-70.5 47.5t-48.5 70.5t-18 85.5v197zM227 504l260 304l66 -66l-252 -294z" />
    <glyph glyph-name="uniFB95.alt" horiz-adv-x="1006" 
d="M-14 156q0 14 14 14h776q5 0 11.5 5t6.5 15v73q0 10 -7 16.5t-16 6.5h-519l-104 99l320 375l103 -96l-186 -220h369q38 0 72 -14.5t59 -39.5t39.5 -59t14.5 -72v-59q0 -12 8 -20.5t20 -8.5h39q6 0 10 -4.5t4 -9.5v-143q0 -5 -4 -9.5t-10 -4.5h-15q-34 0 -65 10t-57 28
q-27 -18 -58 -28t-63 -10h-748q-6 0 -10 4.5t-4 10.5v141zM42 503l260 304l66 -66l-252 -294z" />
    <glyph glyph-name="uniFB94.alt" horiz-adv-x="969" 
d="M-14 156q0 14 14 14h776q5 0 11.5 5t6.5 15v73q0 10 -7 16.5t-16 6.5h-519l-104 99l320 375l103 -96l-186 -220h369q38 0 72 -14.5t59 -39.5t39.5 -58.5t14.5 -72.5v-74q0 -40 -16 -74t-42.5 -59t-61 -38.5t-71.5 -13.5h-748q-6 0 -10 4.5t-4 10.5v141zM42 503l260 304
l66 -66l-252 -294z" />
  </font>
</defs>
</svg>
