<?xml version="1.0" standalone="no"?>
<!DOCTYPE svg PUBLIC "-//W3C//DTD SVG 1.1//EN" "http://www.w3.org/Graphics/SVG/1.1/DTD/svg11.dtd" >
<svg xmlns="http://www.w3.org/2000/svg" xmlns:xlink="http://www.w3.org/1999/xlink" version="1.1">
<metadata>
Created by FontForge 20170731 at Wed Jun 10 09:38:54 2020
 By Aleksey,,,
Copyright (c) 2019 by www.fontiran.com All rights reserved.
</metadata>
<defs>
<font id="PeydaWeb-ExtraBold" horiz-adv-x="0" >
  <font-face 
    font-family="PeydaWeb ExtBd"
    font-weight="800"
    font-stretch="normal"
    units-per-em="1000"
    panose-1="0 0 0 0 0 0 0 0 0 0"
    ascent="800"
    descent="-200"
    x-height="500"
    cap-height="677"
    bbox="-228 -443 1470 1251"
    underline-thickness="50"
    underline-position="-175"
    unicode-range="U+000D-FEFC"
  />
<missing-glyph horiz-adv-x="250" 
 />
    <glyph glyph-name="uniFDF2" unicode="&#x627;&#xfedf;&#xfee0;&#xfeea;" horiz-adv-x="1279" arabic-form="isolated" 
d="M63 336q10 29 28.5 53t44.5 42t57 26l116 30v85h124v-380q0 -18 14.5 -32t33.5 -14h91q17 0 28.5 12t11.5 29v314h124v-320q2 -14 12.5 -24t23.5 -10h94q17 0 28.5 11.5t11.5 28.5v391h123v-391q0 -39 -14.5 -73t-40 -59.5t-59.5 -40t-73 -14.5h-44q-35 0 -66.5 12.5
t-57.5 33.5q-25 -21 -56.5 -33.5t-66.5 -12.5h-65q-47 2 -85 25.5t-62 60.5q-22 -11 -46 -11h-107q-27 0 -51.5 10.5t-42.5 29t-29 43t-11 51.5v66q0 31 11 61zM1102 0v694h124v-694h-124zM588 774v-96q0 -5 4.5 -9t9.5 -4h4q14 0 18 13l19 93l91 -16l-16 -78q-1 -2 -1 -3
q0 -3 3.5 -6t8.5 -3h33v113h92v-131q0 -33 -23.5 -56.5t-55.5 -23.5h-48q-31 0 -58 19q-28 -19 -63 -19q-22 0 -42 9t-35 24t-24 35t-9 43v96h92zM629 803v176h92v-176h-92zM176 221h133v133l-81 -22q-23 -6 -37.5 -24.5t-14.5 -41.5v-45z" />
    <glyph glyph-name="uniFEF5" unicode="&#xfedf;&#xfe82;" horiz-adv-x="578" arabic-form="isolated" 
d="M56 102l109 14l-49 520l126 17l46 -521l67 9q24 3 41 22.5t17 42.5v488h124v-487q0 -35 -13 -68.5t-36 -60t-55 -45t-70 -23.5l-290 -41zM-23 726q1 48 31 74t69 26h212v-106h-219q-7 0 -7 -6v-43h-87z" />
    <glyph glyph-name="uniFEF6" unicode="&#xfee0;&#xfe82;" horiz-adv-x="646" arabic-form="final" 
d="M55 101l109 14l-49 522l126 15l45 -521l68 9q24 3 41 22.5t17 42.5l1 488h123v-507q0 -14 10.5 -27t27.5 -13h71q14 0 14 -14v-118q0 -14 -14 -14h-48q-40 0 -73.5 15t-58.5 41q-21 -18 -47 -30.5t-56 -17.5l-290 -40zM-24 671v55q0 24 8.5 42.5t22.5 31.5t32 19.5
t37 6.5h212v-106h-220q-6 0 -6 -6v-43h-86z" />
    <glyph glyph-name="uniFEF7" unicode="&#xfedf;&#xfe84;" horiz-adv-x="580" arabic-form="isolated" 
d="M57 102l109 14l-49 520l126 17l46 -521l67 9q24 3 41 22.5t17 42.5v488h124v-487q0 -35 -13 -68.5t-36 -60t-55 -45t-70 -23.5l-290 -41zM46 755l68 30q-3 0 -7 1q-8 4 -13 13q-1 2 -5 9.5t-6 12.5q-10 22 -10.5 33.5t-0.5 12.5q0 20 8 37.5t22.5 32t33.5 22.5l83 34
l38 -92l-78 -33q-6 -2 -7.5 -5.5t-1.5 -5.5q0 -4 2 -9q2 -4 6 -12.5t8 -14.5l28 14l35 18q17 9 30 16t14 7l42 -85l-246 -125z" />
    <glyph glyph-name="uniFEF8" unicode="&#xfee0;&#xfe84;" horiz-adv-x="641" arabic-form="final" 
d="M51 101l109 14l-49 522l126 15l45 -521l68 9q24 3 41.5 22.5t17.5 42.5v489h123v-508q0 -14 10.5 -27t27.5 -13h71q14 0 14 -14v-118q0 -14 -14 -14h-48q-40 0 -73.5 15t-58.5 41q-21 -18 -47 -30.5t-56 -17.5l-290 -40zM46 755l68 30q-3 0 -7 1q-8 4 -13 13q-1 2 -5 9.5
t-6 12.5q-10 22 -10.5 33.5t-0.5 12.5q0 20 8 37.5t22.5 32t33.5 22.5l83 34l38 -92l-78 -33q-6 -2 -7.5 -5.5t-1.5 -5.5q0 -4 2 -9q2 -4 6 -12.5t8 -14.5l28 14l35 18q17 9 30 16t14 7l42 -85l-246 -125z" />
    <glyph glyph-name="uniFEF9" unicode="&#xfedf;&#xfe88;" horiz-adv-x="569" arabic-form="isolated" 
d="M46 102l109 14l-49 520l126 17l46 -521l67 9q24 3 41 22.5t17 42.5v488h124v-487q0 -35 -13 -68.5t-36 -60t-55 -45t-70 -23.5l-290 -41zM82 -308q4 1 13 5.5t20 9t21 9t15 6.5q-1 0 -8 1.5t-12 13.5q-2 1 -5.5 8.5t-6.5 12.5q-10 22 -10 43.5t7.5 40t22 32.5t33.5 22
l84 34l37 -91l-78 -33q-5 -2 -7 -6t-2 -6q0 -4 3 -9l6 -12q4 -8 8 -15q10 5 28 14.5t35 18.5q20 10 43 22l43 -84l-247 -126z" />
    <glyph glyph-name="uniFEFA" unicode="&#xfee0;&#xfe88;" horiz-adv-x="636" arabic-form="final" 
d="M46 101l109 14l-49 522l126 15l45 -521l68 9q24 3 41.5 22.5t17.5 42.5v489h123v-508q0 -14 10.5 -27t27.5 -13h71q14 0 14 -14v-118q0 -14 -14 -14h-48q-40 0 -73.5 15t-58.5 41q-21 -18 -47 -30.5t-56 -17.5l-290 -40zM151 -278q-3 0 -7 2q-7 2 -13 13q0 1 -4.5 8.5
t-6.5 12.5q-10 23 -10.5 34t-0.5 12q0 20 8 38t22.5 32t33.5 22l84 35l37 -92l-79 -33q-5 -2 -6.5 -6t-1.5 -6q0 -4 2 -8l14 -28l106 56l43 -85l-246 -126l-43 90z" />
    <glyph glyph-name="uniFEFB" unicode="&#xfedf;&#xfe8e;" horiz-adv-x="569" arabic-form="isolated" 
d="M155 116l-49 520l126 17l46 -521l67 9q24 3 41 22.5t17 42.5v488h124v-487q0 -35 -13 -68.5t-36 -60t-55 -45t-70 -23.5l-290 -41l-17 133z" />
    <glyph glyph-name="uniFEFC" unicode="&#xfee0;&#xfe8e;" horiz-adv-x="636" arabic-form="final" 
d="M155 115l-49 522l126 15l45 -521l68 9q24 3 41.5 22.5t17.5 42.5v489h123v-508q0 -14 10.5 -27t27.5 -13h71q14 0 14 -14v-118q0 -14 -14 -14h-48q-40 0 -73.5 15t-58.5 41q-21 -18 -47 -30.5t-56 -17.5l-290 -40l-17 133z" />
    <glyph glyph-name="uniFEB3FBFD" unicode="&#xfeb3;&#xfbfd;" horiz-adv-x="1359" 
d="M52 18v271h122v-254q0 -21 8.5 -40t22.5 -33.5t33.5 -22.5t40.5 -8h201q31 0 52.5 21.5t21.5 53.5v22l-250 59v98q1 42 16.5 78t41 64t59.5 46.5t71 24.5l62 10q17 3 34 3q38 0 82.5 -19.5t75.5 -67.5l93 -140q8 -14 23 -26t36 -12q20 0 35 10.5t17 27.5l38 187l121 -22
l-33 -165q1 -16 12.5 -27t27.5 -11h79v257h123v-271q0 -27 -10.5 -51t-29 -42t-42.5 -28.5t-51 -10.5h-69q-30 0 -54 12.5t-45 43.5q-23 -31 -53 -43.5t-65 -12.5q-53 0 -88 27t-70 80l-81 124q-14 22 -36.5 31.5t-42.5 9.5q-6 0 -12 -1l-80 -12q-27 -4 -46 -23t-19 -46v-7
l159 -31q43 -8 69 -41.5t26 -77.5v-34q0 -44 -13 -83t-37 -68t-59.5 -46t-80.5 -17h-204q-48 0 -90 18.5t-73.5 50t-50 74t-18.5 90.5z" />
    <glyph glyph-name="uniFEB4FBFD" unicode="&#xfeb4;&#xfbfd;" horiz-adv-x="1396" 
d="M52 18v271h124v-254q0 -21 8 -40t22 -33.5t33 -22.5t40 -8h201q31 0 52.5 21.5t21.5 53.5v22l-250 59v98q1 42 16.5 78t41 64t59.5 46.5t71 24.5l62 10q17 3 34 3q38 0 82.5 -19.5t75.5 -67.5l93 -140q8 -14 23 -26t36 -12q20 0 35 10.5t17 27.5l38 187l121 -22l-33 -165
q-1 -3 -1 -7q0 -12 11 -21.5t27 -9.5h37q17 0 29 12t12 29v216h123v-216q0 -17 11.5 -29t28.5 -12h42q6 0 10 -4.5t4 -10.5v-117q0 -6 -4.5 -10t-9.5 -4h-21q-36 0 -67.5 14t-54.5 45q-26 -31 -54.5 -45t-64.5 -14q-31 0 -63.5 12.5t-53.5 43.5q-23 -31 -53 -43.5t-65 -12.5
q-53 0 -88 27t-70 80l-81 124q-14 22 -36.5 31.5t-42.5 9.5q-6 0 -12 -1l-78 -12q-27 -4 -47 -23t-20 -46v-7l159 -31q43 -8 69 -41.5t26 -77.5v-34q0 -44 -13 -83t-37 -68t-59.5 -46t-80.5 -17h-204q-48 0 -90 18.5t-73.5 50t-50 74t-18.5 90.5z" />
    <glyph glyph-name="uniFEB7FBFD" unicode="&#xfeb7;&#xfbfd;" horiz-adv-x="1359" 
d="M52 17v272h124v-254q0 -22 8 -41t22 -33t33 -22t40 -8h201q31 0 52.5 21t21.5 51v3v21l-251 59v98q1 42 16.5 78.5t41.5 64t60 46t71 24.5l62 10q15 3 30 3q12 0 32 -3t45.5 -14t47 -28.5t37.5 -40.5l92 -141q9 -14 24 -25.5t36 -11.5q19 0 33.5 10.5t18.5 26.5l37 188
l122 -22l-33 -166q0 -16 11.5 -26.5t27.5 -10.5h79v257h124v-271q0 -27 -11 -51t-29 -42t-42.5 -28.5t-51.5 -10.5h-69q-30 0 -54 12.5t-45 43.5q-23 -31 -53 -43.5t-65 -12.5q-27 0 -48 6.5t-39.5 20t-35.5 33t-34 46.5l-82 124q-14 22 -36 31.5t-42 9.5q-6 0 -12 -1
l-79 -12q-26 -4 -46.5 -23t-20.5 -45v-8l160 -31q43 -8 69 -41t26 -77v-35q0 -44 -13 -83t-37 -68t-59.5 -45.5t-80.5 -16.5h-204q-48 0 -90 18t-73.5 49.5t-50 74t-18.5 90.5zM831 579h125v-125h-125v125zM918 741h125v-125h-125v125zM1133 579v-125h-125v125h125z" />
    <glyph glyph-name="uniFEB8FBFD" unicode="&#xfeb8;&#xfbfd;" horiz-adv-x="1396" 
d="M52 19v271h124v-254q0 -21 8 -40t22 -33.5t33 -22.5t40 -8h201q31 0 52.5 21.5t21.5 53.5v22l-250 59v98q1 42 16.5 78t41 64t59.5 46.5t71 24.5l62 10q17 3 34 3q38 0 82.5 -19.5t75.5 -67.5l93 -140q8 -14 23 -26t36 -12q20 0 35 10.5t17 27.5l38 187l121 -22l-33 -165
q-1 -3 -1 -7q0 -12 11 -21.5t27 -9.5h37q17 0 29 12t12 29v216h123v-216q0 -17 11.5 -29t28.5 -12h42q6 0 10 -4.5t4 -10.5v-117q0 -6 -4.5 -10t-9.5 -4h-21q-36 0 -67.5 14t-54.5 45q-26 -31 -54.5 -45t-64.5 -14q-31 0 -63.5 12.5t-53.5 43.5q-23 -31 -53 -43.5t-65 -12.5
q-53 0 -88 27t-70 80l-81 124q-14 22 -36.5 31.5t-42.5 9.5q-6 0 -12 -1l-78 -12q-27 -4 -47 -23t-20 -46v-7l159 -31q43 -8 69 -41.5t26 -77.5v-34q0 -44 -13 -83t-37 -68t-59.5 -46t-80.5 -17h-204q-48 0 -90 18.5t-73.5 50t-50 74t-18.5 90.5zM831 454v125h125v-125h-125
zM918 616v125h125v-125h-125zM1133 579v-125h-125v125h125z" />
    <glyph glyph-name="uniFEBBFBFD" unicode="&#xfebb;&#xfbfd;" horiz-adv-x="1424" 
d="M52 16v274h122v-255q0 -21 8.5 -40.5t22.5 -33.5t33.5 -22.5t41.5 -8.5h201q31 0 52.5 22t22.5 54l-1 22l-251 59v97q0 43 15.5 79.5t42 64.5t61 46t71.5 24l61 10q16 3 31 3q12 0 31.5 -3t44.5 -13.5t45.5 -28t35.5 -40.5l61 -94q7 -11 16.5 -25t11.5 -18l145 155
q32 36 76.5 55.5t94.5 19.5h62q36 0 67 -13.5t54.5 -37t37 -55t13.5 -66.5v-56q0 -39 -15 -74t-40.5 -61t-60.5 -41t-74 -15h-261q-56 0 -107 26t-86 80l-81 123q-13 23 -34 33t-38 10q-8 0 -16 -2l-77 -12q-26 -4 -45.5 -22.5t-19.5 -44.5v-11l155 -28q44 -8 70 -41.5
t26 -77.5v-34q0 -45 -13 -84t-37 -68t-59 -45.5t-79 -16.5h-207q-48 0 -90 18t-73.5 49.5t-49.5 73.5t-18 90zM957 146h259q18 0 30 13t12 30v48q0 17 -11.5 29t-28.5 12h-91q-48 0 -81 -36z" />
    <glyph glyph-name="uniFEBCFBFD" unicode="&#xfebc;&#xfbfd;" horiz-adv-x="1456" 
d="M174 290v-255q0 -21 8.5 -40t22.5 -33.5t33 -22.5t41 -8h202q31 0 51.5 21t20.5 50v3v24l-249 58v97q0 41 15.5 77.5t41.5 64.5t60.5 47t72.5 25l62 10q15 2 29 2q40 0 85 -19t76 -67l5 -8q5 -8 12 -20t15 -24.5t14 -21.5q1 -2 7.5 -11.5t13.5 -20t13 -19t6 -9.5l141 154
q34 37 78.5 56t93.5 19h62q35 0 66.5 -13.5t55 -37t37 -54.5t13.5 -67l1 -54q0 -20 11 -33.5t28 -13.5h37q14 0 14 -13v-118q0 -15 -14 -15h-17q-37 0 -67.5 12t-55.5 35q-26 -22 -59 -34.5t-69 -12.5h-256q-57 0 -106.5 26.5t-84.5 80.5l-82 123q-14 22 -35 32t-38 10
q-8 0 -16 -2l-78 -11q-27 -3 -47.5 -22.5t-20.5 -45.5v-11l159 -28q42 -8 68 -41.5t26 -77.5v-34q0 -45 -13 -84t-37 -68t-59 -45.5t-79 -16.5h-205q-48 0 -90 18t-73.5 49.5t-50 74t-18.5 90.5v273h122zM952 146h260q18 0 31 13t13 30v48q0 17 -12.5 29.5t-29.5 12.5h-91
q-23 0 -44 -9.5t-36 -27.5z" />
    <glyph glyph-name="uniFEBFFBFD" unicode="&#xfebf;&#xfbfd;" horiz-adv-x="1424" 
d="M52 16v274h122v-255q0 -21 8.5 -40.5t22.5 -33.5t33.5 -22.5t41.5 -8.5h201q31 0 52.5 22t22.5 54l-1 22l-251 59v97q0 43 15.5 79.5t42 64.5t61 46t71.5 24l61 10q16 3 31 3q12 0 31.5 -3t44.5 -13.5t45.5 -28t35.5 -40.5l61 -94q7 -11 16.5 -25t11.5 -18l145 155
q32 36 76.5 55.5t94.5 19.5h62q36 0 67 -13.5t54.5 -37t37 -55t13.5 -66.5v-56q0 -39 -15 -74t-40.5 -61t-60.5 -41t-74 -15h-261q-56 0 -107 26t-86 80l-81 123q-13 23 -34 33t-38 10q-8 0 -16 -2l-77 -12q-26 -4 -45.5 -22.5t-19.5 -44.5v-11l155 -28q44 -8 70 -41.5
t26 -77.5v-34q0 -45 -13 -84t-37 -68t-59 -45.5t-79 -16.5h-207q-48 0 -90 18t-73.5 49.5t-49.5 73.5t-18 90zM1216 146q18 0 30 13t12 30v48q0 17 -11.5 29t-28.5 12h-91q-48 0 -81 -36l-89 -96h259zM1106 624h125v-125h-125v125z" />
    <glyph glyph-name="uniFEC0FBFD" unicode="&#xfec0;&#xfbfd;" horiz-adv-x="1455" 
d="M52 17v273h122v-255q0 -21 8.5 -40t22.5 -33.5t33 -22.5t41 -8h202q31 0 51.5 21t20.5 50v3v24l-249 58v97q0 41 15.5 77.5t41.5 64.5t60.5 47t72.5 25l62 10q15 2 29 2q40 0 85 -19t76 -67l5 -8q5 -8 12 -20t15 -24.5t14 -21.5q1 -2 7.5 -11.5t13.5 -20t13 -19t6 -9.5
l141 154q34 37 78.5 56t93.5 19h62q35 0 66.5 -13.5t55 -37t37 -54.5t13.5 -67l1 -54q0 -20 11 -33.5t28 -13.5h37q14 0 14 -13v-118q0 -15 -14 -15h-17q-37 0 -67.5 12t-55.5 35q-26 -22 -59 -34.5t-69 -12.5h-256q-57 0 -106.5 26.5t-84.5 80.5l-82 123q-14 22 -35 32
t-38 10q-8 0 -16 -2l-78 -11q-27 -3 -47.5 -22.5t-20.5 -45.5v-11l159 -28q42 -8 68 -41.5t26 -77.5v-34q0 -45 -13 -84t-37 -68t-59 -45.5t-79 -16.5h-205q-48 0 -90 18t-73.5 49.5t-50 74t-18.5 90.5zM1212 146q18 0 31 13t13 30v48q0 17 -12.5 29.5t-29.5 12.5h-91
q-23 0 -44 -9.5t-36 -27.5l-91 -96h260zM1227 626v-125h-126v125h126z" />
    <glyph glyph-name="uniFE92FBFD" unicode="&#xfe92;&#xfbfd;" horiz-adv-x="925" 
d="M176 289v-254q0 -21 8 -40t22 -33.5t32.5 -22.5t40.5 -8h200q32 0 53.5 21.5t21.5 53.5v23l-250 58v97q0 40 15.5 76t41.5 65t60 48t71 25l63 9q16 3 31 3q39 0 83.5 -19.5t75.5 -66.5q10 -14 25.5 -38t30.5 -47q17 -26 36 -55q8 -11 22.5 -24.5t39.5 -13.5h26
q14 0 14 -14v-117q0 -6 -4 -10.5t-10 -4.5h-24q-27 0 -49 6.5t-41 20t-36 33.5t-35 47l-82 123q-14 22 -35 31.5t-40 9.5q-7 0 -14 -1l-78 -12q-28 -4 -47.5 -23t-19.5 -45v-11l159 -27q42 -7 68.5 -41.5t26.5 -77.5v-34q0 -45 -13 -84t-37.5 -68t-59.5 -45.5t-80 -16.5
h-204q-48 0 -90.5 18t-74 49.5t-49.5 74t-18 90.5v272h124zM857 -121v-125h-125v125h125z" />
    <glyph glyph-name="uniFB59FBFD" unicode="&#xfb59;&#xfbfd;" horiz-adv-x="1029" 
d="M52 17v272h124v-254q0 -21 8 -40t22 -33.5t32.5 -22.5t40.5 -8h200q32 0 53.5 21.5t21.5 53.5v23l-250 58v97q0 40 15.5 76t41.5 65t60 48t71 25l63 9q16 3 31 3q39 0 83.5 -19.5t75.5 -66.5q10 -14 25.5 -38t30.5 -47q17 -26 36 -55q8 -11 22.5 -24.5t39.5 -13.5h130
q14 0 14 -14v-117q0 -6 -4.5 -10.5t-9.5 -4.5h-128q-27 0 -49 6.5t-41 20t-36 33.5t-35 47l-82 123q-14 22 -35 31.5t-40 9.5q-7 0 -14 -1l-78 -12q-28 -4 -47.5 -23t-19.5 -45v-11l159 -27q42 -7 68.5 -41.5t26.5 -77.5v-34q0 -45 -13 -84t-37.5 -68t-59.5 -45.5t-80 -16.5
h-204q-48 0 -90.5 18t-74 49.5t-49.5 74t-18 90.5zM701 -245v125h125v-125h-125zM912 -282v-125h-125v125h125zM878 -245v125h125v-125h-125z" />
    <glyph glyph-name="uniFE98FBFD" unicode="&#xfe98;&#xfbfd;" horiz-adv-x="925" 
d="M52 17v272h124v-254q0 -21 8 -40t22 -33.5t32.5 -22.5t40.5 -8h200q32 0 53.5 21.5t21.5 53.5v23l-250 58v97q0 40 15.5 76t41.5 65t60 48t71 25l63 9q16 3 31 3q39 0 83.5 -19.5t75.5 -66.5q10 -14 25.5 -38t30.5 -47q17 -26 36 -55q8 -11 22.5 -24.5t39.5 -13.5h26
q14 0 14 -14v-117q0 -6 -4 -10.5t-10 -4.5h-24q-27 0 -49 6.5t-41 20t-36 33.5t-35 47l-82 123q-14 22 -35 31.5t-40 9.5q-7 0 -14 -1l-78 -12q-28 -4 -47.5 -23t-19.5 -45v-11l159 -27q42 -7 68.5 -41.5t26.5 -77.5v-34q0 -45 -13 -84t-37.5 -68t-59.5 -45.5t-80 -16.5
h-204q-48 0 -90.5 18t-74 49.5t-49.5 74t-18 90.5zM701 509v125h125v-125h-125zM524 634h125v-125h-125v125z" />
    <glyph glyph-name="uniFE9CFBFD" unicode="&#xfe9c;&#xfbfd;" horiz-adv-x="925" 
d="M176 289v-254q0 -21 8 -40t22 -33.5t32.5 -22.5t40.5 -8h200q32 0 53.5 21.5t21.5 53.5v23l-250 58v97q0 40 15.5 76t41.5 65t60 48t71 25l63 9q16 3 31 3q39 0 83.5 -19.5t75.5 -66.5q10 -14 25.5 -38t30.5 -47q17 -26 36 -55q8 -11 22.5 -24.5t39.5 -13.5h26
q14 0 14 -14v-117q0 -6 -4 -10.5t-10 -4.5h-24q-27 0 -49 6.5t-41 20t-36 33.5t-35 47l-82 123q-14 22 -35 31.5t-40 9.5q-7 0 -14 -1l-78 -12q-28 -4 -47.5 -23t-19.5 -45v-11l159 -27q42 -7 68.5 -41.5t26.5 -77.5v-34q0 -45 -13 -84t-37.5 -68t-59.5 -45.5t-80 -16.5
h-204q-48 0 -90.5 18t-74 49.5t-49.5 74t-18 90.5v272h124zM831 637v-131h-132v131h132zM738 805v-131h-131v131h131zM516 637h131v-131h-131v131z" />
    <glyph glyph-name="uniFEE8FBFD" unicode="&#xfee8;&#xfbfd;" horiz-adv-x="925" 
d="M176 289v-254q0 -21 8 -40t22 -33.5t32.5 -22.5t40.5 -8h200q32 0 53.5 21.5t21.5 53.5v23l-250 58v97q0 40 15.5 76t41.5 65t60 48t71 25l63 9q16 3 31 3q39 0 83.5 -19.5t75.5 -66.5q10 -14 25.5 -38t30.5 -47q17 -26 36 -55q8 -11 22.5 -24.5t39.5 -13.5h26
q14 0 14 -14v-117q0 -6 -4 -10.5t-10 -4.5h-24q-27 0 -49 6.5t-41 20t-36 33.5t-35 47l-82 123q-14 22 -35 31.5t-40 9.5q-7 0 -14 -1l-78 -12q-28 -4 -47.5 -23t-19.5 -45v-11l159 -27q42 -7 68.5 -41.5t26.5 -77.5v-34q0 -45 -13 -84t-37.5 -68t-59.5 -45.5t-80 -16.5
h-204q-48 0 -90.5 18t-74 49.5t-49.5 74t-18 90.5v272h124zM739 634v-125h-125v125h125z" />
    <glyph glyph-name="uniFBFDFE8C" unicode="&#xfe8c;&#xfbfd;" horiz-adv-x="925" 
d="M52 17v272h124v-254q0 -22 8 -41t22 -33t33 -22t40 -8h201q31 0 52 21.5t21 53.5v22l-249 58v98q0 39 15.5 75t41.5 64.5t60 48t71 25.5l63 10q16 3 32 3q39 0 82.5 -19.5t75.5 -66.5q10 -15 25.5 -38.5t30.5 -46.5q17 -26 36 -55q8 -11 22.5 -24.5t39.5 -13.5h26
q14 0 14 -14v-117q0 -15 -14 -15h-24q-55 0 -90.5 27t-70.5 80l-81 123q-15 22 -37 31.5t-42 9.5q-5 0 -11 -1l-79 -12q-26 -4 -46 -23t-20 -45v-11l159 -27q42 -8 68 -41.5t26 -77.5v-34q0 -45 -13 -84t-37 -68t-59 -45.5t-80 -16.5h-204q-48 0 -90 18t-73.5 49.5t-50 74
t-18.5 90.5zM580 621q-1 0 -6 1.5t-10 12.5q-2 3 -6.5 10.5t-6.5 12.5q-10 22 -10 43.5t7.5 40t22 32.5t33.5 22l84 35l38 -92l-79 -33q-5 -2 -7 -6t-2 -6q0 -4 2 -8q3 -5 7.5 -13.5t7.5 -14.5l107 56l42 -86l-247 -125l-43 90z" />
    <glyph glyph-name="uniFBFDFBFF" unicode="&#xfbff;&#xfbfd;" horiz-adv-x="1038" 
d="M52 289h124v-254q0 -22 8 -41t22 -33t33 -22t40 -8h201q31 0 52 21.5t21 53.5v22l-249 58v98q0 39 15.5 75.5t41 65.5t60 48t71.5 24l63 10q16 3 32 3q39 0 82.5 -19.5t75.5 -66.5q10 -15 25.5 -38.5t30.5 -46.5q17 -26 36 -55q8 -11 22.5 -24.5t39.5 -13.5h139
q14 0 14 -14v-117q0 -15 -14 -15h-137q-55 0 -90.5 27t-70.5 80l-81 123q-15 22 -37 31.5t-42 9.5q-5 0 -11 -1l-79 -12q-26 -4 -45 -23t-19 -45v-11l157 -27q42 -8 68 -41.5t26 -77.5v-34q0 -45 -13 -84t-37 -68t-59 -45.5t-80 -16.5h-204q-48 0 -90 18t-73.5 49.5t-50 74
t-18.5 90.5v272zM1015 -119v-125h-125v125h125zM713 -244v125h125v-125h-125z" />
    <glyph glyph-name="uni0621" unicode="&#x621;" horiz-adv-x="432" arabic-form="isolated" 
d="M52 84l77 39q-1 0 -9 4t-15 18l-10 20q-13 26 -13 50.5t9 46t26 38t39 25.5l97 40l44 -106l-90 -37q-9 -4 -10.5 -8.5t-1.5 -7.5q0 -5 3 -10q2 -4 6.5 -13.5t8.5 -17.5l123 65l49 -99l-286 -145z" />
    <glyph glyph-name="uni0622" unicode="&#x622;" horiz-adv-x="288" arabic-form="isolated" 
d="M102 616h124v-616h-124v616zM-30 636v55q0 25 8.5 44t22.5 31.5t32 18.5t37 6h204v-106h-201q-17 0 -17 -16v-33h-86z" />
    <glyph glyph-name="uni0623" unicode="&#x623;" horiz-adv-x="213" arabic-form="isolated" 
d="M46 0v616h124v-616h-124zM44 776q-1 0 -8 1.5t-12 13.5q-1 2 -5 9t-7 12q-10 23 -10.5 34t-0.5 12q0 20 8 38t22.5 32.5t33.5 22.5l84 34l38 -92l-79 -32q-5 -2 -7 -6t-2 -7q0 -4 3 -9q2 -3 6.5 -11.5t7.5 -15.5l106 56l43 -85l-247 -126l-43 90z" />
    <glyph glyph-name="uni0624" unicode="&#x624;" horiz-adv-x="505" arabic-form="isolated" 
d="M47 195l17 92q5 29 20 53t36.5 42t48.5 28t56 10h56q36 0 67 -13.5t54.5 -37t37 -55t13.5 -67.5v-218q0 -41 -12 -78.5t-34.5 -69t-54 -55.5t-70.5 -37l-146 -50l-37 117l148 50q35 12 58 38.5t23 64.5v5q-12 -7 -30 -10.5t-35 -3.5h-55q-39 0 -71.5 16.5t-55 44t-30 55
t-7.5 48.5q0 15 3 31zM141 608q-1 0 -8 2t-12 13q-1 2 -5 9.5t-6 12.5q-10 22 -10.5 33.5t-0.5 12.5q0 20 7.5 37.5t22 32t33.5 22.5l84 34l38 -92l-79 -33q-5 -2 -7 -6t-2 -6q0 -4 3 -9q2 -3 6.5 -11.5t8.5 -15.5l106 56l42 -85l-247 -125l-43 89zM173 155q7 -9 18 -9h138
v102q0 12 -8.5 21t-21.5 10h-86q-22 0 -29 -25l-16 -81v-4q0 -8 5 -14z" />
    <glyph glyph-name="uni0625" unicode="&#x625;" horiz-adv-x="236" arabic-form="isolated" 
d="M56 694h124v-694h-124v694zM40 -242q-3 0 -7 1q-8 4 -13 14q-1 1 -5 8.5t-6 12.5q-11 22 -11 44t8 40t22.5 32t33.5 22l84 35l37 -92l-79 -33q-5 -2 -6.5 -6t-1.5 -7q0 -4 2 -9q2 -3 6 -11t9 -15l106 56l42 -85l-246 -126l-43 90z" />
    <glyph glyph-name="uni0626" unicode="&#x626;" horiz-adv-x="750" arabic-form="isolated" 
d="M55 263h124v-211q0 -22 8 -41t22.5 -33t33.5 -22t40 -8h219q31 0 52.5 22t21.5 53v22l-282 67v121q0 41 14 77t38.5 64.5t59 47.5t75.5 24l148 19l21 -137l-170 -21q-29 -4 -47.5 -24.5t-18.5 -48.5v-23l192 -42q42 -10 68 -43t26 -77v-33q0 -44 -16.5 -83t-45.5 -68
t-68 -46t-83 -17h-200q-48 0 -90 18t-73.5 49.5t-50 74t-18.5 90.5v229zM120 492q-5 0 -10 2.5t-10 11.5l-11 22q-10 22 -10.5 33.5t-0.5 12.5q0 20 8 37.5t22.5 32t33.5 22.5l84 34l37 -92l-79 -33q-5 -2 -6.5 -5.5t-1.5 -5.5q0 -4 2 -9q2 -4 6.5 -12t8.5 -15l106 55
l42 -85l-246 -125l-43 89z" />
    <glyph glyph-name="uni0627" unicode="&#x627;" horiz-adv-x="218" arabic-form="isolated" 
d="M52 0v694h124v-694h-124z" />
    <glyph glyph-name="uni0628" unicode="&#x628;" horiz-adv-x="869" arabic-form="isolated" 
d="M176 403v-182q0 -31 22 -53t53 -22h412q17 0 28.5 11.5t11.5 28.5v217h124v-216q0 -39 -14.5 -73t-40 -59.5t-59.5 -40t-73 -14.5h-379q-43 0 -81.5 16.5t-66.5 45t-44.5 67t-16.5 82.5v192h124zM376 -243v125h125v-125h-125z" />
    <glyph glyph-name="uni0629" unicode="&#x629;" horiz-adv-x="508" arabic-form="isolated" 
d="M52 186v30q1 51 25.5 90t55.5 56q5 3 8.5 5t5.5 3q3 1 4 2l-68 46l67 102q63 -42 114 -75q22 -15 43 -29t38.5 -25t29 -18.5t13.5 -9.5q23 -15 38.5 -33t24.5 -37t12.5 -38t3.5 -36v-33q0 -33 -11.5 -67.5t-36 -63.5t-62 -47.5t-89.5 -18.5h-21q-49 0 -85.5 18.5
t-61 47.5t-36.5 64t-12 67zM176 185q0 -7 3.5 -16.5t10.5 -18t17 -14t22 -5.5h4h52q17 0 28 6.5t18 15t9.5 16.5t2.5 12v42q0 9 -4.5 19.5t-17.5 17.5q-5 3 -16.5 10t-23.5 15q-15 9 -31 20l-55 -44q-6 -5 -12.5 -12.5t-6.5 -21.5v-42zM402 731v-125h-125v125h125zM100 606
v125h125v-125h-125z" />
    <glyph glyph-name="uni062A" unicode="&#x62a;" horiz-adv-x="871" arabic-form="isolated" 
d="M176 403v-182q0 -31 21.5 -53t53.5 -22h415q17 0 28.5 11.5t11.5 28.5v217h124v-216q0 -39 -14.5 -73t-40 -59.5t-59.5 -40t-73 -14.5h-380q-44 0 -82.5 16.5t-67 45t-45 67t-16.5 82.5v192h124zM467 528h125v-125h-125v125zM415 528v-125h-125v125h125z" />
    <glyph glyph-name="uni062B" unicode="&#x62b;" horiz-adv-x="871" arabic-form="isolated" 
d="M176 403v-182q0 -31 21.5 -53t53.5 -22h415q17 0 28.5 11.5t11.5 28.5v217h124v-216q0 -39 -14.5 -73t-40 -59.5t-59.5 -40t-73 -14.5h-380q-44 0 -82.5 16.5t-67 45t-45 67t-16.5 82.5v192h124zM414 528v-125h-125v125h125zM377 690h125v-125h-125v125zM591 528v-125
h-125v125h125z" />
    <glyph glyph-name="uni062C" unicode="&#x62c;" horiz-adv-x="704" arabic-form="isolated" 
d="M80 365q9 31 29.5 54t46.5 36.5t45 15.5t27 2q21 0 41 -6l393 -118l-34 -118l-68 20q-11 3 -20 3q-4 0 -12 -1.5t-14 -6.5l-258 -189q-23 -18 -36 -44.5t-13 -55.5q0 -28 10.5 -52.5t29 -42.5t43 -28.5t52.5 -10.5h268v-146h-267q-57 0 -106.5 21.5t-86.5 58t-58.5 85
t-21.5 103.5q0 60 25.5 110t70.5 82q53 38 102.5 74.5t87.5 65.5q16 11 28 19l12 8v0v0l-176 52q-3 0 -5 1q-13 -1 -18 -13l-35 -103l-110 29zM363 45h125v-125h-125v125z" />
    <glyph glyph-name="uni062D" unicode="&#x62d;" horiz-adv-x="704" arabic-form="isolated" 
d="M52 270l28 95q9 31 29.5 54t46.5 36.5t45 15.5t27 2q21 0 41 -6l393 -118l-34 -118l-68 20q-11 3 -20 3q-4 0 -12 -1.5t-14 -6.5l-258 -189q-23 -18 -36 -44.5t-13 -55.5q0 -28 10.5 -52.5t29 -42.5t43 -28.5t52.5 -10.5h268v-146h-267q-57 0 -106.5 21.5t-86.5 58
t-58.5 85t-21.5 103.5q0 60 25.5 110t70.5 82q53 38 102.5 74.5t87.5 65.5q16 11 28 19l12 8v0v0l-176 52q-3 0 -5 1q-13 -1 -18 -13l-35 -103z" />
    <glyph glyph-name="uni062E" unicode="&#x62e;" horiz-adv-x="704" arabic-form="isolated" 
d="M80 365q9 31 29.5 54t46.5 36.5t45 15.5t27 2q21 0 41 -6l393 -118l-34 -118l-68 20q-11 3 -20 3q-4 0 -12 -1.5t-14 -6.5l-258 -189q-23 -18 -36 -44.5t-13 -55.5q0 -28 10.5 -52.5t29 -42.5t43 -28.5t52.5 -10.5h268v-146h-267q-57 0 -106.5 21.5t-86.5 58t-58.5 85
t-21.5 103.5q0 60 25.5 110t70.5 82q53 38 102.5 74.5t87.5 65.5q16 11 28 19l12 8v0v0l-176 52q-3 0 -5 1q-13 -1 -18 -13l-35 -103l-110 29zM138 680h125v-125h-125v125z" />
    <glyph glyph-name="uni062F" unicode="&#x62f;" horiz-adv-x="571" arabic-form="isolated" 
d="M157 279v-113q0 -9 6 -14.5t14 -5.5h166q17 0 30.5 7.5t20.5 20t7.5 20.5t0.5 9q0 15 -9 29l-127 226l105 68l135 -239q24 -42 24 -88q0 -4 -1.5 -31.5t-24.5 -70t-65 -70t-96 -27.5h-150q-29 0 -55 11t-45 30.5t-30 45t-11 54.5v138h105z" />
    <glyph glyph-name="uni0630" unicode="&#x630;" horiz-adv-x="571" arabic-form="isolated" 
d="M157 279v-113q0 -9 6 -14.5t14 -5.5h166q17 0 30.5 7.5t20.5 20t7.5 20.5t0.5 9q0 15 -9 29l-127 226l105 68l135 -239q24 -42 24 -88q0 -4 -1.5 -31.5t-24.5 -70t-65 -70t-96 -27.5h-150q-29 0 -55 11t-45 30.5t-30 45t-11 54.5v138h105zM212 607v125h125v-125h-125z
" />
    <glyph glyph-name="uni0631" unicode="&#x631;" horiz-adv-x="366" arabic-form="isolated" 
d="M112 -93q35 12 57 42t22 68v356h124v-343q0 -41 -12.5 -78.5t-35 -69t-54 -55t-69.5 -36.5l-146 -50l-38 117z" />
    <glyph glyph-name="uni0632" unicode="&#x632;" horiz-adv-x="366" arabic-form="isolated" 
d="M-40 -142l152 49q35 12 57 42t22 68v356h124v-343q0 -41 -12.5 -78.5t-35 -69t-54 -55t-69.5 -36.5l-146 -50zM187 581h125v-125h-125v125z" />
    <glyph glyph-name="uni0633" unicode="&#x633;" horiz-adv-x="1198" arabic-form="isolated" 
d="M52 57v301h124v-283q0 -21 8 -40t22 -33.5t33 -22.5t40 -8h182q35 0 58.5 24.5t23.5 59.5v319h124v-191q1 -16 12.5 -26.5t27.5 -10.5h31q17 0 30 10.5t16 27.5l38 188l124 -22l-32 -158q-1 -4 -1 -7q0 -14 10.5 -26.5t28.5 -12.5h80v258h124v-272q0 -27 -10.5 -51
t-28.5 -42t-42.5 -28.5t-51.5 -10.5h-66q-31 0 -61 12.5t-52 43.5q-24 -31 -51.5 -43.5t-61.5 -12.5q-20 0 -36.5 6t-28.5 21v-21q0 -35 -15.5 -67.5t-43.5 -58t-65.5 -40.5t-81.5 -15h-176q-48 0 -90 18.5t-73.5 50t-50 73.5t-18.5 90z" />
    <glyph glyph-name="uni0634" unicode="&#x634;" horiz-adv-x="1198" arabic-form="isolated" 
d="M52 57v302h124v-284q0 -21 8 -40t22 -33.5t33 -22.5t40 -8h182q35 0 59 24.5t24 59.5v321h123v-193q1 -16 12.5 -26.5t27.5 -10.5h31q17 0 30 10.5t16 27.5l38 189l124 -22l-32 -159q-1 -4 -1 -9q0 -12 10.5 -24.5t28.5 -12.5h80v259h124v-273q0 -27 -10.5 -51t-28.5 -42
t-42.5 -28.5t-51.5 -10.5h-66q-31 0 -61 12.5t-52 43.5q-24 -31 -51.5 -43.5t-61.5 -12.5q-20 0 -36.5 6t-28.5 21v-21q0 -35 -15.5 -67.5t-43.5 -58t-65.5 -40.5t-81.5 -15h-176q-48 0 -90 18.5t-73.5 50t-50 73.5t-18.5 90zM756 742h125v-125h-125v125zM847 580h125v-123
h-125v123zM670 580h125v-123h-125v123z" />
    <glyph glyph-name="uni0635" unicode="&#x635;" horiz-adv-x="1252" arabic-form="isolated" 
d="M176 359v-283q0 -21 8 -40t22 -33.5t33 -22.5t40 -8h183q34 0 58 24.5t24 59.5v318h124v-123q0 -13 2 -21t4 -13q2 -6 5 -8l126 135q33 35 77.5 55t93.5 20h62q36 0 67.5 -13.5t55 -37t37 -54.5t13.5 -67v-57q0 -39 -15 -74t-41 -60.5t-60.5 -40.5t-73.5 -15h-213
q-17 0 -37 1.5t-39.5 6t-36.5 12t-28 18.5v-28q0 -39 -17 -73t-45.5 -58.5t-66 -38.5t-78.5 -14h-175q-48 0 -90.5 18.5t-74 50t-50 73.5t-18.5 90v301h124zM1045 146q17 0 29.5 13t12.5 30v48q0 17 -12 29t-29 12h-95q-23 0 -43.5 -9.5t-36.5 -26.5l-91 -96h265z" />
    <glyph glyph-name="uni0636" unicode="&#x636;" horiz-adv-x="1252" arabic-form="isolated" 
d="M52 58v301h124v-283q0 -21 8 -40t22 -33.5t33 -22.5t40 -8h183q34 0 58 24.5t24 59.5v318h124v-123q0 -13 2 -21t4 -13q2 -6 5 -8l126 135q33 35 77.5 55t93.5 20h62q36 0 67.5 -13.5t55 -37t37 -54.5t13.5 -67v-57q0 -39 -15 -74t-41 -60.5t-60.5 -40.5t-73.5 -15h-213
q-17 0 -37 1.5t-39.5 6t-36.5 12t-28 18.5v-28q0 -39 -17 -73t-45.5 -58.5t-66 -38.5t-78.5 -14h-175q-48 0 -90.5 18.5t-74 50t-50 73.5t-18.5 90zM1045 146q17 0 29.5 13t12.5 30v48q0 17 -12 29t-29 12h-95q-23 0 -43.5 -9.5t-36.5 -26.5l-91 -96h265zM1019 628v-125
h-125v125h125z" />
    <glyph glyph-name="uni0637" unicode="&#x637;" horiz-adv-x="739" arabic-form="isolated" 
d="M108 146l103 111v437h123v-260q0 -22 -7 -41t-8 -21q3 0 5 2q62 45 139 45h62q36 0 67.5 -13.5t54.5 -36.5t36.5 -54.5t13.5 -67.5v-57q0 -39 -15 -74t-40.5 -60.5t-60.5 -40.5t-74 -15h-455v146h56zM530 146q18 0 30.5 12.5t12.5 29.5v49q0 17 -12 29t-29 12h-90
q-49 0 -81 -35l-88 -97h257z" />
    <glyph glyph-name="uni0638" unicode="&#x638;" horiz-adv-x="747" arabic-form="isolated" 
d="M116 146l103 111v437h123v-260q0 -22 -7 -41t-8 -21q3 0 5 2q62 45 139 45h62q36 0 67.5 -13.5t54.5 -36.5t36.5 -54.5t13.5 -67.5v-57q0 -39 -15 -74t-40.5 -60.5t-60.5 -40.5t-74 -15h-455v146h56zM538 146q18 0 30.5 12.5t12.5 29.5v49q0 17 -12 29t-29 12h-90
q-49 0 -81 -35l-88 -97h257zM415 626h125v-125h-125v125z" />
    <glyph glyph-name="uni0639" unicode="&#x639;" horiz-adv-x="573" arabic-form="isolated" 
d="M58 -97q5 23 17 48t32.5 50.5t50.5 47.5q-8 4 -14 14t-8 21l-31 149q-4 17 -4 33q0 20 8 47t31 53t56 42t71 16h178v-141h-183q-16 0 -25 -11t-9 -22q0 -4 1 -9l31 -147q12 4 34 11t48.5 15.5t53.5 17.5q46 14 99 31l37 -112l-267 -84q-13 -4 -26 -11.5t-24 -19.5
t-18 -28.5t-7 -38.5q0 -28 10.5 -53t29 -43.5t43 -29t52.5 -10.5h165v-146h-164q-58 0 -108 22t-86.5 59.5t-57.5 87t-21 104.5q0 15 5 37z" />
    <glyph glyph-name="uni063A" unicode="&#x63a;" horiz-adv-x="573" arabic-form="isolated" 
d="M60 -97q5 23 17 48t32.5 50.5t50.5 47.5q-8 4 -14 14t-8 21l-31 149q-4 17 -4 33q0 20 8 47t31 53t56 42t71 16h178v-141h-183q-16 0 -25 -11t-9 -22q0 -4 1 -9l31 -147q12 4 34 11t48.5 15.5t53.5 17.5q46 14 99 31l37 -112l-267 -84q-13 -4 -26 -11.5t-24 -19.5
t-18 -28.5t-7 -38.5q0 -28 10.5 -53t29 -43.5t43 -29t52.5 -10.5h165v-146h-164q-58 0 -108 22t-86.5 59.5t-57.5 87t-21 104.5q0 15 5 37zM234 671h125v-125h-125v125z" />
    <glyph glyph-name="uni0641" unicode="&#x641;" horiz-adv-x="872" arabic-form="isolated" 
d="M52 402h124v-181q0 -32 23 -53.5t54 -21.5h414q17 0 28 10.5t11 27.5v28q-32 -13 -67 -13h-45q-40 0 -73 16t-55.5 43t-30 55t-7.5 50q0 15 3 32l15 80q6 29 20.5 53.5t36 42t48.5 27.5t56 10h53q35 0 66 -13.5t54 -36.5t36.5 -53.5t13.5 -65.5v-253q0 -38 -14.5 -72
t-40 -59.5t-59.5 -40t-73 -14.5h-380q-43 0 -81 16.5t-67 45t-46 67t-17 81.5v192zM556 348q7 -9 18 -9h132v101v2q0 11 -8.5 18.5t-20.5 8.5h-83q-11 0 -20 -7t-11 -19l-13 -75v-4q0 -9 6 -16zM695 816v-125h-125v125h125z" />
    <glyph glyph-name="uni0642" unicode="&#x642;" horiz-adv-x="711" arabic-form="isolated" 
d="M52 7v272h124v-254q0 -22 8 -41t22 -33t33 -22t40 -8h181q35 0 60 20.5t25 50.5v19q-10 -3 -27.5 -7t-37.5 -4h-48q-40 0 -73.5 16.5t-56.5 44.5t-30.5 56.5t-7.5 49.5q0 16 3 33l16 80q6 29 20.5 53t36 41.5t48 27.5t56.5 10h55q35 0 66 -13t53.5 -36t35.5 -54t13 -66
v-259q0 -43 -16 -81t-44.5 -66.5t-66 -45t-81.5 -16.5h-175q-48 0 -90 18t-73.5 49.5t-50 74t-18.5 90.5zM394 155q7 -9 19 -9h132v95q0 12 -9.5 20.5t-20.5 8.5h-82q-25 0 -30 -26l-14 -69v-5q0 -8 5 -15zM498 494v125h126v-125h-126zM321 494v125h125v-125h-125z" />
    <glyph glyph-name="uni0643" unicode="&#x643;" horiz-adv-x="871" arabic-form="isolated" 
d="M52 403h124v-181q0 -32 21.5 -53.5t53.5 -21.5h415q17 0 28.5 11.5t11.5 28.5v545h124v-545q0 -39 -14.5 -73t-40 -59.5t-59.5 -40t-73 -14.5h-380q-43 0 -81.5 16.5t-67.5 45.5t-45.5 67.5t-16.5 81.5v192zM344 445q-1 0 -8 1.5t-12 13.5q-1 2 -5 9t-7 12
q-10 23 -10.5 34t-0.5 12q0 20 8 38t22.5 32.5t33.5 22.5l84 34l38 -92l-79 -32q-5 -2 -7 -6t-2 -7q0 -4 3 -9q2 -3 6.5 -11.5t7.5 -15.5l106 56l43 -85l-247 -126l-43 90z" />
    <glyph glyph-name="uni0644" unicode="&#x644;" horiz-adv-x="713" arabic-form="isolated" 
d="M176 329v-255q0 -21 8 -40t22.5 -33t33 -22t39.5 -8h182q35 0 59 24t24 59v640h124v-661q0 -43 -16.5 -81t-44.5 -66t-66 -44.5t-82 -16.5h-175q-48 0 -90 18t-73.5 49.5t-50 74t-18.5 90.5v272h124z" />
    <glyph glyph-name="uni0645" unicode="&#x645;" horiz-adv-x="700" arabic-form="isolated" 
d="M56 -252v484q0 39 14.5 73t40 59.5t59.5 40t73 14.5h242q36 0 67.5 -13.5t55 -37t37 -54.5t13.5 -67v-115q0 -27 -10.5 -51t-29 -42t-42.5 -28.5t-51 -10.5h-113q-39 0 -71.5 16.5t-54.5 43.5t-30 55t-8 50q0 15 3 31l15 82h-47q-16 0 -28 -11t-12 -28v-491h-123z
M378 154q7 -9 18 -9h138v103v2q0 11 -9 19.5t-21 8.5h-110l-21 -105v-5q0 -8 5 -14z" />
    <glyph glyph-name="uni0646" unicode="&#x646;" horiz-adv-x="713" arabic-form="isolated" 
d="M52 358h124v-284q0 -22 8 -40.5t22 -32.5t33 -22t40 -8h181q18 0 33 6.5t26.5 18t18 26.5t6.5 32v320h124v-341q0 -43 -16.5 -81t-45 -66t-66.5 -44.5t-81 -16.5h-175q-48 0 -90 18t-73.5 49.5t-50 74t-18.5 90.5v301zM297 499h125v-125h-125v125z" />
    <glyph glyph-name="uni0647" unicode="&#x647;" horiz-adv-x="508" arabic-form="isolated" 
d="M52 186v30q1 51 25.5 90t55.5 56q5 3 8.5 5t5.5 3q3 1 4 2l-68 45l67 103l11 -6q10 -7 26.5 -18t38 -25t43.5 -29q53 -35 119 -79q23 -15 38.5 -33t24.5 -37t12.5 -38t3.5 -36v-33q0 -33 -11.5 -67.5t-36 -63.5t-62 -47.5t-89.5 -18.5h-21q-49 0 -85.5 18.5t-61 47.5
t-36.5 64t-12 67zM176 227v-42q0 -7 3.5 -16.5t10.5 -18.5t18 -14.5t25 -5.5h52q17 0 28.5 6.5t18 15t9 17t2.5 12.5v42q0 8 -4.5 18.5t-16.5 18.5q-5 3 -17 10t-24 15q-15 9 -31 19l-55 -44q-6 -5 -12.5 -12t-6.5 -21z" />
    <glyph glyph-name="uni0648" unicode="&#x648;" horiz-adv-x="505" arabic-form="isolated" 
d="M47 195l17 92q5 29 20 53t36.5 42t48.5 28t56 10h56q36 0 67 -13.5t54.5 -37t37 -55t13.5 -67.5v-218q0 -41 -12 -78.5t-34.5 -69t-54 -55.5t-70.5 -37l-146 -50l-37 117l148 50q35 12 58 38.5t23 64.5v5q-12 -7 -30 -10.5t-35 -3.5h-55q-39 0 -71.5 16.5t-55 44t-30 55
t-7.5 48.5q0 15 3 31zM173 155q7 -9 18 -9h138v102q0 12 -8.5 21t-21.5 10h-86q-22 0 -29 -25l-16 -81v-4q0 -8 5 -14z" />
    <glyph glyph-name="uni0649" unicode="&#x649;" horiz-adv-x="746" arabic-form="isolated" 
d="M52 34v229h124v-211q0 -22 8 -41t22.5 -33t33.5 -22t40 -8h219q31 0 52.5 22t21.5 53v22l-282 67v121q0 41 14 77t38.5 64.5t59 47.5t75.5 24l148 19l21 -137l-170 -21q-29 -4 -47.5 -24.5t-18.5 -48.5v-23l192 -42q42 -10 68 -43t26 -77v-33q0 -44 -16.5 -83t-45.5 -68
t-68 -46t-83 -17h-200q-48 0 -90 18t-73.5 49.5t-50 74t-18.5 90.5z" />
    <glyph glyph-name="uni064A" unicode="&#x64a;" horiz-adv-x="746" arabic-form="isolated" 
d="M52 34v229h124v-211q0 -22 8 -41t22.5 -33t33.5 -22t40 -8h219q31 0 52.5 22t21.5 53v22l-282 67v121q0 41 14 77t38.5 64.5t59 47.5t75.5 24l148 19l21 -137l-170 -21q-29 -4 -47.5 -24.5t-18.5 -48.5v-23l192 -42q42 -10 68 -43t26 -77v-33q0 -44 -16.5 -83t-45.5 -68
t-68 -46t-83 -17h-200q-48 0 -90 18t-73.5 49.5t-50 74t-18.5 90.5zM526 -300v-125h-125v125h125zM349 -300v-125h-123v125h123z" />
    <glyph glyph-name="uni064B" unicode="&#xfe70;" arabic-form="isolated" 
d="M-165 700l-15 86l341 74l20 -86zM-165 833l-15 86l341 73l20 -85z" />
    <glyph glyph-name="uni064C" unicode="&#xfe72;" arabic-form="isolated" 
d="M-190 784l34 7l-21 84l87 20l20 -83l33 6q-3 12 -4.5 18.5t-2.5 11.5t-2 11.5t-2 17.5q0 5 -1 9q1 14 6 28t16.5 26.5t27 20.5t30.5 11l52 9q6 1 12 1q12 0 26.5 -5t28 -16.5t23.5 -27.5t13 -33l5 -30q0 -5 1 -10q-1 -14 -6 -30t-16.5 -30t-28 -24t-34.5 -15l-12 -2
l-32.5 -7.5t-45 -10t-51.5 -11.5q-62 -13 -140 -30zM45 871l10 -35l40 9q13 2 13 10q0 2 -1 4q0 3 -3 12q-1 5 -3 11q-3 10 -11 10q-2 0 -4 -1l-30 -7q-11 -2 -11 -10v-3z" />
    <glyph glyph-name="uni064D" unicode="&#xfe74;" arabic-form="isolated" 
d="M-166 -157l-14 83l341 74l19 -83zM-166 -290l-14 84l341 73l19 -83z" />
    <glyph glyph-name="uni064E" unicode="&#xfe76;" arabic-form="isolated" 
d="M-166 702l-15 86l341 74l20 -86z" />
    <glyph glyph-name="uni064F" unicode="&#xfe78;" arabic-form="isolated" 
d="M-168 785l110 24q-3 11 -4.5 17.5t-2.5 11.5t-2.5 11.5t-2.5 17.5v9q0 14 5.5 28t17 27t27 21t30.5 10l52 9q6 1 12 1q12 0 26.5 -5t28 -16.5t23 -27.5t12.5 -33l5 -30q2 -8 2 -16q0 -11 -5 -25.5t-17 -28.5t-29 -24t-36 -14l-10 -2q-11 -2 -28 -6t-38.5 -8.5t-43.5 -9.5
q-53 -12 -119 -26zM23 861l11 -35l40 10q13 2 13 10q0 2 -1 4q0 1 -1 4.5t-2 8.5q-2 5 -4 12q-4 8 -11 8q-2 0 -4 -1l-31 -8q-10 -2 -10 -10v-3z" />
    <glyph glyph-name="uni0650" unicode="&#xfe7a;" arabic-form="isolated" 
d="M-164 -177l-18 104l341 73l23 -104z" />
    <glyph glyph-name="uni0651" unicode="&#xfe7c;" arabic-form="isolated" 
d="M-181 811v97h88v-98q2 -10 13 -12h19q13 0 15 13l19 93l83 -16l-16 -78v-3q0 -5 3.5 -6.5t7.5 -2.5h41v113h88v-129q0 -16 -6.5 -31t-18 -26t-26 -18t-31.5 -7h-38q-14 0 -29.5 6t-29.5 23q-14 -17 -35 -23t-38 -6q-23 0 -43 9t-34.5 24t-23 35t-8.5 43z" />
    <glyph glyph-name="uni0652" unicode="&#xfe7e;" arabic-form="isolated" 
d="M-113 820q0 47 30.5 77.5t77.5 30.5h10q23 0 42.5 -8.5t34 -23.5t23 -34.5t8.5 -41.5v-11q0 -22 -8.5 -42t-23 -35t-34 -23.5t-42.5 -8.5h-10q-23 0 -42.5 9.5t-34 24.5t-23 34.5t-8.5 40.5v11zM-33 822v-13q0 -6 4.5 -10.5t11.5 -4.5h36q5 0 10 3.5t5 11.5v13
q0 8 -5 11.5t-10 3.5h-36q-7 0 -11.5 -4.5t-4.5 -10.5z" />
    <glyph glyph-name="uni0671" unicode="&#x671;" horiz-adv-x="364" arabic-form="isolated" 
d="M10 757q5 1 9.5 5.5t4.5 9.5v67h79v-24q0 -6 1 -11t2 -8q1 -4 3 -7l66 68q20 22 46.5 32.5t54.5 10.5h24q22 0 41 -8t33 -22.5t22 -33.5t8 -40v-28q0 -20 -9 -39t-23 -33.5t-32.5 -23.5t-38.5 -9h-148q-24 0 -46 6.5t-36 20.5q-14 -14 -31 -20.5t-35 -6.5h-45v94h50z
M114 616h124v-616h-124v616zM314 758q9 0 9 9v26q0 11 -12 11h-56q-10 0 -21 -4.5t-20 -13.5l-29 -28h129z" />
    <glyph glyph-name="uni067E" unicode="&#x67e;" horiz-adv-x="871" arabic-form="isolated" 
d="M176 403v-182q0 -31 21.5 -53t53.5 -22h415q17 0 28.5 11.5t11.5 28.5v217h124v-216q0 -39 -14.5 -73t-40 -59.5t-59.5 -40t-73 -14.5h-380q-44 0 -82.5 16.5t-67 45t-45 67t-16.5 82.5v192h124zM286 -245v125h125v-125h-125zM372 -407v125h125v-125h-125zM588 -120v-125
h-125v125h125z" />
    <glyph glyph-name="uni0686" unicode="&#x686;" horiz-adv-x="704" arabic-form="isolated" 
d="M52 270l28 95q9 31 29.5 54t46.5 36.5t45 15.5t27 2q21 0 41 -6l393 -118l-34 -118l-68 20q-11 3 -20 3q-4 0 -12 -1.5t-14 -6.5l-258 -189q-23 -18 -36 -44.5t-13 -55.5q0 -28 10.5 -52.5t29 -42.5t43 -28.5t52.5 -10.5h268v-146h-267q-57 0 -106.5 21.5t-86.5 58
t-58.5 85t-21.5 103.5q0 60 25.5 110t70.5 82q53 38 102.5 74.5t87.5 65.5q16 11 28 19l12 8v0v0l-176 52q-3 0 -5 1q-13 -1 -18 -13l-35 -103zM454 82v-101h-101v101h101zM525 -46v-101h-101v101h101zM593 82v-101h-101v101h101z" />
    <glyph glyph-name="uni0698" unicode="&#x698;" horiz-adv-x="414" arabic-form="isolated" 
d="M-40 -142l152 49q35 12 57 42t22 68v356h124v-343q0 -41 -12.5 -78.5t-35 -69t-54 -55t-69.5 -36.5l-146 -50zM96 579h125v-125h-125v125zM308 741v-125h-125v125h125zM398 579v-125h-125v125h125z" />
    <glyph glyph-name="uni06A9" unicode="&#x6a9;" horiz-adv-x="905" arabic-form="isolated" 
d="M176 360v-138q0 -32 22.5 -54t53.5 -22h382q26 0 44.5 13.5t28 32.5t9.5 40q0 1 -0.5 13t-13.5 30l-175 235v84l350 176l55 -108l-275 -138l145 -178q28 -34 36.5 -66.5t8.5 -58.5q0 -13 -3.5 -38.5t-22.5 -61t-48.5 -62.5t-68 -43t-82.5 -16h-360q-43 0 -81 16.5
t-66.5 45t-45.5 67t-17 81.5v150h124z" />
    <glyph glyph-name="uni06AF" unicode="&#x6af;" horiz-adv-x="905" arabic-form="isolated" 
d="M176 360v-138q0 -32 22.5 -54t53.5 -22h382q26 0 44.5 13.5t28 32.5t9.5 40q0 1 -0.5 13t-13.5 30l-175 235v84l350 176l55 -108l-275 -138l145 -178q28 -34 36.5 -66.5t8.5 -58.5q0 -13 -3.5 -38.5t-22.5 -61t-48.5 -62.5t-68 -43t-82.5 -16h-360q-43 0 -81 16.5
t-66.5 45t-45.5 67t-17 81.5v150h124zM803 898l38 -86l-328 -167l-38 86z" />
    <glyph glyph-name="uni06C0" unicode="&#x6c0;" horiz-adv-x="508" arabic-form="isolated" 
d="M52 186v30q1 51 25.5 90t55.5 56q5 3 8.5 5t5.5 3q3 1 4 2l-68 46l67 102q63 -42 114 -75q22 -15 43 -29t38.5 -25t29 -18.5t13.5 -9.5q23 -15 38.5 -33t24.5 -37t12.5 -38t3.5 -36v-33q0 -33 -11.5 -67.5t-36 -63.5t-62 -47.5t-89.5 -18.5h-21q-49 0 -85.5 18.5
t-61 47.5t-36.5 64t-12 67zM190 718q-1 0 -8 2t-13 13q-1 2 -4.5 9.5t-6.5 12.5q-10 22 -10 43.5t7.5 39.5t22 32.5t33.5 22.5l84 34l37 -92l-78 -33q-5 -2 -7 -6t-2 -7t2 -8q2 -3 6.5 -11.5t8.5 -14.5l106 55l43 -85l-247 -125l-43 89zM176 227v-42q0 -7 3.5 -16.5
t10.5 -18t17 -14t22 -5.5h4h52q17 0 28 6.5t18 15t9.5 16.5t2.5 12v42q0 9 -4.5 19.5t-17.5 17.5q-5 3 -16.5 10t-23.5 15q-15 9 -31 20l-55 -44q-6 -5 -12.5 -12.5t-6.5 -21.5z" />
    <glyph glyph-name="uni06CC" unicode="&#x6cc;" horiz-adv-x="746" arabic-form="isolated" 
d="M52 34v229h124v-211q0 -22 8 -41t22.5 -33t33.5 -22t40 -8h219q31 0 52.5 22t21.5 53v22l-282 67v121q0 41 14 77t38.5 64.5t59 47.5t75.5 24l148 19l21 -137l-170 -21q-29 -4 -47.5 -24.5t-18.5 -48.5v-23l192 -42q42 -10 68 -43t26 -77v-33q0 -44 -16.5 -83t-45.5 -68
t-68 -46t-83 -17h-200q-48 0 -90 18t-73.5 49.5t-50 74t-18.5 90.5z" />
    <glyph glyph-name="uniFB51" unicode="&#x671;" horiz-adv-x="332" arabic-form="final" 
d="M108 183v433h124v-430q0 -17 11.5 -28.5t28.5 -11.5h60q5 0 9.5 -4.5t4.5 -10.5v-117q0 -5 -4.5 -9.5t-9.5 -4.5h-40q-38 0 -71.5 14.5t-58.5 39t-39.5 58t-14.5 71.5zM10 757q5 1 9.5 5.5t4.5 9.5v67h79v-24q0 -6 1 -11t2 -8q1 -4 3 -7l66 68q20 22 46.5 32.5t54.5 10.5
h24q22 0 41 -8t33 -22.5t22 -33.5t8 -40v-28q0 -20 -9 -39t-23 -33.5t-32.5 -23.5t-38.5 -9h-148q-24 0 -46 6.5t-36 20.5q-14 -14 -31 -20.5t-35 -6.5h-45v94h50zM314 758q9 0 9 9v26q0 11 -12 11h-56q-10 0 -21 -4.5t-20 -13.5l-29 -28h129z" />
    <glyph glyph-name="uniFB57" unicode="&#x67e;" horiz-adv-x="898" arabic-form="final" 
d="M176 403v-183q0 -31 21.5 -52.5t53.5 -21.5h414q17 0 28.5 11.5t11.5 27.5v189h124v-187q0 -17 11.5 -29t28.5 -12h30q5 0 9.5 -4.5t4.5 -9.5v-118q0 -5 -4.5 -9.5t-9.5 -4.5h-9q-74 0 -122 56q-26 -29 -57.5 -42.5t-67.5 -13.5h-380q-44 0 -82.5 16.5t-67 45.5t-45 67.5
t-16.5 81.5v192h124zM286 -245v125h125v-125h-125zM497 -282v-125h-125v125h125zM463 -120h125v-125h-125v125z" />
    <glyph glyph-name="uniFB58" unicode="&#x67e;" horiz-adv-x="471" arabic-form="initial" 
d="M-14 130q0 6 4 11t10 5h262q17 0 28.5 11.5t11.5 28.5v216h124v-215q0 -39 -14.5 -73t-40 -59.5t-59.5 -40t-73 -14.5h-239q-6 0 -10 4.5t-4 9.5v116zM32 -120h125v-125h-125v125zM118 -282h125v-125h-125v125zM334 -120v-125h-125v125h125z" />
    <glyph glyph-name="uniFB59" unicode="&#x67e;" horiz-adv-x="386" arabic-form="medial" 
d="M-14 131q0 6 4 10.5t10 4.5h94q17 0 30 10.5t16 27.5l38 188l122 -22l-31 -157q-2 -6 -2 -12q0 -12 10 -23.5t29 -11.5h80q6 0 10 -4.5t4 -10.5v-117q0 -5 -4 -9.5t-10 -4.5h-81q-32 0 -62 15t-45 41q-19 -26 -51.5 -41t-65.5 -15h-81q-6 0 -10 4.5t-4 9.5v117zM46 -245
v125h125v-125h-125zM133 -282h125v-125h-125v125zM348 -120v-125h-125v125h125z" />
    <glyph glyph-name="uniFB7B" unicode="&#x686;" horiz-adv-x="703" arabic-form="final" 
d="M52 269l27 95q9 32 29.5 55t46.5 36.5t45 15.5t26 2q22 0 42 -6l394 -118l-34 -116l-69 18q-10 2 -18 2q-3 0 -8.5 -0.5t-10.5 -1.5v-65q0 -17 12 -28.5t29 -11.5h140q6 0 9.5 -4.5t4.5 -9.5v-118q0 -5 -4 -9.5t-10 -4.5h-113q-37 0 -68 13.5t-53 36.5t-34.5 53t-14.5 64
v8l-164 -119q-24 -17 -36.5 -43.5t-12.5 -55.5q0 -28 10.5 -52.5t29 -43t43 -29t52.5 -10.5h267v-146h-266q-57 0 -107 21.5t-87 58t-58.5 85t-21.5 103.5q0 60 25.5 110t70.5 82q28 20 52 37.5t47 34.5t45.5 33.5t46.5 34.5q11 8 24.5 17t15.5 10l-177 52q-3 1 -6 1
q-4 0 -9 -2.5t-7 -10.5l-36 -103zM269 27h77v-77h-77v77zM323 -147v77h77v-77h-77zM452 27v-77h-77v77h77z" />
    <glyph glyph-name="uniFB7C" unicode="&#x686;" horiz-adv-x="684" arabic-form="initial" 
d="M-10 141q4 5 9 5h189q42 0 81.5 13t66.5 44l48 55q2 3 4 5l7 7l-202 61q-3 1 -6 1q-4 0 -9 -3t-8 -10l-37 -104l-107 29l28 95q9 33 29.5 56.5t47 36.5t45 14.5t24.5 1.5q22 0 43 -6l400 -120l-35 -115l-54 16q-13 3 -22 3q-8 0 -17 -3t-23 -17l-110 -120
q-43 -46 -102.5 -66t-122.5 -20h-157q-14 0 -14 14v116q0 6 4 11zM187 -245v125h125v-125h-125zM273 -407v125h125v-125h-125zM364 -120h125v-125h-125v125z" />
    <glyph glyph-name="uniFB7D" unicode="&#x686;" horiz-adv-x="685" arabic-form="medial" 
d="M-14 14v117q0 5 4.5 10t9.5 5h189q41 0 80.5 13t66.5 43l48 56q2 3 4 5l4 4q2 1 3 3l-202 60q-4 1 -7 1q-11 0 -15 -12l-38 -104l-108 29l28 95q9 33 30 56.5t47.5 36.5t44.5 14.5t25 1.5q21 0 42 -6l401 -120l-35 -115l-58 17q-12 3 -21 3q-4 0 -10.5 -1t-14.5 -6v-34
q0 -17 11.5 -28.5t28.5 -11.5h141q14 0 14 -14v-118q0 -14 -14 -14h-109q-60 0 -102 33t-62 86l-30 -33q-44 -45 -103 -65.5t-122 -20.5h-157q-14 0 -14 14zM175 -245v125h125v-125h-125zM261 -407v125h125v-125h-125zM352 -245v125h125v-125h-125z" />
    <glyph glyph-name="uniFB8B" unicode="&#x698;" horiz-adv-x="453" arabic-form="final" 
d="M-41 -141l152 49q36 11 57.5 42t21.5 69v355h124v-194q0 -15 12 -24.5t27 -9.5h100q14 0 14 -14v-118q0 -14 -14 -14h-80q-15 0 -32 6.5t-28 20.5v-17q0 -39 -13 -73t-35.5 -62t-53.5 -49.5t-68 -33.5l-146 -49zM97 454v125h125v-125h-125zM184 616v125h125v-125h-125z
M399 579v-125h-125v125h125z" />
    <glyph glyph-name="uniFB8F" unicode="&#x6a9;" horiz-adv-x="1008" arabic-form="final" 
d="M176 360v-138q0 -32 22.5 -54t53.5 -22h382q26 0 44.5 13.5t28 32t9.5 38.5q0 2 -0.5 14.5t-14.5 30.5l-174 235v84l350 176l55 -108l-275 -138l269 -344q12 -15 31 -24.5t40 -9.5h11q14 0 14 -14v-118q0 -6 -4.5 -10t-9.5 -4h-5q-40 0 -76 17t-59 48l-44 60
q-14 -25 -34 -48t-45.5 -40t-56.5 -27t-67 -10h-359q-42 0 -80.5 16.5t-67 45t-45.5 67t-17 81.5v150h124z" />
    <glyph glyph-name="uniFB90" unicode="&#x6a9;" horiz-adv-x="411" arabic-form="initial" 
d="M-14 132q0 5 4 9.5t9 4.5h140q26 0 45.5 14t29 33t9.5 40q0 1 -0.5 12.5t-14.5 29.5l-174 235v85l349 175l55 -108l-276 -138l147 -178q41 -51 42 -83t1 -36q0 -56 -26.5 -106.5t-78.5 -85.5t-119 -35h-128q-6 0 -10 4.5t-4 10.5v117z" />
    <glyph glyph-name="uniFB91" unicode="&#x6a9;" horiz-adv-x="515" arabic-form="medial" 
d="M-14 132q0 5 4.5 9.5t9.5 4.5h139q26 0 45 13.5t29 32.5t10 40q0 1 -0.5 13t-14.5 30l-174 235v85l349 175l55 -108l-276 -138l270 -344q12 -16 31.5 -25t39.5 -9h12q5 0 9.5 -4t4.5 -10v-117q0 -5 -4.5 -10t-10.5 -5h-5q-40 0 -76 17.5t-59 48.5l-43 59
q-14 -25 -34.5 -47.5t-46 -39.5t-56.5 -27.5t-66 -10.5h-128q-6 0 -10 4.5t-4 10.5v117z" />
    <glyph glyph-name="uniFB93" unicode="&#x6af;" horiz-adv-x="1008" arabic-form="final" 
d="M176 360v-138q0 -32 22.5 -54t53.5 -22h382q26 0 44.5 13.5t28 32t9.5 38.5q0 2 -0.5 14.5t-14.5 30.5l-174 235v84l350 176l55 -108l-275 -138l269 -344q12 -15 31 -24.5t40 -9.5h11q14 0 14 -14v-118q0 -6 -4.5 -10t-9.5 -4h-5q-40 0 -76 17t-59 48l-44 60
q-14 -25 -34 -48t-45.5 -40t-56.5 -27t-67 -10h-359q-42 0 -80.5 16.5t-67 45t-45.5 67t-17 81.5v150h124zM803 898l38 -86l-328 -167l-38 86z" />
    <glyph glyph-name="uniFB94" unicode="&#x6af;" horiz-adv-x="439" arabic-form="initial" 
d="M-14 132q0 5 4.5 9.5t9.5 4.5h167q26 0 45 13.5t28.5 32t9.5 38.5q0 2 -0.5 14.5t-13.5 30.5l-174 235v85l349 175l55 -108l-276 -138l147 -178q28 -33 36 -65.5t8 -57.5q0 -13 -3.5 -39t-22.5 -61.5t-48.5 -62.5t-68 -43.5t-82.5 -16.5h-156q-5 0 -9.5 4.5t-4.5 10.5
v117zM22 732l328 166l38 -85l-327 -167z" />
    <glyph glyph-name="uniFB95" unicode="&#x6af;" horiz-adv-x="543" arabic-form="medial" 
d="M-14 132q0 5 4 9.5t10 4.5h168q26 0 45 13.5t28.5 32.5t9.5 41q0 1 -0.5 13t-14.5 30l-174 235v84l349 176l55 -108l-275 -138l269 -344q13 -16 32 -25.5t39 -9.5h12q5 0 9.5 -4t4.5 -10v-118q0 -5 -4 -9.5t-10 -4.5h-5q-40 0 -76 18t-59 49l-44 59q-14 -25 -34.5 -47.5
t-46 -40t-56.5 -28t-66 -10.5h-156q-6 0 -10 4.5t-4 10.5v117zM20 733l329 166l37 -85l-327 -168z" />
    <glyph glyph-name="uniFBA5" unicode="&#x6c0;" horiz-adv-x="525" arabic-form="final" 
d="M52 211v64q0 31 10.5 60t29 53.5t44.5 42.5t57 25l128 30v73h124v-367q0 -18 15 -32t35 -14h30q14 0 14 -14v-118q0 -6 -4.5 -10t-9.5 -4h-30q-52 0 -88.5 25.5t-60.5 67.5q-13 -9 -33.5 -13.5t-37.5 -4.5h-86q-27 0 -52 11t-44 29.5t-30 43.5t-11 52zM189 707q-1 0 -8 2
t-12 13q-1 1 -5 8.5t-7 12.5q-10 23 -10 44t7.5 39.5t22 32.5t33.5 22l84 35l38 -92l-79 -33q-5 -2 -7 -6t-2 -6q0 -4 3 -9q2 -3 6 -11.5t8 -15.5l107 56l42 -85l-247 -126l-43 90zM176 265v-44h145v132l-94 -22q-23 -6 -37 -24t-14 -42z" />
    <glyph glyph-name="uniFBE8" unicode="&#x649;" horiz-adv-x="392" arabic-form="initial" 
d="M-14 130q0 6 4 11t10 5h186q17 0 28.5 11.5t11.5 28.5v216h124v-215q0 -39 -14.5 -73t-40 -59.5t-59.5 -40t-73 -14.5h-163q-6 0 -10 4.5t-4 9.5v116z" />
    <glyph glyph-name="uniFBE9" unicode="&#x649;" horiz-adv-x="386" arabic-form="medial" 
d="M-14 131q0 6 4 10.5t10 4.5h94q17 0 30 10.5t16 27.5l38 188l122 -22l-31 -157q-2 -6 -2 -12q0 -12 10 -23.5t29 -11.5h80q6 0 10 -4.5t4 -10.5v-117q0 -5 -4 -9.5t-10 -4.5h-81q-32 0 -62 15t-45 41q-19 -26 -51.5 -41t-65.5 -15h-81q-6 0 -10 4.5t-4 9.5v117z" />
    <glyph glyph-name="uniFBFD" unicode="&#x6cc;" horiz-adv-x="746" arabic-form="final" 
d="M52 -2v272h124v-254q0 -21 8 -40t22.5 -33.5t33.5 -22.5t40 -8h190q31 0 53 21t22 52v15h-199v146h400q14 0 14 -13v-118q0 -6 -4 -10.5t-10 -4.5h-81q1 0 2 -5t1 -13v-10q0 -44 -16.5 -81.5t-45.5 -65.5t-68 -43.5t-84 -15.5h-170q-48 0 -90 18t-73.5 49.5t-50 74
t-18.5 90.5z" />
    <glyph glyph-name="uniFBFE" unicode="&#x6cc;" horiz-adv-x="471" arabic-form="initial" 
d="M-14 130q0 6 4 11t10 5h262q17 0 28.5 11.5t11.5 28.5v216h124v-215q0 -39 -14.5 -73t-40 -59.5t-59.5 -40t-73 -14.5h-239q-6 0 -10 4.5t-4 9.5v116zM320 -120v-125h-125v125h125zM143 -120v-125h-124v125h124z" />
    <glyph glyph-name="uniFBFF" unicode="&#x6cc;" horiz-adv-x="402" arabic-form="medial" 
d="M-14 131q0 6 4.5 10.5t9.5 4.5h102q17 0 30 10.5t16 27.5l39 188l121 -22l-31 -158q-1 -5 -1 -10q0 -13 9.5 -24.5t28.5 -11.5h88q6 0 10 -4.5t4 -10.5v-117q0 -5 -4 -9.5t-10 -4.5h-89q-31 0 -61.5 15t-45.5 41q-19 -26 -51.5 -41t-64.5 -15h-90q-5 0 -9.5 4t-4.5 10
v117zM228 -245v125h125v-125h-125zM53 -120h123v-125h-123v125z" />
    <glyph glyph-name="uniFC5E" unicode="&#xfc5e;" arabic-form="isolated" 
d="M-156 1024l-20 83l91 21l19 -84l30 8q-2 9 -5 18q-2 8 -3.5 17.5t-3.5 18.5q-1 5 -1 11q0 11 5.5 25t17.5 27.5t27 22.5t30 12l52 9q6 1 13 1q11 0 25.5 -4.5t28.5 -16t23.5 -27.5t12.5 -33l5 -30q0 -5 1 -9q-1 -14 -6 -30t-16.5 -31t-27.5 -25t-34 -15l-12 -2
q-13 -3 -32.5 -7t-45 -9.5t-51.5 -10.5q-62 -13 -140 -30l-16 84zM-92 906v-96q2 -11 13 -13h19q13 0 15 12l19 94l83 -16l-16 -78v-3q0 -5 3 -7t7 -2h41v113h89v-129q0 -16 -6.5 -30.5t-18 -26t-26 -18t-31.5 -6.5h-42q-14 0 -30 5t-29 19q-14 -14 -33 -19t-36 -5
q-23 0 -43 8.5t-34.5 23.5t-23 35t-8.5 43v96h88zM46 1103l9 -35l41 10q13 4 13 13v1l-7 24q-2 10 -11 10q-2 0 -4 -1l-31 -8q-10 -3 -10 -11v-3z" />
    <glyph glyph-name="uniFC5F" unicode="&#xfc5f;" arabic-form="isolated" 
d="M-178 1144v97h89v-97q0 -5 3.5 -8.5t8.5 -4.5h19q13 0 15 13l19 94l83 -16l-17 -79q0 -7 4 -9t8 -2h40v112h89v-128q0 -16 -6.5 -31t-18 -26.5t-26 -18t-31.5 -6.5h-42q-14 0 -30 5t-29 19q-14 -14 -33 -19t-35 -5q-23 0 -43 8.5t-35 23.5t-23.5 35t-8.5 43zM-183 787
l341 73l20 -86l-346 -74zM-183 919l341 74l20 -86l-346 -74z" />
    <glyph glyph-name="uniFC60" unicode="&#xfc60;" arabic-form="isolated" 
d="M-176 811v96h88v-96q2 -13 13 -13h19q12 0 15 12l19 94l82 -16l-16 -79q0 -7 3.5 -9t7.5 -2h41v113h89v-129q0 -16 -6.5 -31t-18 -26.5t-26 -18t-31.5 -6.5h-42q-14 0 -30 5t-30 19q-14 -14 -32.5 -19t-35.5 -5q-23 0 -43 9t-34.5 24t-23 35t-8.5 43zM-185 1031l341 74
l20 -86l-346 -74z" />
    <glyph glyph-name="uniFC61" unicode="&#xfc61;" arabic-form="isolated" 
d="M-91 907v-97q0 -11 13 -13h18q13 0 15 13l19 94l83 -16l-16 -79v-3q0 -4 3.5 -6t7.5 -3h41v113h88v-128q0 -33 -24 -57.5t-58 -24.5h-42q-14 0 -29.5 5t-29.5 19q-14 -14 -32.5 -19t-35.5 -5q-23 0 -43 8.5t-35 23.5t-23.5 35t-8.5 43v97h89zM-51 1037q-3 11 -6.5 27.5
t-6.5 30.5v9q0 14 5.5 28t17.5 27t27.5 21t30.5 11l52 8q6 1 12 1q12 0 26 -5t27.5 -16t23 -27t12.5 -33l6 -31q1 -7 1 -13q0 -13 -5 -28t-17 -29t-29 -23.5t-35 -14.5l-120 -26q-52 -11 -119 -26l-14 85zM30 1089l10 -35l41 10q6 2 9.5 5t3.5 6q0 1 -1 3q0 2 -4 12l-4 12
q-2 9 -10 9q-2 0 -4 -1l-30 -7q-5 -2 -8.5 -4.5t-3.5 -5.5q0 -2 1 -4z" />
    <glyph glyph-name="uniFC62" unicode="&#xfc62;" arabic-form="isolated" 
d="M-177 980v97h88v-97q0 -11 13 -13h19q11 0 15 13l19 93l82 -16l-16 -78v-3q0 -4 3.5 -6t7.5 -3h41v113h89v-129q0 -16 -6.5 -30.5t-18 -26t-26 -18t-31.5 -6.5h-42q-14 0 -30 5t-30 19q-14 -14 -32.5 -19.5t-35.5 -5.5q-23 0 -43 9t-34.5 24t-23 35t-8.5 43zM159 860
l20 -86l-346 -74l-15 86z" />
    <glyph glyph-name="uniFC63" unicode="&#xfc63;" arabic-form="isolated" 
d="M-91 907v-97q0 -5 3.5 -8.5t8.5 -3.5h19q13 0 15 12l19 94l83 -16l-16 -79v-3q0 -4 3.5 -6t7.5 -2h40v113h89v-129q0 -16 -6.5 -31t-18 -26.5t-26 -18t-31.5 -6.5h-42q-14 0 -30 5t-29 19q-14 -14 -32.5 -19t-35.5 -5q-23 0 -43 9t-35 24t-23.5 35t-8.5 43v96h89z
M-42 1113h92v-182l-92 1v181z" />
    <glyph glyph-name="uniFE82" unicode="&#x622;" horiz-adv-x="324" arabic-form="final" 
d="M109 617h124v-431q0 -17 11.5 -28.5t28.5 -11.5h51q6 0 10 -4.5t4 -10.5v-117q0 -5 -4 -9.5t-10 -4.5h-31q-38 0 -71.5 14.5t-58.5 39t-39.5 58t-14.5 71.5v434zM-30 636v55q0 25 8.5 44t22.5 31.5t32 19t37 6.5h205v-107h-202q-16 0 -16 -16v-33h-87z" />
    <glyph glyph-name="uniFE84" unicode="&#x623;" horiz-adv-x="271" arabic-form="final" 
d="M47 184v432h124v-430q0 -16 11.5 -28t28.5 -12h60q5 0 9.5 -4.5t4.5 -10.5v-117q0 -5 -4.5 -9.5t-9.5 -4.5h-41q-38 0 -71.5 14.5t-58 39.5t-39 58.5t-14.5 71.5zM-25 748l68 29q-3 0 -7 2q-7 2 -13 13q0 1 -4.5 8.5t-6.5 12.5q-10 23 -10.5 34t-0.5 12q0 20 8 38
t22.5 32t33.5 22l84 35l37 -92l-79 -33q-5 -2 -6.5 -6t-1.5 -6q0 -4 2 -8l14 -28l106 56l43 -85l-246 -126z" />
    <glyph glyph-name="uniFE86" unicode="&#x624;" horiz-adv-x="520" arabic-form="final" 
d="M47 195l17 92q5 29 20 53t36.5 42t48.5 28t56 10h56q36 0 67 -13.5t54.5 -37t37 -55t13.5 -67.5v-101h67q14 0 14 -14v-118q0 -14 -14 -14h-68q0 -4 -1 -9q-3 -35 -16.5 -66t-36 -57.5t-52 -46.5t-64.5 -32l-146 -50l-37 117l148 50q35 12 58 38t23 64v6
q-13 -6 -30.5 -10t-34.5 -4h-55q-39 0 -71.5 16.5t-55 43.5t-30 55t-7.5 49q0 15 3 31zM140 608q-1 0 -7.5 1.5t-12.5 13.5q-1 2 -5 9t-6 12q-10 22 -10.5 33.5t-0.5 12.5q0 20 7.5 38t22.5 32t34 22l83 35l38 -92l-79 -33q-5 -2 -6.5 -6t-1.5 -6q0 -4 2 -9q2 -4 6.5 -12
t8.5 -15l106 56l42 -85l-246 -126l-43 89zM173 155q7 -9 18 -9h138v102q0 12 -8.5 21t-21.5 10h-86q-22 0 -29 -25l-16 -81v-4q0 -8 5 -14z" />
    <glyph glyph-name="uniFE88" unicode="&#x625;" horiz-adv-x="277" arabic-form="final" 
d="M177 596v-410q0 -17 11.5 -28.5t28.5 -11.5h60q5 0 9.5 -4.5t4.5 -10.5v-117q0 -5 -4.5 -9.5t-9.5 -4.5h-40q-38 0 -71.5 14.5t-58.5 39t-39.5 58t-14.5 71.5v413h124zM76 -242q-3 0 -7 1q-3 2 -6.5 4.5t-6.5 8.5q-1 2 -5 9.5t-6 12.5q-10 22 -10.5 33.5t-0.5 12.5
q0 20 7.5 38t22 32t33.5 22l84 34l38 -91l-78 -33q-5 -2 -7 -6.5t-2 -6.5q0 -4 2 -7l14 -28l107 55l42 -85l-246 -125l-43 89z" />
    <glyph glyph-name="uniFE8A" unicode="&#x626;" horiz-adv-x="749" arabic-form="final" 
d="M179 270v-254q0 -21 8 -40t22.5 -33.5t33.5 -22.5t40 -8h190q31 0 53 21t22 52v15h-199v146h400q14 0 14 -13v-118q0 -6 -4 -10.5t-10 -4.5h-81q1 0 2 -5t1 -13v-10q0 -44 -16.5 -81.5t-45.5 -65.5t-68 -43.5t-84 -15.5h-170q-48 0 -90 18t-73.5 49.5t-50 74t-18.5 90.5
v272h124zM58 444l69 29q-3 0 -9.5 3t-9.5 11q-2 2 -6 9.5t-6 12.5q-10 22 -10.5 33.5t-0.5 12.5q0 20 7.5 38t22 32t33.5 22l84 35l38 -91l-79 -33q-5 -3 -7 -7t-2 -6q0 -4 3 -9q2 -3 6.5 -11.5t8.5 -15.5l105 56l43 -85l-247 -126z" />
    <glyph glyph-name="uniFE8B" unicode="&#x626;" horiz-adv-x="384" arabic-form="initial" 
d="M-14 131q0 6 4 10.5t10 4.5h178q17 0 28.5 12t11.5 29v215h124v-215q0 -39 -14.5 -73t-40 -59.5t-59.5 -40t-73 -14.5h-155q-6 0 -10 4.5t-4 9.5v117zM-1 504l68 30q-3 0 -7 1q-8 4 -13 13q-1 2 -5 9.5t-6 12.5q-10 22 -10.5 33.5t-0.5 12.5q0 20 8 37.5t22.5 32
t33.5 22.5l83 34l38 -92l-78 -33q-6 -2 -7.5 -5.5t-1.5 -5.5q0 -4 2 -9q2 -4 6 -12.5t8 -14.5l28 14l35 18q17 9 30 16t14 7l42 -85l-246 -125z" />
    <glyph glyph-name="uniFE8C" unicode="&#x626;" horiz-adv-x="386" arabic-form="medial" 
d="M-14 131q0 6 4.5 10.5t9.5 4.5h94q17 0 30 10.5t16 27.5l39 188l121 -22l-31 -158q-1 -5 -1 -10q0 -13 9.5 -24.5t28.5 -11.5h80q6 0 10 -4.5t4 -10.5v-117q0 -5 -4 -9.5t-10 -4.5h-81q-31 0 -61.5 15t-45.5 41q-19 -26 -51.5 -41t-64.5 -15h-82q-5 0 -9.5 4t-4.5 10v117
zM51 526l69 29q-1 0 -7.5 1.5t-11.5 12.5q-2 3 -6 10.5t-6 12.5q-10 22 -10.5 33.5t-0.5 12.5q0 20 7.5 37.5t22 32t33.5 22.5l84 35l38 -92l-78 -33q-6 -2 -7.5 -6t-1.5 -6q0 -5 3 -10q2 -3 6 -11.5t8 -14.5l106 56l42 -86l-246 -125z" />
    <glyph glyph-name="uniFE8E" unicode="&#x627;" horiz-adv-x="266" arabic-form="final" 
d="M52 183v511h124v-508q0 -17 11.5 -28.5t28.5 -11.5h50q6 0 10 -4.5t4 -10.5v-117q0 -14 -14 -14h-30q-38 0 -71.5 14.5t-58.5 39t-39.5 58t-14.5 71.5z" />
    <glyph glyph-name="uniFE90" unicode="&#x628;" horiz-adv-x="899" arabic-form="final" 
d="M176 403v-183q0 -31 21.5 -52.5t53.5 -21.5h414q17 0 28.5 11.5t11.5 27.5v189h124v-187q0 -17 11.5 -29t28.5 -12h30q5 0 9.5 -4.5t4.5 -9.5v-118q0 -5 -4.5 -9.5t-9.5 -4.5h-9q-74 0 -122 56q-26 -29 -57.5 -42.5t-67.5 -13.5h-380q-44 0 -82.5 16.5t-67 45.5t-45 67.5
t-16.5 81.5v192h124zM503 -122v-125h-125v125h125z" />
    <glyph glyph-name="uniFE91" unicode="&#x628;" horiz-adv-x="392" arabic-form="initial" 
d="M-14 130q0 6 4 11t10 5h186q17 0 28.5 11.5t11.5 28.5v216h124v-215q0 -39 -14.5 -73t-40 -59.5t-59.5 -40t-73 -14.5h-163q-6 0 -10 4.5t-4 9.5v116zM27 -245v125h125v-125h-125z" />
    <glyph glyph-name="uniFE92" unicode="&#x628;" horiz-adv-x="386" arabic-form="medial" 
d="M-14 131q0 6 4.5 10.5t9.5 4.5h94q17 0 30 10.5t16 27.5l39 188l121 -22l-31 -158q-1 -5 -1 -10q0 -13 9.5 -24.5t28.5 -11.5h80q6 0 10 -4.5t4 -10.5v-117q0 -5 -4 -9.5t-10 -4.5h-81q-31 0 -61.5 15t-45.5 41q-19 -26 -51.5 -41t-64.5 -15h-82q-5 0 -9.5 4t-4.5 10v117
zM260 -121v-125h-125v125h125z" />
    <glyph glyph-name="uniFE94" unicode="&#x629;" horiz-adv-x="525" arabic-form="final" 
d="M52 211v64q0 31 10.5 60t29 53.5t44.5 42.5t57 25l128 30v73h124v-367q0 -18 15 -32t35 -14h30q14 0 14 -14v-118q0 -6 -4.5 -10t-9.5 -4h-30q-52 0 -88.5 25.5t-60.5 67.5q-13 -9 -33.5 -13.5t-37.5 -4.5h-86q-27 0 -52 11t-44 29.5t-30 43.5t-11 52zM176 265v-44h145
v132l-94 -22q-23 -6 -37 -24t-14 -42zM272 783h125v-125h-125v125zM220 783v-125h-125v125h125z" />
    <glyph glyph-name="uniFE96" unicode="&#x62a;" horiz-adv-x="898" arabic-form="final" 
d="M52 402h124v-182q0 -32 22 -53t53 -21h414q17 0 28.5 11t11.5 28v188h124v-187q0 -17 11.5 -28.5t28.5 -11.5h29q5 0 9.5 -4t4.5 -10v-118q0 -6 -4.5 -10t-9.5 -4h-9q-72 0 -122 56q-26 -30 -57.5 -43t-67.5 -13h-380q-43 0 -81.5 16.5t-67 45.5t-45 67.5t-16.5 81.5v191
zM591 527v-125h-125v125h125zM414 527v-125h-125v125h125z" />
    <glyph glyph-name="uniFE97" unicode="&#x62a;" horiz-adv-x="393" arabic-form="initial" 
d="M-14 130q0 6 4 11t10 5h186q17 0 28.5 11.5t11.5 28.5v216h124v-215q0 -39 -14.5 -73t-40 -59.5t-59.5 -40t-73 -14.5h-163q-6 0 -10 4.5t-4 9.5v116zM226 484v125h125v-125h-125zM49 609h125v-125h-125v125z" />
    <glyph glyph-name="uniFE98" unicode="&#x62a;" horiz-adv-x="386" arabic-form="medial" 
d="M-14 131q0 6 4.5 10.5t9.5 4.5h94q17 0 30 10.5t16 27.5l39 188l121 -22l-31 -158q-1 -5 -1 -10q0 -13 9.5 -24.5t28.5 -11.5h80q6 0 10 -4.5t4 -10.5v-117q0 -5 -4 -9.5t-10 -4.5h-81q-31 0 -61.5 15t-45.5 41q-19 -26 -51.5 -41t-64.5 -15h-82q-5 0 -9.5 4t-4.5 10v117
zM205 454v125h125v-125h-125zM28 579h125v-125h-125v125z" />
    <glyph glyph-name="uniFE9A" unicode="&#x62b;" horiz-adv-x="898" arabic-form="final" 
d="M176 403v-183q0 -31 21.5 -52.5t53.5 -21.5h414q17 0 28.5 11.5t11.5 27.5v189h124v-187q0 -17 11.5 -29t28.5 -12h30q5 0 9.5 -4.5t4.5 -9.5v-118q0 -5 -4.5 -9.5t-9.5 -4.5h-9q-74 0 -122 56q-26 -29 -57.5 -42.5t-67.5 -13.5h-380q-44 0 -82.5 16.5t-67 45.5t-45 67.5
t-16.5 81.5v192h124zM290 527h125v-125h-125v125zM502 689v-125h-125v125h125zM592 527v-125h-125v125h125z" />
    <glyph glyph-name="uniFE9B" unicode="&#x62b;" horiz-adv-x="372" arabic-form="initial" 
d="M-14 14v117q0 5 4 10t10 5h166q17 0 28.5 11.5t11.5 28.5v216h124v-215q0 -39 -14.5 -73t-40 -59.5t-59.5 -40t-73 -14.5h-143q-6 0 -10 4.5t-4 9.5zM27 484v125h125v-125h-125zM239 771v-125h-125v125h125zM204 484v125h125v-125h-125z" />
    <glyph glyph-name="uniFE9C" unicode="&#x62b;" horiz-adv-x="386" arabic-form="medial" 
d="M-14 131q0 6 4.5 10.5t9.5 4.5h94q17 0 30 10.5t16 27.5l39 188l121 -22l-31 -158q-1 -5 -1 -10q0 -13 9.5 -24.5t28.5 -11.5h80q6 0 10 -4.5t4 -10.5v-117q0 -5 -4 -9.5t-10 -4.5h-81q-31 0 -61.5 15t-45.5 41q-19 -26 -51.5 -41t-64.5 -15h-82q-5 0 -9.5 4t-4.5 10v117
zM27 457v125h125v-125h-125zM114 744h125v-125h-125v125zM204 457v125h125v-125h-125z" />
    <glyph glyph-name="uniFE9E" unicode="&#x62c;" horiz-adv-x="703" arabic-form="final" 
d="M52 270l28 95q9 31 29 54t46 36.5t45 15.5t28 2q21 0 41 -6l393 -118l-33 -115l-69 17q-11 3 -19 3q-2 0 -7.5 -0.5t-10.5 -2.5v-64q0 -17 11.5 -29t28.5 -12h140q14 0 14 -14v-118q0 -5 -4 -9.5t-10 -4.5h-113q-37 0 -67.5 13.5t-52.5 36.5t-34.5 53.5t-14.5 64.5v8
l-165 -119q-23 -17 -36 -44t-13 -56q0 -28 10.5 -52.5t29 -42.5t43 -28.5t52.5 -10.5h268v-146h-267q-57 0 -106.5 21.5t-86.5 58t-58.5 85t-21.5 103.5q0 60 25.5 110t70.5 82q28 20 52 37.5t46.5 34.5t45 33.5t46.5 34.5q11 8 24.5 16.5t15.5 10.5l-176 52q-3 0 -5 1
q-13 -1 -18 -13l-35 -103zM435 33v-125h-125v125h125z" />
    <glyph glyph-name="uniFE9F" unicode="&#x62c;" horiz-adv-x="685" arabic-form="initial" 
d="M-10 141q4 5 9 5h189q42 0 81.5 13t66.5 44l48 55q2 3 4 5l7 7l-202 61q-3 1 -6 1q-4 0 -9 -3t-8 -10l-37 -104l-107 29l28 95q9 33 29.5 56.5t47 36.5t45 14.5t24.5 1.5q22 0 43 -6l400 -120l-35 -115l-54 16q-13 3 -22 3q-8 0 -17 -3t-23 -17l-110 -120
q-43 -46 -102.5 -66t-122.5 -20h-157q-14 0 -14 14v116q0 6 4 11zM277 -120h125v-125h-125v125z" />
    <glyph glyph-name="uniFEA0" unicode="&#x62c;" horiz-adv-x="685" arabic-form="medial" 
d="M-14 131q0 5 4.5 10t9.5 5h189q41 0 80.5 13t66.5 43l48 56q2 3 4 5l4 4q2 1 3 3l-202 60q-4 1 -7 1q-11 0 -15 -12l-38 -104l-108 29l28 95q9 33 30 56.5t47.5 36.5t44.5 14.5t25 1.5q21 0 42 -6l401 -120l-35 -115l-58 17q-12 3 -21 3q-4 0 -10.5 -1t-14.5 -6v-34
q0 -17 11.5 -28.5t28.5 -11.5h141q14 0 14 -14v-118q0 -14 -14 -14h-109q-60 0 -102 33t-62 86l-30 -33q-44 -45 -103 -65.5t-122 -20.5h-157q-14 0 -14 14v117zM400 -121v-125h-125v125h125z" />
    <glyph glyph-name="uniFEA2" unicode="&#x62d;" horiz-adv-x="703" arabic-form="final" 
d="M80 365q9 31 29 54t46 36.5t45 15.5t28 2q21 0 41 -6l393 -118l-33 -115l-69 17q-11 3 -19 3q-2 0 -7.5 -0.5t-10.5 -2.5v-64q0 -17 11.5 -29t28.5 -12h140q14 0 14 -14v-118q0 -5 -4 -9.5t-10 -4.5h-113q-37 0 -67.5 13.5t-52.5 36.5t-34.5 53.5t-14.5 64.5v8l-165 -119
q-23 -17 -36 -44t-13 -56q0 -28 10.5 -52.5t29 -42.5t43 -28.5t52.5 -10.5h268v-146h-267q-57 0 -106.5 21.5t-86.5 58t-58.5 85t-21.5 103.5q0 60 25.5 110t70.5 82q28 20 52 37.5t46.5 34.5t45 33.5t46.5 34.5q11 8 24.5 16.5t15.5 10.5l-176 52q-3 0 -5 1q-13 -1 -18 -13
l-35 -103l-110 29z" />
    <glyph glyph-name="uniFEA3" unicode="&#x62d;" horiz-adv-x="684" arabic-form="initial" 
d="M-10 141q5 5 10 5h188q41 0 81 13t67 43l47 56l12 12l-203 60q-4 1 -7 1q-4 0 -8 -2.5t-7 -9.5l-38 -104l-106 29l27 95q10 33 30.5 56.5t47 36.5t44.5 14.5t25 1.5q21 0 42 -6l400 -120l-35 -115l-53 16q-13 3 -22 3q-8 0 -17 -3t-23 -17l-111 -120q-42 -46 -101.5 -66
t-122.5 -20h-157q-14 0 -14 14v117q0 5 4 10z" />
    <glyph glyph-name="uniFEA4" unicode="&#x62d;" horiz-adv-x="685" arabic-form="medial" 
d="M-14 14v117q0 5 4.5 10t9.5 5h188q41 0 81 13t67 43l47 56l12 12l-203 60q-4 1 -7 1q-10 0 -15 -12l-38 -104l-107 29l28 95q9 33 30 56.5t47 36.5t44.5 14.5t24.5 1.5q22 0 43 -6l400 -120l-35 -115l-57 17q-12 3 -21 3q-4 0 -10.5 -1t-14.5 -6v-34q0 -17 11.5 -28.5
t28.5 -11.5h141q14 0 14 -14v-118q0 -14 -14 -14h-109q-60 0 -102.5 33t-61.5 86l-31 -33q-44 -45 -102.5 -65.5t-121.5 -20.5h-157q-14 0 -14 14z" />
    <glyph glyph-name="uniFEA6" unicode="&#x62e;" horiz-adv-x="703" arabic-form="final" 
d="M52 270l28 95q9 31 29 54t46 36.5t45 15.5t28 2q21 0 41 -6l393 -118l-33 -115l-69 17q-11 3 -19 3q-2 0 -7.5 -0.5t-10.5 -2.5v-64q0 -17 11.5 -29t28.5 -12h140q14 0 14 -14v-118q0 -5 -4 -9.5t-10 -4.5h-113q-37 0 -67.5 13.5t-52.5 36.5t-34.5 53.5t-14.5 64.5v8
l-165 -119q-23 -17 -36 -44t-13 -56q0 -28 10.5 -52.5t29 -42.5t43 -28.5t52.5 -10.5h268v-146h-267q-57 0 -106.5 21.5t-86.5 58t-58.5 85t-21.5 103.5q0 60 25.5 110t70.5 82q28 20 52 37.5t46.5 34.5t45 33.5t46.5 34.5q11 8 24.5 16.5t15.5 10.5l-176 52q-3 0 -5 1
q-13 -1 -18 -13l-35 -103zM139 680h125v-125h-125v125z" />
    <glyph glyph-name="uniFEA7" unicode="&#x62e;" horiz-adv-x="684" arabic-form="initial" 
d="M-10 141q4 5 9 5h189q42 0 81.5 13t66.5 44l48 55q2 3 4 5l7 7l-202 61q-3 1 -6 1q-4 0 -9 -3t-8 -10l-37 -104l-107 29l28 95q9 33 29.5 56.5t47 36.5t45 14.5t24.5 1.5q22 0 43 -6l400 -120l-35 -115l-54 16q-13 3 -22 3q-8 0 -17 -3t-23 -17l-110 -120
q-43 -46 -102.5 -66t-122.5 -20h-157q-14 0 -14 14v116q0 6 4 11zM277 655v-125h-125v125h125z" />
    <glyph glyph-name="uniFEA8" unicode="&#x62e;" horiz-adv-x="685" arabic-form="medial" 
d="M-14 131q0 5 4.5 10t9.5 5h189q41 0 80.5 13t66.5 43l48 56q2 3 4 5l4 4q2 1 3 3l-202 60q-4 1 -7 1q-11 0 -15 -12l-38 -104l-108 29l28 95q9 33 30 56.5t47.5 36.5t44.5 14.5t25 1.5q21 0 42 -6l401 -120l-35 -115l-58 17q-12 3 -21 3q-4 0 -10.5 -1t-14.5 -6v-34
q0 -17 11.5 -28.5t28.5 -11.5h141q14 0 14 -14v-118q0 -14 -14 -14h-109q-60 0 -102 33t-62 86l-30 -33q-44 -45 -103 -65.5t-122 -20.5h-157q-14 0 -14 14v117zM152 530v125h125v-125h-125z" />
    <glyph glyph-name="uniFEAA" unicode="&#x62f;" horiz-adv-x="592" arabic-form="final" 
d="M52 141v138h104v-112q0 -9 6 -15t15 -6h146q27 0 42 17.5t15 36.5q0 5 -1 11l-82 296l118 43l104 -371q4 -14 16 -23.5t27 -9.5h30q5 0 9.5 -4.5t4.5 -10.5v-117q0 -5 -4 -9.5t-10 -4.5h-20q-40 0 -71 15t-51 33q-26 -22 -58.5 -35t-70.5 -13h-129q-29 0 -54.5 11
t-44.5 30.5t-30 45t-11 54.5z" />
    <glyph glyph-name="uniFEAC" unicode="&#x630;" horiz-adv-x="592" arabic-form="final" 
d="M52 141v138h104v-112q0 -9 6 -15t15 -6h146q27 0 42 17.5t15 36.5q0 5 -1 11l-82 296l118 43l104 -371q4 -14 16 -23.5t27 -9.5h30q5 0 9.5 -4.5t4.5 -10.5v-117q0 -5 -4 -9.5t-10 -4.5h-20q-40 0 -71 15t-51 33q-26 -22 -58.5 -35t-70.5 -13h-129q-29 0 -54.5 11
t-44.5 30.5t-30 45t-11 54.5zM272 757h125v-125h-125v125z" />
    <glyph glyph-name="uniFEAE" unicode="&#x631;" horiz-adv-x="417" arabic-form="final" 
d="M-41 -141l152 49q36 11 57.5 42t21.5 69v355h124v-194q0 -15 12 -24.5t27 -9.5h64q14 0 14 -14v-118q0 -14 -14 -14h-44q-15 0 -32 6.5t-28 20.5v-17q0 -39 -13 -73t-35.5 -62t-53.5 -49.5t-68 -33.5l-146 -49z" />
    <glyph glyph-name="uniFEB0" unicode="&#x632;" horiz-adv-x="425" arabic-form="final" 
d="M111 -92q36 11 57.5 42t21.5 69v355h124v-194q0 -15 12 -24.5t27 -9.5h72q14 0 14 -14v-118q0 -14 -14 -14h-52q-15 0 -32 6.5t-28 20.5v-17q0 -39 -13 -73t-35.5 -62t-53.5 -49.5t-68 -33.5l-146 -49l-38 116zM186 456v125h125v-125h-125z" />
    <glyph glyph-name="uniFEB2" unicode="&#x633;" horiz-adv-x="1236" arabic-form="final" 
d="M52 57v300h124v-283q0 -21 8 -40t22 -33t33 -22t40 -8h181q35 0 59.5 24.5t24.5 59.5v319h124v-188q0 -17 12.5 -28.5t26.5 -11.5h32q17 0 30 10.5t16 27.5l38 188l123 -22l-31 -158q-1 -6 -1 -11q0 -12 10 -24t28 -12h38q17 0 28.5 11.5t11.5 28.5v215h124v-213
q0 -18 11.5 -29.5t28.5 -11.5h42q14 0 14 -14v-118q0 -14 -14 -14h-21q-36 0 -67.5 13t-56.5 43q-25 -29 -59 -43t-70 -14q-32 0 -64 13t-54 44q-23 -31 -50.5 -43.5t-59.5 -12.5q-17 0 -35 5t-32 22v-19q0 -38 -17.5 -71.5t-46 -58.5t-66 -39t-78.5 -14h-175q-48 0 -90 18
t-73.5 49.5t-50 74t-18.5 90.5z" />
    <glyph glyph-name="uniFEB3" unicode="&#x633;" horiz-adv-x="740" arabic-form="initial" 
d="M-14 131q0 6 4.5 10.5t9.5 4.5h48q17 0 28.5 12.5t11.5 29.5v186h123v-186q0 -17 11.5 -29.5t28.5 -12.5h31q17 0 30 10.5t17 27.5l38 188l124 -22l-32 -157q-1 -4 -1 -8q0 -13 10.5 -26t27.5 -13h78v254h124v-267q0 -27 -10.5 -51t-29 -42.5t-42.5 -29t-51 -10.5h-69
q-32 0 -59 13t-49 44q-24 -32 -53.5 -44.5t-61.5 -12.5q-36 0 -67.5 13.5t-55.5 42.5q-26 -29 -57.5 -42.5t-67.5 -13.5h-25q-6 0 -10 4.5t-4 9.5v117z" />
    <glyph glyph-name="uniFEB4" unicode="&#x633;" horiz-adv-x="771" arabic-form="medial" 
d="M-14 131q0 6 4.5 10.5t9.5 4.5h40q17 1 28.5 12.5t11.5 28.5v187h124v-187q0 -17 12.5 -29t26.5 -12h34q17 0 29.5 11t15.5 28l37 188l124 -22l-32 -158q-1 -5 -1 -9q0 -13 10.5 -25.5t28.5 -12.5h39q17 0 28.5 11.5t11.5 28.5v214h124v-212q0 -19 11.5 -30.5t28.5 -11.5
h39q14 0 14 -14v-117q0 -6 -3.5 -10.5t-10.5 -4.5h-19q-36 0 -67 13.5t-56 43.5q-25 -30 -57.5 -43.5t-68.5 -13.5q-32 0 -66 12.5t-56 44.5q-24 -32 -53.5 -44.5t-61.5 -12.5q-35 0 -66.5 13.5t-56.5 43.5q-26 -30 -57 -43.5t-66 -13.5h-20q-5 0 -9.5 4.5t-4.5 9.5v117z
" />
    <glyph glyph-name="uniFEB6" unicode="&#x634;" horiz-adv-x="1236" arabic-form="final" 
d="M52 57v300h124v-283q0 -21 8 -40t22 -33t33 -22t40 -8h181q35 0 59.5 24.5t24.5 59.5v319h124v-188q0 -17 12.5 -28.5t26.5 -11.5h32q17 0 30 10.5t16 27.5l38 188l123 -22l-31 -158q-1 -6 -1 -11q0 -12 10 -24t28 -12h38q17 0 28.5 11.5t11.5 28.5v215h124v-213
q0 -18 11.5 -29.5t28.5 -11.5h42q14 0 14 -14v-118q0 -14 -14 -14h-21q-36 0 -67.5 13t-56.5 43q-25 -29 -59 -43t-70 -14q-32 0 -64 13t-54 44q-23 -31 -50.5 -43.5t-59.5 -12.5q-17 0 -35 5t-32 22v-19q0 -38 -17.5 -71.5t-46 -58.5t-66 -39t-78.5 -14h-175q-48 0 -90 18
t-73.5 49.5t-50 74t-18.5 90.5zM669 579h125v-125h-125v125zM881 741v-125h-125v125h125zM971 579v-125h-125v125h125z" />
    <glyph glyph-name="uniFEB7" unicode="&#x634;" horiz-adv-x="740" arabic-form="initial" 
d="M-14 131q0 6 4.5 10.5t9.5 4.5h48q17 0 28.5 12.5t11.5 29.5v186h123v-186q0 -17 11.5 -29.5t28.5 -12.5h31q17 0 30 10.5t17 27.5l38 188l124 -22l-32 -157q-1 -4 -1 -8q0 -13 10.5 -26t27.5 -13h78v254h124v-267q0 -27 -10.5 -51t-29 -42.5t-42.5 -29t-51 -10.5h-69
q-32 0 -59 13t-49 44q-24 -32 -53.5 -44.5t-61.5 -12.5q-36 0 -67.5 13.5t-55.5 42.5q-26 -29 -57.5 -42.5t-67.5 -13.5h-25q-6 0 -10 4.5t-4 9.5v117zM340 580v-125h-125v125h125zM302 742h125v-125h-125v125zM392 455v125h125v-125h-125z" />
    <glyph glyph-name="uniFEB8" unicode="&#x634;" horiz-adv-x="773" arabic-form="medial" 
d="M-14 131q0 6 5 10.5t10 4.5h41q17 0 28.5 12t11.5 29v187h123v-191q0 -17 12.5 -27t26.5 -10h34q17 0 30 11t16 28l37 188l124 -22l-31 -158q-1 -6 -1 -11q0 -12 10 -24t28 -12h38q17 0 28.5 11.5t11.5 28.5v214h124v-213q0 -19 11.5 -30t28.5 -11h40q14 0 14 -14v-117
q0 -6 -3.5 -10.5t-10.5 -4.5h-19q-36 0 -67.5 13.5t-55.5 43.5q-25 -30 -57.5 -43.5t-67.5 -13.5q-32 0 -66.5 12.5t-56.5 44.5q-24 -32 -53.5 -44.5t-62.5 -12.5q-35 0 -66.5 13.5t-56.5 43.5q-25 -30 -56 -43.5t-66 -13.5h-22q-5 0 -9.5 4.5t-4.5 9.5v117zM214 578h125
v-125h-125v125zM301 615v125h125v-125h-125zM516 578v-125h-125v125h125z" />
    <glyph glyph-name="uniFEBA" unicode="&#x635;" horiz-adv-x="1288" arabic-form="final" 
d="M52 58v301h124v-283q0 -22 8 -41t22 -33t33 -22t40 -8h181q35 0 59 24t24 59v319h124v-124q0 -12 2 -20t4 -13t5 -8l126 135q33 35 78 54.5t94 19.5h61q36 0 67.5 -13.5t55 -36.5t37 -54.5t13.5 -67.5v-60q0 -17 11.5 -28.5t28.5 -11.5h38q7 0 10.5 -4.5t3.5 -10.5v-117
q0 -5 -4.5 -9.5t-9.5 -4.5h-18q-36 0 -67 12t-56 35q-26 -22 -58.5 -34.5t-68.5 -12.5h-212q-19 0 -39.5 2t-40 6.5t-35.5 11.5t-27 18v-29q0 -39 -17 -72t-45.5 -58t-66 -39t-78.5 -14h-175q-48 0 -90 18t-73.5 49.5t-50 74t-18.5 90.5zM1044 146q17 0 29.5 12.5t12.5 30.5
v47q0 17 -12 29t-29 12h-94q-48 0 -81 -35l-90 -96h264z" />
    <glyph glyph-name="uniFEBB" unicode="&#x635;" horiz-adv-x="804" arabic-form="initial" 
d="M-14 130q0 6 4.5 11t9.5 5h55q17 0 28.5 11.5t11.5 28.5v172h124v-108q0 -25 5.5 -33t5.5 -9l126 136q33 36 78 55.5t93 19.5h62q36 0 67 -13.5t54.5 -37t37 -55t13.5 -66.5v-57q0 -39 -15 -74t-40.5 -60.5t-60.5 -40.5t-74 -15h-277q-36 0 -74.5 13t-62.5 43
q-25 -30 -57 -43t-68 -13h-32q-6 0 -10 4.5t-4 9.5v116zM595 146q18 0 30.5 13t12.5 30v47q0 17 -12 29.5t-29 12.5h-95q-23 0 -44 -9.5t-37 -26.5l-89 -96h263z" />
    <glyph glyph-name="uniFEBC" unicode="&#x635;" horiz-adv-x="842" arabic-form="medial" 
d="M-14 14v117q0 6 4.5 10.5t9.5 4.5h56q17 0 28.5 11.5t11.5 28.5v173h124v-108q0 -25 5 -33t5 -9l126 136q34 36 78.5 55.5t93.5 19.5h61q36 0 67.5 -13.5t55 -37t37 -55t13.5 -67.5v-62q1 -16 12.5 -27.5t27.5 -11.5h40q5 0 9.5 -4.5t4.5 -9.5v-117q0 -6 -4.5 -10.5
t-10.5 -4.5h-19q-36 0 -67.5 13.5t-55.5 39.5q-26 -26 -58.5 -39.5t-68.5 -13.5h-277q-36 0 -74.5 13.5t-63.5 43.5q-25 -30 -57 -43.5t-67 -13.5h-33q-6 0 -10 4.5t-4 9.5zM595 146q17 0 30 13.5t13 30.5v48q0 17 -12.5 28.5t-29.5 11.5h-93q-49 0 -81 -35l-89 -97h262z
" />
    <glyph glyph-name="uniFEBE" unicode="&#x636;" horiz-adv-x="1288" arabic-form="final" 
d="M176 359v-283q0 -22 8 -41t22 -33t33 -22t40 -8h181q35 0 59 24t24 59v319h124v-124q0 -12 2 -20t4 -13t5 -8l126 135q33 35 78 54.5t94 19.5h61q36 0 67.5 -13.5t55 -36.5t37 -54.5t13.5 -67.5v-60q0 -17 11.5 -28.5t28.5 -11.5h38q7 0 10.5 -4.5t3.5 -10.5v-117
q0 -5 -4.5 -9.5t-9.5 -4.5h-18q-36 0 -67 12t-56 35q-26 -22 -58.5 -34.5t-68.5 -12.5h-212q-19 0 -39.5 2t-40 6.5t-35.5 11.5t-27 18v-29q0 -39 -17 -72t-45.5 -58t-66 -39t-78.5 -14h-175q-48 0 -90 18t-73.5 49.5t-50 74t-18.5 90.5v301h124zM780 146h264
q17 0 29.5 12.5t12.5 30.5v47q0 17 -12 29t-29 12h-94q-48 0 -81 -35zM894 500v125h125v-125h-125z" />
    <glyph glyph-name="uniFEBF" unicode="&#x636;" horiz-adv-x="804" arabic-form="initial" 
d="M-14 130q0 6 4.5 11t9.5 5h55q17 0 28.5 11.5t11.5 28.5v172h124v-108q0 -25 5.5 -33t5.5 -9l126 136q33 36 78 55.5t93 19.5h62q36 0 67 -13.5t54.5 -37t37 -55t13.5 -66.5v-57q0 -39 -15 -74t-40.5 -60.5t-60.5 -40.5t-74 -15h-277q-36 0 -74.5 13t-62.5 43
q-25 -30 -57 -43t-68 -13h-32q-6 0 -10 4.5t-4 9.5v116zM332 146h262q18 0 30.5 13t12.5 30v47q0 17 -12 29.5t-29 12.5h-94q-23 0 -44 -9.5t-37 -26.5zM619 626v-125h-125v125h125z" />
    <glyph glyph-name="uniFEC0" unicode="&#x636;" horiz-adv-x="842" arabic-form="medial" 
d="M-14 131q0 6 4.5 10.5t9.5 4.5h56q17 0 28.5 11.5t11.5 28.5v173h124v-108q0 -25 5 -33t5 -9l126 136q34 36 78.5 55.5t93.5 19.5h61q36 0 67.5 -13.5t55 -37t37 -55t13.5 -67.5v-62q1 -16 12.5 -27.5t27.5 -11.5h40q6 0 10 -4.5t4 -9.5v-117q0 -6 -4 -10.5t-10 -4.5h-20
q-36 0 -67.5 13.5t-55.5 39.5q-26 -26 -58.5 -39.5t-68.5 -13.5h-277q-36 0 -74.5 13.5t-63.5 43.5q-25 -30 -57 -43.5t-67 -13.5h-33q-6 0 -10 4.5t-4 9.5v117zM333 146h263q17 0 30 13.5t13 30.5v48q0 17 -12.5 28.5t-29.5 11.5h-94q-49 0 -81 -35zM489 502v125h125v-125
h-125z" />
    <glyph glyph-name="uniFEC2" unicode="&#x637;" horiz-adv-x="782" arabic-form="final" 
d="M52 146h55l103 112v436h124v-259q0 -11 -2.5 -22t-4.5 -20q-4 -11 -8 -21l3 2q1 0 5 3q28 20 63 31t73 11h62q36 0 67.5 -13.5t54.5 -36.5t36.5 -54.5t13.5 -67.5v-62q0 -17 11.5 -28t28.5 -11h45q14 0 14 -14v-118q0 -14 -14 -14h-24q-36 0 -68 13.5t-56 42.5
q-26 -29 -58.5 -42.5t-69.5 -13.5h-454v146zM531 146q18 0 30 12.5t12 29.5v49q0 17 -12 29t-29 12h-90q-48 0 -81 -35l-89 -97h259z" />
    <glyph glyph-name="uniFEC3" unicode="&#x637;" horiz-adv-x="697" arabic-form="initial" 
d="M-10 142q4 4 10 4h66l103 111v437h123v-260q0 -11 -2.5 -22t-4.5 -20l-8 -20h1q2 0 4 2q62 45 139 45h62q36 0 67.5 -13.5t54.5 -36.5t36.5 -54.5t13.5 -67.5v-57q0 -39 -15 -74t-40.5 -60.5t-60.5 -40.5t-74 -15h-465q-14 0 -14 14v118q0 5 4 10zM488 146
q18 0 30.5 12.5t12.5 29.5v49q0 17 -12 29t-29 12h-90q-48 0 -81 -35l-88 -97h257z" />
    <glyph glyph-name="uniFEC4" unicode="&#x637;" horiz-adv-x="740" arabic-form="medial" 
d="M-14 132q0 14 14 14h65l103 112v436h124v-259q0 -22 -7 -42t-8 -21v0q1 0 8 5q28 20 63 31t73 11h62q36 0 67.5 -13.5t54.5 -36.5t36.5 -54.5t13.5 -67.5v-63q0 -16 11.5 -27t28.5 -11h45q14 0 14 -14v-118q0 -14 -14 -14h-24q-36 0 -68 14t-56 43q-26 -29 -58.5 -43
t-69.5 -14h-464q-6 0 -10 4.5t-4 10.5v117zM489 146q18 0 30 12.5t12 29.5v49q0 17 -12 29t-29 12h-90q-48 0 -81 -35l-89 -97h259z" />
    <glyph glyph-name="uniFEC6" unicode="&#x638;" horiz-adv-x="781" arabic-form="final" 
d="M107 146l103 112v436h124v-259q0 -11 -2.5 -22t-4.5 -20q-4 -11 -8 -21l3 2q1 0 5 3q28 20 63 31t73 11h62q36 0 67.5 -13.5t54.5 -36.5t36.5 -54.5t13.5 -67.5v-62q0 -17 11.5 -28t28.5 -11h45q14 0 14 -14v-118q0 -14 -14 -14h-24q-36 0 -68 13.5t-56 42.5
q-26 -29 -58.5 -42.5t-69.5 -13.5h-454v146h55zM531 146q18 0 30 12.5t12 29.5v49q0 17 -12 29t-29 12h-90q-48 0 -81 -35l-89 -97h259zM417 626h125v-125h-125v125z" />
    <glyph glyph-name="uniFEC7" unicode="&#x638;" horiz-adv-x="697" arabic-form="initial" 
d="M-10 142q4 4 10 4h66l103 111v437h123v-260q0 -11 -2.5 -22t-4.5 -20l-8 -20h1q2 0 4 2q62 45 139 45h62q36 0 67.5 -13.5t54.5 -36.5t36.5 -54.5t13.5 -67.5v-57q0 -39 -15 -74t-40.5 -60.5t-60.5 -40.5t-74 -15h-465q-14 0 -14 14v118q0 5 4 10zM231 146h257
q18 0 30.5 12.5t12.5 29.5v49q0 17 -12 29t-29 12h-90q-48 0 -81 -35zM375 501v125h125v-125h-125z" />
    <glyph glyph-name="uniFEC8" unicode="&#x638;" horiz-adv-x="740" arabic-form="medial" 
d="M-14 15v117q0 14 14 14h65l103 112v436h124v-259q0 -22 -7 -42t-8 -21v0q1 0 8 5q28 20 63 31t73 11h62q36 0 67.5 -13.5t54.5 -36.5t36.5 -54.5t13.5 -67.5v-63q0 -16 11.5 -27t28.5 -11h45q14 0 14 -14v-118q0 -14 -14 -14h-24q-36 0 -68 14t-56 43q-26 -29 -58.5 -43
t-69.5 -14h-464q-6 0 -10 4.5t-4 10.5zM489 146q18 0 30 12.5t12 29.5v49q0 17 -12 29t-29 12h-90q-48 0 -81 -35l-89 -97h259zM500 625v-125h-125v125h125z" />
    <glyph glyph-name="uniFECA" unicode="&#x639;" horiz-adv-x="634" arabic-form="final" 
d="M77 -21q24 51 67 83l66 50l-122 86v139q0 52 31 83.5t83 31.5h186q33 0 62 -13t51 -34.5t34.5 -51t12.5 -62.5v-26q0 -30 -14.5 -57t-37.5 -45l-32 -22q13 1 25 3q11 1 21.5 1.5t15.5 0.5h108q7 0 10.5 -5t3.5 -10v-117q0 -5 -3.5 -9.5t-10.5 -4.5h-138q-47 0 -90.5 10.5
t-85.5 29.5l-83 -58q-23 -16 -35.5 -43.5t-12.5 -57.5q0 -27 10.5 -51.5t29 -42.5t43 -28.5t52.5 -10.5h268v-146h-267q-57 0 -106.5 21.5t-86.5 58t-58.5 85.5t-21.5 103q0 58 25 109zM211 312v-39l114 -74l101 62v14q0 16 -11.5 26.5t-27.5 10.5h-176z" />
    <glyph glyph-name="uniFECB" unicode="&#x639;" horiz-adv-x="497" arabic-form="initial" 
d="M-10 142q4 4 11 4h84q-10 13 -13 31l-18 98q-3 15 -3 30q0 22 8.5 49.5t31.5 53.5t55.5 41.5t70.5 15.5h185v-141h-190q-17 0 -25.5 -11t-8.5 -23q0 -3 1 -7l27 -133l224 24l21 -135l-179 -23q-59 -8 -117.5 -12t-115.5 -4h-39q-12 0 -14 14v117q0 6 4 11z" />
    <glyph glyph-name="uniFECC" unicode="&#x639;" horiz-adv-x="581" arabic-form="medial" 
d="M-15 14v117q0 6 4 10.5t11 4.5h81q11 0 23.5 -0.5t23 -1t18 -1t8.5 -0.5l-89 59v142q0 54 31 85.5t84 31.5h192q34 0 63.5 -13t52 -35.5t35.5 -52t13 -63.5v-26q0 -31 -13.5 -59t-39.5 -45l-34 -24q1 0 8 0.5t17.5 1t22.5 1t24 0.5h60q8 0 10.5 -4.5t2.5 -10.5v-117
q0 -5 -3.5 -9.5t-9.5 -4.5h-98q-48 0 -95.5 11t-89.5 33q-88 -44 -187 -44h-111q-6 0 -10.5 4.5t-4.5 9.5zM214 261q18 -13 38 -27l51 -34l108 65v16q0 17 -11.5 28t-28.5 11h-183v-42q7 -5 26 -17z" />
    <glyph glyph-name="uniFECE" unicode="&#x63a;" horiz-adv-x="633" arabic-form="final" 
d="M77 -21q24 51 67 83l66 50l-122 86v139q0 52 31 83.5t83 31.5h186q33 0 62 -13t51 -34.5t34.5 -51t12.5 -62.5v-26q0 -30 -14.5 -57t-37.5 -45l-32 -22q13 1 25 3q11 1 21.5 1.5t15.5 0.5h108q7 0 10.5 -5t3.5 -10v-117q0 -5 -3.5 -9.5t-10.5 -4.5h-138q-47 0 -90.5 10.5
t-85.5 29.5l-83 -58q-23 -16 -35.5 -43.5t-12.5 -57.5q0 -27 10.5 -51.5t29 -42.5t43 -28.5t52.5 -10.5h268v-146h-267q-57 0 -106.5 21.5t-86.5 58t-58.5 85.5t-21.5 103q0 58 25 109zM325 199l101 62v14q0 16 -11.5 26.5t-27.5 10.5h-176v-39zM253 564v129h129v-129h-129z
" />
    <glyph glyph-name="uniFECF" unicode="&#x63a;" horiz-adv-x="493" arabic-form="initial" 
d="M-10 142q4 4 11 4h84q-10 13 -13 31l-18 98q-3 15 -3 30q0 22 8.5 49.5t31.5 53.5t55.5 41.5t70.5 15.5h185v-141h-190q-17 0 -25.5 -11t-8.5 -23q0 -3 1 -7l27 -133l224 24l21 -135l-179 -23q-59 -8 -117.5 -12t-115.5 -4h-39q-12 0 -14 14v117q0 6 4 11zM314 666v-125
h-125v125h125z" />
    <glyph glyph-name="uniFED0" unicode="&#x63a;" horiz-adv-x="581" arabic-form="medial" 
d="M-15 14v117q0 6 4 10.5t11 4.5h81q11 0 23.5 -0.5t23 -1t18 -1t8.5 -0.5l-89 59v142q0 54 31 85.5t84 31.5h192q34 0 63.5 -13t52 -35.5t35.5 -52t13 -63.5v-26q0 -31 -13.5 -59t-39.5 -45l-34 -24q1 0 8 0.5t17.5 1t22.5 1t24 0.5h60q8 0 10.5 -4.5t2.5 -10.5v-117
q0 -5 -3.5 -9.5t-9.5 -4.5h-98q-48 0 -95.5 11t-89.5 33q-88 -44 -187 -44h-111q-6 0 -10.5 4.5t-4.5 9.5zM214 261q18 -13 38 -27l51 -34l108 65v16q0 17 -11.5 28t-28.5 11h-183v-42q7 -5 26 -17zM253 693h129v-129h-129v129z" />
    <glyph glyph-name="uniFED2" unicode="&#x641;" horiz-adv-x="948" arabic-form="final" 
d="M52 403h124v-181q0 -31 22.5 -53.5t53.5 -22.5h236q10 0 20.5 -0.5t18.5 -0.5q-23 44 -23 90v29q0 40 17 76t44.5 63t63 43t72.5 16h17q40 0 74.5 -15t60.5 -41t41 -61t15 -74v-36q0 -45 -23 -91q6 1 18 1.5t16 0.5h28q6 0 10 -4.5t4 -10.5v-117q0 -6 -4.5 -10t-9.5 -4
h-105q-19 0 -34 1.5t-30 6t-32 12t-40 18.5q-22 -11 -39 -18.5t-32.5 -12t-30.5 -6t-34 -1.5h-308q-43 0 -81.5 16.5t-67 45t-45.5 67t-17 81.5v193zM649 192q23 -18 58 -30q35 12 57.5 29.5t22.5 34.5v27q0 29 -20.5 48.5t-49.5 19.5h-21q-29 0 -49.5 -19.5t-20.5 -48.5
v-27q0 -17 23 -34zM766 669v-125h-125v125h125z" />
    <glyph glyph-name="uniFED3" unicode="&#x641;" horiz-adv-x="488" arabic-form="initial" 
d="M-14 15v117q0 5 3.5 9.5t10.5 4.5h284q16 0 27.5 10.5t11.5 27.5v28q-16 -6 -32.5 -9.5t-34.5 -3.5h-46q-40 0 -73 16t-55.5 43.5t-30 55.5t-7.5 50q0 15 3 32l15 80q6 29 20.5 53.5t36 42t48.5 27.5t56 10h54q35 0 66 -13.5t53.5 -36.5t35.5 -54t13 -66v-252
q0 -39 -14.5 -73t-39.5 -59.5t-59 -40t-73 -14.5h-259q-6 0 -10 4.5t-4 10.5zM172 349q7 -9 18 -9h133v100q0 13 -8.5 21t-20.5 9h-84q-11 0 -19.5 -7.5t-10.5 -18.5l-13 -75v-5q0 -8 5 -15zM322 815v-125h-125v125h125z" />
    <glyph glyph-name="uniFED4" unicode="&#x641;" horiz-adv-x="506" arabic-form="medial" 
d="M-14 131q0 6 4 10.5t10 4.5h43q6 0 17 -0.5t14 -0.5q-11 23 -16.5 46t-5.5 45v29q0 42 16.5 78.5t43.5 63t62 41.5t72 15h17q40 0 74.5 -15t60.5 -41t41 -60.5t15 -74.5v-36q0 -22 -5.5 -45.5t-16.5 -45.5q3 0 14 0.5t19 0.5h41q7 0 10.5 -4.5t3.5 -10.5v-117
q0 -5 -4 -9.5t-10 -4.5h-118q-19 0 -34 1.5t-30.5 6t-32.5 11.5t-39 19q-22 -12 -39 -19t-32 -11.5t-30.5 -6t-33.5 -1.5h-117q-6 0 -9.5 4.5t-4.5 9.5v117zM196 192q21 -17 56 -30q35 13 57.5 30t22.5 35v27q0 28 -20.5 47.5t-49.5 19.5h-21q-29 0 -48 -19.5t-19 -47.5v-27
q0 -18 22 -35zM315 670v-125h-125v125h125z" />
    <glyph glyph-name="uniFED6" unicode="&#x642;" horiz-adv-x="740" arabic-form="final" 
d="M52 7v272h124v-254q0 -22 8 -41t22 -33t33 -22t40 -8h181q35 0 59 20.5t24 50.5v19q-31 -11 -64 -11h-48q-39 0 -72.5 16.5t-56 44.5t-30.5 56t-8 50q0 16 3 32l16 80q6 29 21 53t36 42t47.5 28t55.5 10h55q35 0 66 -13.5t54 -36.5t36 -53.5t13 -65.5v-97h73q6 0 10 -4.5
t4 -10.5v-117q0 -5 -4 -9.5t-10 -4.5h-73v-16q0 -44 -16.5 -82t-44.5 -66t-66 -44.5t-82 -16.5h-175q-48 0 -90 18t-73.5 49.5t-49.5 74t-18 90.5zM393 155q7 -9 19 -9h131v95q0 11 -8.5 20t-20.5 9h-81q-11 0 -19.5 -7t-10.5 -18l-15 -70v-5q0 -8 5 -15zM608 620v-125h-125
v125h125zM431 620v-125h-125v125h125z" />
    <glyph glyph-name="uniFED7" unicode="&#x642;" horiz-adv-x="488" arabic-form="initial" 
d="M-14 15v117q0 5 3.5 9.5t10.5 4.5h284q16 0 27 11t11 28v27q-32 -13 -66 -13h-46q-40 0 -73 16t-55.5 43.5t-30 55.5t-7.5 50q0 15 3 32l15 80q6 29 20.5 53.5t36 42t48.5 27.5t56 10h53q35 0 66 -13.5t54 -36.5t36 -53.5t13 -65.5v-253q0 -39 -14.5 -73t-40 -59.5
t-59 -40t-72.5 -14.5h-259q-6 0 -10 4.5t-4 10.5zM171 349q7 -9 19 -9h133v101q0 12 -8.5 20t-21.5 9h-83q-11 0 -20 -7.5t-11 -18.5l-13 -75v-5q0 -8 5 -15zM394 814v-125h-125v125h125zM217 814v-125h-125v125h125z" />
    <glyph glyph-name="uniFED8" unicode="&#x642;" horiz-adv-x="506" arabic-form="medial" 
d="M-14 14v117q0 6 3.5 10.5t10.5 4.5h43q7 0 18 -1t14 -1q-23 46 -23 91v30q0 42 16.5 78t44 62.5t62.5 41.5t72 15h17q39 0 74 -15t61 -41t41 -60.5t15 -74.5v-36q0 -45 -23 -91q3 0 14.5 1t18.5 1h41q7 0 10.5 -4.5t3.5 -10.5v-117q0 -5 -4 -9.5t-10 -4.5h-118
q-18 0 -33.5 1.5t-31 5.5t-32.5 11.5t-39 18.5q-22 -11 -38.5 -18.5t-32 -11.5t-30.5 -5.5t-34 -1.5h-117q-6 0 -10 4.5t-4 9.5zM174 253v-27q0 -18 21.5 -35t56.5 -30q35 13 58 30.5t23 34.5v27q0 28 -21 48t-49 20h-22q-28 0 -47.5 -19.5t-19.5 -48.5zM277 545v125h125
v-125h-125zM225 670v-125h-125v125h125z" />
    <glyph glyph-name="uniFEDA" unicode="&#x643;" horiz-adv-x="898" arabic-form="final" 
d="M52 403h124v-182q0 -32 21.5 -53.5t53.5 -21.5h414q17 0 28.5 11.5t11.5 28.5v546h124v-546q0 -17 12 -28.5t28 -11.5h29q14 0 14 -14v-118q0 -14 -14 -14h-8q-36 0 -67 12.5t-56 34.5q-25 -22 -57 -34.5t-67 -12.5h-380q-43 0 -81.5 16.5t-67.5 45.5t-45.5 67.5
t-16.5 81.5v192zM343 445q-3 0 -7 1q-8 4 -13 14q-1 1 -5 8.5t-6 12.5q-11 22 -11 44t8 40t22.5 32t33.5 22l84 35l37 -92l-79 -33q-5 -2 -6.5 -6t-1.5 -7q0 -4 2 -9q2 -3 6 -11t9 -15l106 56l42 -85l-246 -126l-43 90z" />
    <glyph glyph-name="uniFEDB" unicode="&#x643;" horiz-adv-x="411" arabic-form="initial" 
d="M-14 132q0 5 4 9.5t9 4.5h140q26 0 45.5 14t29 33t9.5 40q0 1 -0.5 12.5t-14.5 29.5l-174 235v85l349 175l55 -108l-276 -138l147 -178q41 -51 42 -83t1 -36q0 -56 -26.5 -106.5t-78.5 -85.5t-119 -35h-128q-6 0 -10 4.5t-4 10.5v117z" />
    <glyph glyph-name="uniFEDC" unicode="&#x643;" horiz-adv-x="515" arabic-form="medial" 
d="M-14 132q0 5 4.5 9.5t9.5 4.5h139q26 0 45 13.5t29 32.5t10 41q0 1 -0.5 13t-14.5 30l-174 235v85l349 175l55 -108l-276 -138l270 -344q12 -16 31.5 -25.5t39.5 -9.5h12q14 0 14 -14v-118q0 -5 -4 -9.5t-10 -4.5h-6q-40 0 -76 18t-59 49l-43 59q-14 -25 -34.5 -47.5
t-46 -40t-56.5 -28t-66 -10.5h-128q-6 0 -10 4.5t-4 10.5v117z" />
    <glyph glyph-name="uniFEDE" unicode="&#x644;" horiz-adv-x="774" arabic-form="final" 
d="M52 329h124v-255q0 -21 8 -40t22.5 -33t33.5 -22t40 -8h181q18 0 33 6.5t26.5 18t18 26.5t6.5 32v640h123v-509q0 -16 12 -27t28 -12h66q14 0 14 -14v-118q0 -5 -4 -9.5t-10 -4.5h-41q-20 0 -36 5.5t-30 21.5v-16q0 -29 -14 -61.5t-40.5 -60.5t-65 -46t-88.5 -18h-175
q-48 0 -90 18t-73.5 49.5t-50 74t-18.5 90.5v272z" />
    <glyph glyph-name="uniFEDF" unicode="&#x644;" horiz-adv-x="271" arabic-form="initial" 
d="M-14 14v118q0 14 14 14h65q17 0 28.5 11.5t11.5 28.5v508h123v-508q0 -38 -14.5 -72t-40 -59.5t-59 -40t-72.5 -14.5h-42q-5 0 -9.5 4t-4.5 10z" />
    <glyph glyph-name="uniFEE0" unicode="&#x644;" horiz-adv-x="343" arabic-form="medial" 
d="M0 146h70q17 0 28.5 11.5t11.5 28.5v508h124v-513q2 -15 13 -25t27 -10h69q5 0 9.5 -3.5t4.5 -10.5v-118q0 -6 -4.5 -10t-9.5 -4h-49q-35 0 -66.5 12.5t-55.5 38.5q-25 -26 -57 -38.5t-67 -12.5h-48q-14 0 -14 14v118q0 14 14 14z" />
    <glyph glyph-name="uniFEE2" unicode="&#x645;" horiz-adv-x="738" arabic-form="final" 
d="M52 -251v483q0 39 14.5 73t40 59.5t59.5 40t73 14.5h242q36 0 67.5 -13.5t55 -37t37 -54.5t13.5 -67v-61q0 -17 11 -28.5t26 -11.5h3h44q14 0 14 -14v-118q0 -14 -14 -14h-24q-29 0 -55.5 8.5t-49.5 28.5q-36 -37 -88 -37h-113q-39 0 -71.5 16.5t-54.5 43.5t-30 55t-8 50
q0 15 3 31l15 82h-47q-16 0 -28 -11t-12 -28v-490h-123zM374 154q6 -8 16 -8h2h138v102q0 12 -9 21t-21 9h-110l-21 -105v-5q0 -8 5 -14z" />
    <glyph glyph-name="uniFEE3" unicode="&#x645;" horiz-adv-x="528" arabic-form="initial" 
d="M0 146h32q17 0 29.5 10t16.5 27l20 103q5 29 20 53.5t36.5 42t48.5 27.5t56 10h56q36 0 67 -13.5t54.5 -37t37 -54.5t13.5 -67v-115q0 -27 -10.5 -51t-28.5 -42t-42 -28.5t-51 -10.5h-114q-29 0 -56.5 11.5t-50.5 43.5q-23 -31 -51 -43t-60 -12h-23q-5 0 -9.5 4t-4.5 10
v118q0 14 14 14zM207 154q7 -8 18 -8h138v102q0 12 -8.5 21t-21.5 9h-86q-11 0 -19 -7t-10 -18l-16 -80v-5q0 -8 5 -14z" />
    <glyph glyph-name="uniFEE4" unicode="&#x645;" horiz-adv-x="566" arabic-form="medial" 
d="M-14 14v118q0 14 14 14h32q17 0 29.5 10t16.5 27l20 103q5 29 20 53.5t36.5 42t48.5 27.5t56 10h56q36 0 67 -13.5t54.5 -37t37 -54.5t13.5 -67v-61q0 -17 11.5 -29t28.5 -12h39q5 0 9.5 -4t4.5 -10v-117q0 -6 -4.5 -10t-9.5 -4h-18q-29 0 -56.5 9t-49.5 32
q-17 -23 -40 -32t-47 -9h-114q-29 0 -56.5 11.5t-50.5 43.5q-23 -31 -51 -43t-60 -12h-23q-5 0 -9.5 4t-4.5 10zM207 154q7 -8 18 -8h138v102q0 12 -8.5 21t-21.5 9h-86q-11 0 -19 -7t-10 -18l-16 -80v-5q0 -8 5 -14z" />
    <glyph glyph-name="uniFEE6" unicode="&#x646;" horiz-adv-x="770" arabic-form="final" 
d="M52 56v301h124v-284q0 -22 8 -40.5t22 -32.5t33 -22t40 -8h181q18 0 33 6.5t26.5 18t18 26.5t6.5 32v320h124v-188q0 -17 10.5 -28t26.5 -11h65q6 0 10 -4.5t4 -10.5v-117q0 -5 -4 -9.5t-10 -4.5h-39q-29 0 -44.5 10t-20.5 17v-21q0 -38 -17 -71t-45.5 -57.5t-66 -39
t-78.5 -14.5h-175q-48 0 -90 18t-73.5 49.5t-50 74t-18.5 90.5zM297 498h125v-125h-125v125z" />
    <glyph glyph-name="uniFEE7" unicode="&#x646;" horiz-adv-x="352" arabic-form="initial" 
d="M-14 131q0 6 4 10.5t10 4.5h146q17 0 28.5 11.5t11.5 28.5v216h124v-215q0 -39 -14.5 -73t-40 -59.5t-59.5 -40t-73 -14.5h-123q-6 0 -10 4.5t-4 9.5v117zM184 609h125v-125h-125v125z" />
    <glyph glyph-name="uniFEE8" unicode="&#x646;" horiz-adv-x="386" arabic-form="medial" 
d="M-14 131q0 6 4.5 10.5t9.5 4.5h94q17 0 30 10.5t16 27.5l39 188l121 -22l-31 -158q-1 -5 -1 -10q0 -13 9.5 -24.5t28.5 -11.5h80q6 0 10 -4.5t4 -10.5v-117q0 -5 -4 -9.5t-10 -4.5h-81q-31 0 -61.5 15t-45.5 41q-19 -26 -51.5 -41t-64.5 -15h-82q-5 0 -9.5 4t-4.5 10v117
zM279 579v-125h-125v125h125z" />
    <glyph glyph-name="uniFEEA" unicode="&#x647;" horiz-adv-x="525" arabic-form="final" 
d="M63 335q10 29 28.5 53.5t44.5 42.5t57 25l128 30v73h124v-367q0 -18 15 -32t35 -14h30q14 0 14 -14v-118q0 -6 -4.5 -10t-9.5 -4h-30q-52 0 -88.5 25.5t-60.5 67.5q-13 -9 -33.5 -13.5t-37.5 -4.5h-86q-27 0 -52 11t-44 29.5t-30 43.5t-11 52v64q0 31 11 60zM176 265v-44
h145v132l-94 -22q-23 -6 -37 -24t-14 -42z" />
    <glyph glyph-name="uniFEEB" unicode="&#x647;" horiz-adv-x="781" arabic-form="initial" 
d="M-14 14v118q0 14 14 14h91q-10 6 -10 24q0 1 0.5 11t3.5 26l15 71q6 29 21 54t36.5 43t48.5 28t57 10l42 -1q35 0 66.5 -13.5t54.5 -36.5t36.5 -54t13.5 -67v-47q0 -20 -3.5 -33t-4.5 -15h147v146q0 17 -10.5 31.5t-27.5 20.5l-368 115l34 128l356 -111q32 -9 57.5 -28
t44 -44.5t28.5 -55.5t10 -62v-149q0 -28 -11 -52.5t-30 -43.5t-44 -30t-53 -11h-165v76q-4 -12 -16 -25.5t-28.5 -24.5t-36 -18.5t-39.5 -7.5h-316q-14 0 -14 14zM212 156q7 -10 19 -10h121v108q0 12 -8.5 20.5t-21.5 8.5h-72q-11 0 -20 -7.5t-11 -18.5l-13 -80v-5
q0 -9 6 -16z" />
    <glyph glyph-name="uniFEEC" unicode="&#x647;" horiz-adv-x="622" arabic-form="medial" 
d="M0 146h49v93q0 35 13.5 66t36.5 54t54 36.5t66 13.5h37q30 0 56.5 -10t47.5 -27.5t36 -42t21 -53.5l16 -76q3 -15 3 -30q0 -21 -8.5 -49.5t-32 -57t-56.5 -46t-70 -17.5h-29q-19 0 -36 4q-5 1 -25 1q-48 0 -179 -5l170 13v0q2 -1 2 -10v-3q0 -14 7.5 -27.5t25.5 -16.5
l120 -32l108 131q35 42 79 66.5t98 24.5h12q5 0 9.5 -4t4.5 -10v-117q0 -13 -14 -15h-29q-21 0 -41 -10t-34 -29q-4 -6 -16.5 -21.5t-28 -35.5t-32.5 -41.5t-31 -39.5t-22.5 -29t-9.5 -11v0l-240 71q-20 6 -36 20.5t-27.5 34.5t-17.5 43.5t-6 47.5h-51q-14 2 -14 15v117
q0 14 14 14zM173 239v-93h116q11 0 17 7.5t6 15.5v5l-12 68q-5 25 -31 25h-68q-11 0 -19.5 -8.5t-8.5 -19.5z" />
    <glyph glyph-name="uniFEEE" unicode="&#x648;" horiz-adv-x="520" arabic-form="final" 
d="M47 195l17 92q5 29 20 53t36.5 42t48.5 28t56 10h56q36 0 67 -13.5t54.5 -37t37 -55t13.5 -67.5v-101h67q14 0 14 -14v-118q0 -14 -14 -14h-68q0 -4 -1 -9q-3 -35 -16.5 -66t-36 -57.5t-52 -46.5t-64.5 -32l-146 -50l-37 117l148 50q35 12 58 38t23 64v6
q-13 -6 -30.5 -10t-34.5 -4h-55q-39 0 -71.5 16.5t-55 43.5t-30 55t-7.5 49q0 15 3 31zM173 155q7 -9 18 -9h138v102q0 12 -8.5 21t-21.5 10h-86q-22 0 -29 -25l-16 -81v-4q0 -8 5 -14z" />
    <glyph glyph-name="uniFEF0" unicode="&#x649;" horiz-adv-x="749" arabic-form="final" 
d="M55 -2v272h124v-254q0 -21 8 -40t22.5 -33.5t33.5 -22.5t40 -8h190q31 0 53 21t22 52v15h-199v146h400q14 0 14 -13v-118q0 -6 -4 -10.5t-10 -4.5h-81q1 0 2 -5t1 -13v-10q0 -44 -16.5 -81.5t-45.5 -65.5t-68 -43.5t-84 -15.5h-170q-48 0 -90 18t-73.5 49.5t-50 74
t-18.5 90.5z" />
    <glyph glyph-name="uniFEF2" unicode="&#x64a;" horiz-adv-x="746" arabic-form="final" 
d="M52 -2v272h124v-254q0 -21 8 -40t22.5 -33.5t33.5 -22.5t40 -8h190q31 0 53 21t22 52v15h-199v146h400q14 0 14 -13v-118q0 -6 -4 -10.5t-10 -4.5h-81q1 0 2 -5t1 -13v-10q0 -44 -16.5 -81.5t-45.5 -65.5t-68 -43.5t-84 -15.5h-170q-48 0 -90 18t-73.5 49.5t-50 74
t-18.5 90.5zM381 -443v125h125v-125h-125zM206 -318h123v-125h-123v125z" />
    <glyph glyph-name="uniFEF3" unicode="&#x64a;" horiz-adv-x="471" arabic-form="initial" 
d="M-14 130q0 6 4 11t10 5h262q17 0 28.5 11.5t11.5 28.5v216h124v-215q0 -39 -14.5 -73t-40 -59.5t-59.5 -40t-73 -14.5h-239q-6 0 -10 4.5t-4 9.5v116zM315 -120v-125h-125v125h125zM138 -120v-125h-123v125h123z" />
    <glyph glyph-name="uniFEF4" unicode="&#x64a;" horiz-adv-x="402" arabic-form="medial" 
d="M-14 131q0 6 4.5 10.5t9.5 4.5h102q17 0 30 10.5t16 27.5l39 188l121 -22l-31 -158q-1 -5 -1 -10q0 -13 9.5 -24.5t28.5 -11.5h88q6 0 10 -4.5t4 -10.5v-117q0 -5 -4 -9.5t-10 -4.5h-89q-31 0 -61.5 15t-45.5 41q-19 -26 -51.5 -41t-64.5 -15h-90q-5 0 -9.5 4t-4.5 10
v117zM231 -245v125h125v-125h-125zM55 -120h124v-125h-124v125z" />
    <glyph glyph-name=".notdef" horiz-adv-x="250" 
 />
    <glyph glyph-name=".null" 
 />
    <glyph glyph-name=".null" 
 />
    <glyph glyph-name="uni000D" unicode="&#xd;" horiz-adv-x="250" 
 />
    <glyph glyph-name="space" unicode=" " horiz-adv-x="90" 
 />
    <glyph glyph-name="exclam" unicode="!" horiz-adv-x="273" 
d="M69 0v143h134v-143h-134zM72 255l-15 422h159l-16 -422h-128z" />
    <glyph glyph-name="quotedbl" unicode="&#x22;" horiz-adv-x="405" 
d="M34 677h141l-8 -243h-129zM231 677h140l-7 -243h-129z" />
    <glyph glyph-name="numbersign" unicode="#" horiz-adv-x="644" 
d="M57 144v122h93v113h-93v122h93v158h126v-158h93v158h127v-158h92v-122h-92v-113h92v-122h-92v-144h-127v144h-93v-144h-126v144h-93zM276 266h93v113h-93v-113z" />
    <glyph glyph-name="dollar" unicode="$" horiz-adv-x="576" 
d="M57 474q1 24 7 58t29 64.5t70.5 52.5t131.5 23l18 140h80l-18 -147q33 -3 66.5 -7.5t65.5 -12.5l-12 -116q-31 3 -70.5 6.5t-65.5 5.5l-18 -144q38 -13 70.5 -26.5t56.5 -34t37.5 -52t13.5 -80.5q0 -107 -62 -161.5t-169 -54.5h3l-16 -120q-80 3 -80 8l14 118
q-36 5 -69 11t-75 14l14 113q15 -1 35.5 -3.5t41.5 -4.5t39.5 -4t29.5 -3l21 160q-39 11 -74 26.5t-61 39t-40 54.5t-14 71v6zM202 483q0 -18 12 -31t50 -29l15 120q-42 -3 -59.5 -19.5t-17.5 -38.5v-2zM358 141q16 18 16 47q0 23 -10.5 36.5t-40.5 28.5l-16 -136
q35 5 51 24z" />
    <glyph glyph-name="percent" unicode="%" horiz-adv-x="618" 
d="M332 134q0 147 123 147t123 -147q0 -146 -123 -146t-123 146zM162 672q122 0 122 -146q0 -147 -122 -147t-122 147q0 146 122 146zM388 703l79 -28l-241 -710l-78 26zM427 134q0 -60 28 -60t28 61q0 60 -28 60t-28 -61zM135 526q0 -61 27 -61t27 61q0 60 -27 60t-27 -60z
" />
    <glyph glyph-name="ampersand" unicode="&#x26;" horiz-adv-x="766" 
d="M52 200q0 72 32 120t107 78q-40 47 -54 80.5t-14 68.5q0 85 55.5 126t157.5 41q101 0 155 -41t54 -122q0 -36 -12 -65.5t-31.5 -54.5t-43 -45.5t-46.5 -38.5l86 -87q3 7 6 24.5t5.5 36.5t4 36t1.5 24l143 -4q-8 -57 -21 -107t-31 -95l108 -93l-83 -95l-102 82
q-23 -21 -46 -36t-49.5 -25t-58.5 -15t-72 -5q-251 0 -251 212zM201 207q0 -88 106 -88q18 0 37 2.5t35.5 6t29.5 9t20 11.5l-165 165q-31 -18 -47 -45.5t-16 -60.5zM279 510q6 -16 15 -31t19.5 -28t18.5 -22q11 8 22.5 20.5t20.5 27t15 30t6 29.5q0 26 -15 40t-45 14
q-32 0 -48 -14.5t-16 -37.5q0 -13 7 -28z" />
    <glyph glyph-name="quotesingle" unicode="'" horiz-adv-x="209" 
d="M38 434l-4 243h141l-8 -243h-129z" />
    <glyph glyph-name="parenleft" unicode="(" horiz-adv-x="347" 
d="M56 301q0 53 9.5 113.5t25.5 120.5t38 116t46 99h138q-15 -39 -31.5 -98.5t-31 -124t-23.5 -125t-9 -100.5q0 -87 22.5 -190.5t72.5 -236.5h-138q-25 35 -47 90t-38 116t-25 119.5t-9 100.5z" />
    <glyph glyph-name="parenright" unicode=")" horiz-adv-x="347" 
d="M34 -125q50 133 72.5 236.5t22.5 190.5q0 40 -9 100.5t-23.5 125t-31 124t-31.5 98.5h139q24 -43 45.5 -99t37.5 -116t25.5 -120.5t9.5 -113.5q0 -42 -9 -100.5t-25 -119.5t-37.5 -116t-46.5 -90h-139z" />
    <glyph glyph-name="asterisk" unicode="*" horiz-adv-x="569" 
d="M150 479l135 -134l134 134l93 -93l-134 -134l134 -135l-93 -93l-134 135l-135 -135l-93 93l135 135l-135 134z" />
    <glyph glyph-name="plus" unicode="+" horiz-adv-x="576" 
d="M57 317h164v162h131v-162h167v-132h-167v-164h-131v164h-164v132z" />
    <glyph glyph-name="comma" unicode="," horiz-adv-x="268" 
d="M55 35q0 13 4 32t9 32l49 149l75 -26l-41 -130l62 -24l-45 -127q-11 4 -26.5 10t-29.5 14q-22 11 -39.5 29.5t-17.5 40.5z" />
    <glyph glyph-name="hyphen" unicode="-" horiz-adv-x="398" 
d="M52 197v134h294v-134h-294z" />
    <glyph glyph-name="period" unicode="." horiz-adv-x="271" 
d="M69 0v143h134v-143h-134z" />
    <glyph glyph-name="slash" unicode="/" horiz-adv-x="475" 
d="M157 -38l-128 46l289 712l129 -45z" />
    <glyph glyph-name="zero" unicode="0" horiz-adv-x="600" 
d="M103 592q64 82 196 82q131 0 195 -82t64 -260q0 -177 -64 -259.5t-195 -82.5q-132 0 -196 82.5t-64 259.5q0 178 64 260zM201 234q5 -41 17.5 -66t32.5 -36t48 -11t47.5 11t32 36t18 65.5t5.5 98.5q0 59 -5.5 99t-18 65t-32 36t-47.5 11t-48 -11t-32.5 -36t-18 -65
t-5.5 -99q0 -58 6 -98z" />
    <glyph glyph-name="one" unicode="1" horiz-adv-x="444" 
d="M237 0v489l-137 -88l-69 113l220 146h137v-660h-151z" />
    <glyph glyph-name="two" unicode="2" horiz-adv-x="545" 
d="M189 259l84 91q27 32 38.5 57t11.5 54q0 42 -21 60t-63 18q-35 0 -71.5 -3t-74.5 -8l-24 -3l-7 117q99 30 205 30q211 0 211 -193q0 -23 -2.5 -43.5t-8.5 -38.5q-13 -41 -45.5 -81t-93.5 -95l-102 -87h262v-134h-430v130z" />
    <glyph glyph-name="three" unicode="3" horiz-adv-x="558" 
d="M65 137q57 -9 100.5 -13.5t72.5 -4.5q60 0 83.5 18.5t23.5 52.5q0 39 -24.5 59.5t-62.5 20.5h-133v124h133q31 0 53.5 22t22.5 68q0 56 -100 56q-24 0 -57.5 -3t-78.5 -10l-26 -4l-9 111q45 20 95.5 29t106.5 9q117 0 170.5 -42.5t53.5 -136.5q0 -55 -16.5 -89t-55.5 -64
q25 -14 41 -26.5t25.5 -27.5t13 -35t3.5 -50q0 -110 -54 -161.5t-173 -51.5q-80 0 -182 27l-33 8z" />
    <glyph glyph-name="four" unicode="4" horiz-adv-x="561" 
d="M40 219l158 441h166l-174 -424h121v180h152v-180h58v-131h-58v-105h-152v105h-271v114z" />
    <glyph glyph-name="five" unicode="5" horiz-adv-x="582" 
d="M58 26l17 111q60 -10 111 -14.5t93 -4.5q88 0 88 92q0 39 -17.5 60t-54.5 21q-33 0 -56 -5t-38 -11t-22.5 -11t-8.5 -6l-91 19l18 383h407v-131h-289l-17 -127q29 10 57.5 15t60.5 5q102 0 154.5 -50t52.5 -153q0 -110 -58.5 -171t-164.5 -61q-22 0 -50 2.5t-56 7t-54 10
t-45 10.5z" />
    <glyph glyph-name="six" unicode="6" horiz-adv-x="620" 
d="M130 589q71 83 204 83q23 0 49.5 -3t53.5 -7.5t53.5 -10t48.5 -10.5l-13 -115q-103 15 -178 15q-68 0 -100.5 -33.5t-32.5 -104.5q37 10 66 16t51 6q228 0 228 -209q0 -115 -63.5 -171.5t-188.5 -56.5q-123 0 -186.5 87.5t-63.5 253.5q0 176 72 260zM214 275
q0 -80 25.5 -118t76.5 -38q42 0 65 23.5t23 68.5q0 83 -82 83q-25 0 -55 -6.5t-53 -12.5z" />
    <glyph glyph-name="seven" unicode="7" horiz-adv-x="519" 
d="M251 -12l-140 38l220 466v34h-274v134h425v-168z" />
    <glyph glyph-name="eight" unicode="8" horiz-adv-x="639" 
d="M64 174q0 50 17.5 89t58.5 76q-36 32 -50.5 67.5t-14.5 83.5q0 47 22.5 81.5t57 57t76 33t79.5 10.5t82 -10.5t81 -33t61.5 -57t24.5 -82.5q0 -26 -3 -46t-10.5 -37.5t-20 -33.5t-30.5 -33q36 -35 55 -70.5t19 -85.5q0 -98 -69.5 -146.5t-189.5 -48.5q-123 0 -184.5 45.5
t-61.5 140.5zM249 143q23 -20 68 -20q89 0 89 73q0 51 -46 72h-84q-50 -21 -50 -71q0 -35 23 -54zM276 396h84q36 33 36 75q0 65 -79 65q-80 0 -80 -70q0 -37 39 -70z" />
    <glyph glyph-name="nine" unicode="9" horiz-adv-x="596" 
d="M62 448q0 109 65.5 166.5t187.5 57.5q121 0 184 -87.5t63 -257.5q0 -176 -70 -257.5t-208 -81.5q-40 0 -82 6t-87 17l-32 8l13 115q105 -15 189 -15q121 0 121 147q-50 -15 -74 -21.5t-41 -6.5q-111 0 -170 53.5t-59 156.5zM217 451q0 -82 87 -82q21 0 43.5 4t45.5 12
l14 4q0 152 -102 152q-42 0 -65 -23t-23 -67z" />
    <glyph glyph-name="colon" unicode=":" horiz-adv-x="269" 
d="M68 0v143h135v-143h-135zM68 316v143h135v-143h-135z" />
    <glyph glyph-name="semicolon" unicode=";" horiz-adv-x="268" 
d="M100 186q15 -5 33 -12.5t32 -16.5q17 -11 31 -27.5t16 -35.5q1 -4 1 -9q0 -11 -4 -28t-8 -30l-50 -148l-75 27l41 129l-62 24zM67 447h133v-142h-133v142z" />
    <glyph glyph-name="less" unicode="&#x3c;" horiz-adv-x="484" 
d="M40 191v120l404 178v-148l-244 -87l244 -96v-148z" />
    <glyph glyph-name="equal" unicode="=" horiz-adv-x="560" 
d="M57 79v132h447v-132h-447zM504 424v-132h-447v132h447z" />
    <glyph glyph-name="greater" unicode="&#x3e;" horiz-adv-x="484" 
d="M444 311v-120l-404 -181v148l244 96l-244 87v148z" />
    <glyph glyph-name="question" unicode="?" horiz-adv-x="444" 
d="M34 654q84 36 183 36q97 0 144.5 -39t47.5 -111v-6q0 -37 -3 -64.5t-11 -49t-23 -39t-41 -35.5q-44 -30 -58 -50t-14 -46v-29h-117l-5 8q-6 8 -12.5 21t-11.5 30.5t-5 37.5q0 13 15 31t34.5 36.5t40 35t30.5 25.5q12 11 21 28t9 35q0 50 -79 50q-58 0 -138 -15zM262 143
v-143h-134v143h134z" />
    <glyph glyph-name="at" unicode="@" horiz-adv-x="1015" 
d="M52 256q0 116 33 204.5t94 148.5t148 90.5t195 30.5q107 0 189.5 -28.5t138.5 -84t84.5 -135.5t28.5 -184q0 -82 -13 -138.5t-38.5 -91.5t-62.5 -51t-84 -16q-45 0 -81.5 15t-53.5 40q-78 -55 -143 -55q-99 0 -144 62t-45 192q0 126 43.5 185t144.5 59q18 0 43 -8.5
t42 -16.5v12h148v-176q0 -51 1 -86.5t4.5 -57.5t12 -32t23.5 -10q17 0 28 9t17.5 29.5t9 53.5t2.5 82q0 155 -71 229t-227 74q-155 0 -238 -91t-83 -259q0 -88 18.5 -151t57.5 -103t99.5 -59t144.5 -19l144 9l5 -128q-42 -5 -79 -7.5t-71 -2.5q-224 0 -344.5 119t-120.5 347
zM502 130q35 0 75 21q-6 32 -6 91v120q-17 4 -30.5 6t-24.5 2q-22 0 -35.5 -5.5t-21 -19t-10.5 -36t-3 -56.5q0 -123 56 -123z" />
    <glyph glyph-name="A" unicode="A" horiz-adv-x="608" 
d="M163 678h282l145 -678h-151l-22 111h-226l-21 -111h-152zM389 242l-61 311h-48l-61 -311h170z" />
    <glyph glyph-name="B" unicode="B" horiz-adv-x="584" 
d="M325 677q109 0 160.5 -44t51.5 -142q0 -50 -15.5 -83t-55.5 -61q82 -36 82 -149q0 -100 -57 -149t-165 -49h-274v677h273zM318 131q41 0 58.5 16t17.5 56q0 35 -15.5 52t-58.5 17h-115v-141h113zM205 546v-142h111q69 0 69 70q0 35 -17.5 53.5t-50.5 18.5h-112z" />
    <glyph glyph-name="C" unicode="C" horiz-adv-x="535" 
d="M45 463q9 62 36.5 112.5t78 82.5t132.5 32q95 0 207 -28l-5 -120q-50 7 -89 10.5t-69 3.5q-44 0 -72.5 -19t-44.5 -50.5t-21.5 -72.5t-5.5 -85q0 -36 3.5 -73t17 -67t41.5 -49t77 -19q33 0 74 3.5t90 9.5l2 -123q-55 -12 -103 -17.5t-89 -5.5q-78 0 -129.5 26.5
t-82.5 73.5t-44 111.5t-13 140.5q0 60 9 123z" />
    <glyph glyph-name="D" unicode="D" horiz-adv-x="611" 
d="M281 678q87 0 144.5 -24.5t91 -68.5t47 -105t13.5 -134q0 -78 -15 -142t-49.5 -109t-91 -70t-140.5 -25h-225v678h225zM207 131h74q49 0 77 19.5t42 50t17.5 68t3.5 74.5q0 42 -4 79t-18.5 64.5t-42.5 43.5t-75 16h-74v-415z" />
    <glyph glyph-name="E" unicode="E" horiz-adv-x="537" 
d="M500 678v-132h-293v-141h233v-132h-233v-142h293v-131h-444v678h444z" />
    <glyph glyph-name="F" unicode="F" horiz-adv-x="512" 
d="M494 678v-132h-287v-185h233v-131h-233v-230h-151v678h438z" />
    <glyph glyph-name="G" unicode="G" horiz-adv-x="608" 
d="M37 343q0 93 15 159t48 108t86.5 61t130.5 19q42 0 91.5 -5t104.5 -16l37 -7l-4 -117q-58 6 -106 8.5t-86 2.5q-56 0 -88 -22.5t-48.5 -56.5t-21 -75t-4.5 -77q0 -32 3.5 -68.5t17.5 -67t42 -50.5t76 -20h46q18 0 23 1v115h-73v131h223v-355q-76 -12 -132.5 -17.5
t-91.5 -5.5q-81 0 -136.5 28.5t-89 77t-48.5 113t-15 136.5z" />
    <glyph glyph-name="H" unicode="H" horiz-adv-x="643" 
d="M207 678v-272h232v272h151v-678h-151v275h-232v-275h-151v678h151z" />
    <glyph glyph-name="I" unicode="I" horiz-adv-x="265" 
d="M56 0v677h151v-677h-151z" />
    <glyph glyph-name="J" unicode="J" horiz-adv-x="272" 
d="M20 62q36 0 52 14.5t16 47.5v554h151v-559q0 -100 -55.5 -144.5t-163.5 -44.5v132z" />
    <glyph glyph-name="K" unicode="K" horiz-adv-x="577" 
d="M56 677h151v-291l89 10l96 281h172l-137 -338l139 -339h-173l-99 265l-87 -10v-255h-151v677z" />
    <glyph glyph-name="L" unicode="L" horiz-adv-x="462" 
d="M56 0v678h151v-544h237v-134h-388z" />
    <glyph glyph-name="M" unicode="M" horiz-adv-x="830" 
d="M311 677l104 -476l104 476h255v-677h-151v508h-15l-119 -477h-149l-118 477h-15v-508h-151v677h255z" />
    <glyph glyph-name="N" unicode="N" horiz-adv-x="664" 
d="M308 678l141 -547h9v547h151v-678h-245l-149 546h-8v-546h-151v678h252z" />
    <glyph glyph-name="O" unicode="O" horiz-adv-x="640" 
d="M36 336q0 122 28 199.5t90.5 116t165.5 38.5q104 0 166.5 -38.5t90 -116t27.5 -199.5q0 -118 -26.5 -194t-89.5 -115t-168 -39q-103 0 -165 37t-90.5 113.5t-28.5 197.5zM192 336q0 -74 9.5 -120t37.5 -71.5t81 -25.5q50 0 78 21t39.5 68.5t11.5 127.5q0 81 -12 128.5
t-40 71t-77 23.5q-48 0 -76 -23.5t-40 -71.5t-12 -128z" />
    <glyph glyph-name="P" unicode="P" horiz-adv-x="579" 
d="M56 0v678h250q123 0 184.5 -60.5t61.5 -178.5q0 -121 -62.5 -185t-183.5 -64h-99v-190h-151zM207 320h98q95 0 95 119q0 57 -22 83t-73 26h-98v-228z" />
    <glyph glyph-name="Q" unicode="Q" horiz-adv-x="640" 
d="M52 494q15 66 48.5 109.5t87.5 65t132 21.5t132 -21t88 -64.5t49 -110t15 -156.5q0 -119 -27 -190t-76 -109l83 -133l-138 -64l-90 147q-4 -1 -13 -1h-21q-78 0 -132.5 19t-88.5 61t-49.5 108t-15.5 160q0 91 16 158zM192 334q0 -30 2.5 -67.5t15 -70t38.5 -55t72 -22.5
q37 0 61.5 10t39.5 34.5t21.5 65.5t6.5 103q0 66 -7 109.5t-22 69.5t-39 37t-59 11q-36 0 -61 -11.5t-40.5 -37.5t-22 -69.5t-6.5 -106.5z" />
    <glyph glyph-name="R" unicode="R" horiz-adv-x="601" 
d="M320 678q123 0 184 -56.5t61 -165.5q0 -133 -95 -200l90 -256h-166l-69 220h-118v-220h-151v678h264zM207 548v-198h116q42 0 64.5 27t22.5 72t-24 72t-66 27h-113z" />
    <glyph glyph-name="S" unicode="S" horiz-adv-x="553" 
d="M101 638q62 52 176 52q19 0 39 -1.5t45.5 -5t59 -9t78.5 -13.5l-12 -118q-45 5 -97 10t-103 5q-98 0 -98 -57q0 -21 20 -37.5t46 -28.5t51 -20t36 -12q33 -12 63.5 -28.5t54.5 -40.5t38.5 -57.5t14.5 -79.5q0 -49 -17 -88t-48.5 -66t-76.5 -41.5t-100 -14.5
q-53 0 -110.5 11t-114.5 22l16 116q135 -18 205 -18q95 0 95 78q0 29 -34.5 48t-84.5 35q-59 17 -98.5 36.5t-63 43.5t-33.5 53.5t-10 67.5q0 105 63 158z" />
    <glyph glyph-name="T" unicode="T" horiz-adv-x="518" 
d="M10 678h500v-134h-174v-544h-151v544h-175v134z" />
    <glyph glyph-name="U" unicode="U" horiz-adv-x="639" 
d="M208 678v-447q0 -112 111 -112t111 112v447h152v-444q0 -127 -64.5 -186.5t-198.5 -59.5t-198.5 59.5t-64.5 186.5v444h152z" />
    <glyph glyph-name="V" unicode="V" horiz-adv-x="620" 
d="M19 677h159l109 -546h43l109 546h159l-153 -677h-273z" />
    <glyph glyph-name="W" unicode="W" horiz-adv-x="948" 
d="M18 677h159l77 -548h12l117 550h175l118 -550h12l77 548h159l-128 -677h-223l-102 501l-102 -501h-224z" />
    <glyph glyph-name="X" unicode="X" horiz-adv-x="601" 
d="M20 0l192 323l-192 354h167l115 -240l119 240h156l-192 -346l192 -331h-167l-116 224l-119 -224h-155z" />
    <glyph glyph-name="Y" unicode="Y" horiz-adv-x="612" 
d="M188 678l115 -260l115 260h167l-205 -407v-271h-152v271l-207 407h167z" />
    <glyph glyph-name="Z" unicode="Z" horiz-adv-x="528" 
d="M490 678v-127l-268 -403v-17h268v-131h-450v125l267 404v17h-267v132h450z" />
    <glyph glyph-name="bracketleft" unicode="[" horiz-adv-x="353" 
d="M313 749v-131h-111v-609h111v-132h-261v872h261z" />
    <glyph glyph-name="backslash" unicode="\" horiz-adv-x="504" 
d="M349 -41l-320 702l124 57l322 -705z" />
    <glyph glyph-name="bracketright" unicode="]" horiz-adv-x="353" 
d="M301 749v-872h-261v132h111v609h-111v131h261z" />
    <glyph glyph-name="asciicircum" unicode="^" horiz-adv-x="595" 
d="M236 660h124l195 -348h-153l-102 206l-107 -206h-153z" />
    <glyph glyph-name="underscore" unicode="_" horiz-adv-x="532" 
d="M52 -193v124h428v-124h-428z" />
    <glyph glyph-name="a" unicode="a" horiz-adv-x="500" 
d="M28 151q0 41 10 69.5t32 47t55.5 28t80.5 12.5l98 7v28q0 26 -12 35.5t-42 9.5q-48 0 -94.5 -1.5t-91.5 -5.5l-5 101q107 30 202 30q102 0 145.5 -40t43.5 -129v-198q2 -20 6.5 -31.5t21.5 -16.5l-4 -109q-27 0 -47.5 1t-37.5 5t-32 10.5t-31 16.5q-70 -33 -141 -33
q-157 0 -157 163zM185 118q11 -11 37 -11q13 0 31 2t38 7l13 3v95l-80 -7q-50 -5 -50 -55q0 -23 11 -34z" />
    <glyph glyph-name="b" unicode="b" horiz-adv-x="527" 
d="M204 696v-209q20 8 34.5 12.5t26.5 7.5t23.5 4t25.5 1q101 0 148.5 -62t47.5 -204q0 -72 -12.5 -121.5t-41 -80t-73.5 -44t-110 -13.5q-54 0 -107.5 5t-107.5 10v694h146zM204 371v-248q17 -2 31.5 -3t26.5 -1q28 0 47 6.5t31 21.5t17 39t5 60q0 73 -21 104t-65 31
q-13 0 -31 -2.5t-41 -7.5z" />
    <glyph glyph-name="c" unicode="c" horiz-adv-x="431" 
d="M37 250q0 72 12.5 122t39 81t67 45t97.5 14q14 0 29.5 -1t34 -4t42.5 -7.5t55 -10.5l-4 -116q-9 1 -26 2t-35.5 2.5t-34.5 2.5t-24 1q-31 0 -51 -5t-32 -19.5t-16.5 -40.5t-4.5 -68q0 -26 3 -49.5t14 -41t32.5 -28t58.5 -10.5l116 8l4 -117q-106 -22 -172 -22
q-106 0 -155.5 62.5t-49.5 199.5z" />
    <glyph glyph-name="d" unicode="d" horiz-adv-x="557" 
d="M38 244q0 140 48.5 204t146.5 64q20 0 48 -3.5t67 -10.5v198h148v-696h-146v18q-42 -18 -68.5 -24t-54.5 -6q-101 0 -145 63t-44 193zM204 148q18 -29 60 -29q15 0 31.5 2t39.5 7l13 1v248q-26 5 -46 7.5t-33 2.5q-45 0 -64 -31.5t-19 -107.5q0 -72 18 -100z" />
    <glyph glyph-name="e" unicode="e" horiz-adv-x="511" 
d="M93 444q54 68 171 68q107 0 163 -56t56 -168l-12 -89h-286q4 -43 25 -62.5t78 -19.5q38 0 75 1t74 5l28 3l2 -108q-58 -16 -109 -23t-96 -7q-59 0 -101.5 13.5t-69.5 43t-40 77t-13 114.5q0 140 55 208zM184 299h153q0 53 -15.5 73t-58.5 20q-44 0 -61 -21t-18 -72z" />
    <glyph glyph-name="f" unicode="f" horiz-adv-x="375" 
d="M30 494h52v23q0 55 7.5 91.5t25 58.5t46 31.5t70.5 9.5l117 -9l-2 -124q-21 1 -39 2q-14 1 -27 2t-15 1q-17 0 -26.5 -18t-9.5 -46v-22h116v-124h-116v-370h-147v370h-52v124z" />
    <glyph glyph-name="g" unicode="g" horiz-adv-x="571" 
d="M55 -34q16 29 53 60q-19 12 -29 31t-10 36q0 12 4.5 24.5t10.5 24.5t13 23t12 19q-65 53 -65 146q0 91 56 135.5t152 44.5q48 0 106 -13l165 5v-116l-71 6q6 -10 10 -18t6 -15.5t3 -16t1 -19.5q0 -91 -52 -130t-158 -39q-30 0 -45 4q-5 -12 -6.5 -19.5t-1.5 -14.5
q0 -11 10 -17t24.5 -9t31 -4t30.5 -1q45 0 77.5 -3t57.5 -8q44 -12 64 -44t20 -88q0 -93 -63 -136t-192 -43q-107 0 -169 31t-62 101q0 35 17 63zM208 283q18 -17 51 -17q67 0 67 65t-68 65q-32 0 -50 -16.5t-18 -47.5q0 -32 18 -49zM202 -106q20 -7 75 -8h7q47 0 69.5 13.5
t22.5 33.5q0 15 -11.5 23.5t-26.5 13.5t-29.5 6.5t-20.5 1.5h-85q-11 -12 -16 -27t-5 -26q0 -24 20 -31z" />
    <glyph glyph-name="h" unicode="h" horiz-adv-x="523" 
d="M58 0v696h147v-219q37 19 64 27t61 8q90 0 129.5 -56.5t39.5 -182.5v-273h-147v269q0 34 -3.5 55.5t-11.5 34t-20.5 17.5t-29.5 5q-20 0 -43 -4t-40 -9v-368h-146z" />
    <glyph glyph-name="i" unicode="i" horiz-adv-x="218" 
d="M35 0v500h147v-500h-147zM182 710v-145h-147v145h147z" />
    <glyph glyph-name="j" unicode="j" horiz-adv-x="238" 
d="M22 -75q18 20 23.5 41t5.5 60v474h147v-475q0 -71 -15 -113t-52 -73.5t-113 -70.5l-58 108q43 30 62 49zM198 710v-145h-147v145h147z" />
    <glyph glyph-name="k" unicode="k" horiz-adv-x="530" 
d="M204 696v-392l46 10l89 186h164l-123 -239l130 -261h-165l-91 187l-50 -10v-177h-146v696h146z" />
    <glyph glyph-name="l" unicode="l" horiz-adv-x="264" 
d="M57 0v696h147v-696h-147z" />
    <glyph glyph-name="m" unicode="m" horiz-adv-x="792" 
d="M181 500v-26q37 20 62 29t54 9q32 0 64.5 -11t54.5 -35q49 24 88 35t83 11q45 0 78 -12.5t54 -40.5t31 -74t10 -112v-273h-147v268q0 66 -15 89.5t-48 23.5q-17 0 -42.5 -5.5t-41.5 -10.5q1 -11 2 -27q1 -14 1.5 -33.5t0.5 -45.5v-259h-147v257q0 17 -1 38t-7 40.5
t-19 32.5t-37 13q-16 0 -39.5 -5t-37.5 -9v-367h-147v500h146z" />
    <glyph glyph-name="n" unicode="n" horiz-adv-x="510" 
d="M181 500v-26q36 21 64 29.5t62 8.5q89 0 129 -56.5t40 -182.5v-273h-146v268q0 35 -4 57t-12 34.5t-21.5 17t-31.5 4.5q-17 0 -40.5 -4.5t-38.5 -9.5v-367h-147v500h146z" />
    <glyph glyph-name="o" unicode="o" horiz-adv-x="519" 
d="M87 447q61 65 173 65t172.5 -66.5t60.5 -194.5q0 -130 -61 -196.5t-172 -66.5q-113 0 -173.5 68t-60.5 196q0 129 61 195zM198 143q22 -31 61 -31q41 0 63 31.5t22 108.5q0 39 -6 65.5t-16.5 42t-26 22t-35.5 6.5q-40 0 -62.5 -30t-22.5 -107q0 -78 23 -108z" />
    <glyph glyph-name="p" unicode="p" horiz-adv-x="506" 
d="M35 500h146v-25q19 12 34 19t28 11t25.5 5.5t26.5 1.5q98 0 145 -63.5t47 -204.5q0 -72 -12.5 -121t-39.5 -79t-68.5 -43t-99.5 -13q-23 0 -43.5 1.5t-41.5 5.5v-203h-147v708zM217 115q15 -2 26 -2q53 0 74 30t21 102q0 71 -18.5 103.5t-60.5 32.5q-19 0 -40.5 -5
t-36.5 -11v-247q19 -2 35 -3z" />
    <glyph glyph-name="q" unicode="q" horiz-adv-x="525" 
d="M38 254q0 57 13.5 104.5t43 81.5t77 53t116.5 19l201 -13v-707h-147l1 221q-19 -7 -34 -12t-27.5 -8t-24.5 -4t-26 -1q-50 0 -86.5 14.5t-60 46.5t-35 82.5t-11.5 122.5zM205 150q20 -31 65 -31q17 0 36 3t37 7v254q-14 2 -27.5 3t-24.5 1q-30 0 -50.5 -6.5t-33 -22
t-18 -40.5t-5.5 -62q0 -75 21 -106z" />
    <glyph glyph-name="r" unicode="r" horiz-adv-x="358" 
d="M35 500h145v-50q44 24 82 39.5t73 22.5v-147q-35 -5 -75 -14.5t-78 -22.5v-328h-147v500z" />
    <glyph glyph-name="s" unicode="s" horiz-adv-x="461" 
d="M80 470q52 41 143 41q48 0 98.5 -9t98.5 -17l-2 -121q-65 8 -110.5 15.5t-74.5 7.5q-26 0 -42.5 -6t-16.5 -28q0 -19 16 -27.5t60 -17.5q37 -7 70 -15.5t58 -24t40 -41.5t15 -68q0 -88 -49 -129.5t-152 -41.5q-48 0 -98 7.5t-98 17.5l4 123q54 -8 102.5 -16t79.5 -8
q27 0 46 6.5t19 24.5q0 21 -32 33.5t-77 23.5q-28 7 -55 16.5t-48.5 26t-34.5 42t-13 64.5q0 80 53 121z" />
    <glyph glyph-name="t" unicode="t" horiz-adv-x="370" 
d="M19 500h56v136h147v-136h115v-124h-115v-198q0 -35 6.5 -47t25.5 -12h3l74 1l6 -116q-20 -5 -35 -8t-27.5 -5t-23 -2.5t-21.5 -0.5q-45 0 -74.5 9.5t-47.5 32t-25.5 59t-7.5 90.5v197h-56v124z" />
    <glyph glyph-name="u" unicode="u" horiz-adv-x="500" 
d="M35 500h147v-268q0 -20 1.5 -40.5t8 -36.5t21 -26t41.5 -10q8 0 15 0.5t15 2t19.5 4.5t28.5 7v367h146v-500h-145v26q-42 -23 -71 -30.5t-62 -7.5q-46 0 -77.5 13t-51 42.5t-28 77.5t-8.5 117v262z" />
    <glyph glyph-name="v" unicode="v" horiz-adv-x="516" 
d="M19 500h153l72 -375h26l76 375h148l-115 -500h-245z" />
    <glyph glyph-name="w" unicode="w" horiz-adv-x="765" 
d="M18 500h144l53 -375h25l67 365h151l67 -365h25l53 375h144l-90 -500h-217l-58 288l-58 -288h-216z" />
    <glyph glyph-name="x" unicode="x" horiz-adv-x="498" 
d="M19 500h156l71 -146l72 146h157l-139 -244l139 -256h-156l-73 144l-71 -144h-156l133 251z" />
    <glyph glyph-name="y" unicode="y" horiz-adv-x="518" 
d="M19 500h144l84 -375h21l83 375h144l-169 -707h-143l53 207h-98z" />
    <glyph glyph-name="z" unicode="z" horiz-adv-x="401" 
d="M388 500v-131l-195 -238h195v-131h-371v131l195 238h-195v131h371z" />
    <glyph glyph-name="braceleft" unicode="{" horiz-adv-x="406" 
d="M40 257v113q57 13 85 35t28 52v4l-7 127q-1 11 -1 21q0 34 9.5 63t34 49t65.5 29.5t100 11.5l-1 -124q-37 -5 -51 -18t-14 -37v-7l7 -129q1 -12 1 -22q0 -19 -3 -36.5t-15.5 -31.5t-35.5 -24t-60 -19q36 -9 59 -20t36 -27t17 -35.5t4 -40.5q0 -9 -1 -19l-7 -117v-8
q0 -26 13 -40.5t48 -17.5v-124q-57 2 -97 12t-65 30t-34.5 48t-9.5 61q0 10 1 20l7 121v4q0 33 -28 57.5t-85 38.5z" />
    <glyph glyph-name="bar" unicode="|" horiz-adv-x="251" 
d="M52 -208v904h147v-904h-147z" />
    <glyph glyph-name="braceright" unicode="}" horiz-adv-x="405" 
d="M52 762q59 -2 99.5 -11.5t65 -29.5t34 -49t9.5 -63q0 -10 -1 -21l-7 -127v-4q0 -30 28.5 -52t84.5 -35v-113q-56 -14 -84.5 -38.5t-28.5 -57.5v-4l7 -121q1 -10 1 -20q0 -33 -9.5 -61t-34.5 -48t-65 -30t-97 -12v124q35 3 48.5 17.5t13.5 40.5v8l-7 117q-1 11 -1 21
q0 20 3.5 39t16.5 35t36.5 27t59.5 20q-37 9 -60 19t-35.5 24t-16 32t-3.5 37q0 10 1 21l7 129v7q0 24 -13.5 37t-51.5 18v124z" />
    <glyph glyph-name="asciitilde" unicode="~" horiz-adv-x="542" 
d="M52 284q62 52 125 52q27 0 104 -20q38 -11 61.5 -15.5t34.5 -4.5t25 3.5t28.5 9t28 11.5t23.5 12l8 -117q-7 -8 -21 -17t-30.5 -16.5t-33 -12t-29.5 -4.5q-14 0 -41 4.5t-67 15.5q-80 20 -99 20q-9 0 -23.5 -4t-30 -10t-30 -12.5t-23.5 -11.5z" />
    <glyph glyph-name="exclamdown" unicode="&#xa1;" horiz-adv-x="273" 
d="M57 -178l14 423h129l16 -423h-159zM68 356v143h135v-143h-135z" />
    <glyph glyph-name="cent" unicode="&#xa2;" horiz-adv-x="491" 
d="M240 471v98h120v-102l74 -14l-4 -108q-14 0 -32 1l-37 1h-35h-25h-4q-45 0 -68 -23t-23 -75q0 -51 24 -74.5t80 -23.5h5l115 4l4 -108q-33 -11 -74 -14v-107h-120v101q-91 8 -137 64.5t-46 157.5q0 205 183 222z" />
    <glyph glyph-name="sterling" unicode="&#xa3;" horiz-adv-x="538" 
d="M129 124v188h-64v125h64v59q0 53 10 86.5t31 53.5t53 27.5t75 7.5q35 0 79 -7.5t79 -17.5l-5 -113q-35 3 -59 4.5t-56 1.5q-30 0 -46.5 -16t-16.5 -43v-43h150v-125h-150v-188h118l67 16l23 -122l-81 -18h-343v124h72z" />
    <glyph glyph-name="currency" unicode="&#xa4;" horiz-adv-x="626" 
d="M130 169q-9 19 -13 39.5t-4 43.5q0 47 17 82l-73 74l100 100l73 -73q21 8 42 13t41 5q21 0 41.5 -5t40.5 -13l74 73l100 -100l-74 -74q18 -40 18 -82q0 -41 -18 -83l74 -73l-100 -100l-74 73q-20 -8 -40.5 -13t-41.5 -5q-20 0 -40.5 5t-41.5 13l-73 -73l-101 100z
M233 252q0 -31 25 -56q24 -24 55 -24q16 0 30.5 6.5t25.5 17.5t17.5 25.5t6.5 30.5t-6.5 30.5t-17.5 25.5t-25.5 17.5t-30.5 6.5t-30.5 -6.5t-25.5 -17.5t-17.5 -25.5t-6.5 -30.5z" />
    <glyph glyph-name="yen" unicode="&#xa5;" horiz-adv-x="673" 
d="M57 660h167l113 -198l111 198h168l-137 -252h79v-113h-145v-57h144v-110h-144v-128h-151v128h-148v110h148v57h-148v113h82z" />
    <glyph glyph-name="brokenbar" unicode="&#xa6;" horiz-adv-x="251" 
d="M199 173v-381h-147v381h147zM52 324v372h147v-372h-147z" />
    <glyph glyph-name="section" unicode="&#xa7;" horiz-adv-x="552" 
d="M58 239q5 19 14.5 38t21 36t23.5 27q-44 32 -44 107q0 188 223 188q18 0 41 -2.5t47 -6t47.5 -8t42.5 -8.5l-6 -118q-56 8 -96.5 12t-69.5 4q-26 0 -43 -2.5t-26.5 -9.5t-13 -18.5t-3.5 -28.5q0 -14 25 -25t88 -28q36 -9 67 -20.5t54 -29.5t36.5 -43.5t13.5 -61.5
q0 -70 -52 -143q11 -10 18.5 -20t12 -22.5t6.5 -29t2 -39.5q0 -99 -52.5 -142t-169.5 -43q-48 0 -95.5 8t-93.5 16l14 117q108 -15 162 -15q52 0 73.5 11t21.5 36q0 17 -18 29.5t-41.5 20.5t-46.5 13t-33 8q-28 8 -56 19t-50 29t-36 44.5t-14 65.5q0 16 6 35zM200 239
q0 -16 1 -26t6 -16t14.5 -10t27.5 -10q19 -5 40 -12t46 -15q15 19 15 66v3q0 20 -12 31t-35 19q-4 1 -17 4.5t-27.5 7t-27 6.5t-17.5 4q-14 -20 -14 -52z" />
    <glyph glyph-name="copyright" unicode="&#xa9;" horiz-adv-x="660" 
d="M88 582q36 66 100 102t145 36t143 -37q63 -38 97.5 -104t34.5 -147q0 -82 -34 -146q-35 -66 -98 -102t-143 -36q-82 0 -144 37q-65 38 -101 104t-36 147q0 82 36 146zM146 322q28 -51 76.5 -81t108.5 -30t107 29q49 30 76.5 81t27.5 112q0 60 -28 112q-28 51 -76.5 81.5
t-107.5 30.5q-88 0 -150 -65q-62 -67 -62 -158q0 -62 28 -112zM216 515q7 31 23 50t42 27t63 8q38 0 71 -14l10 -3l-8 -93q-34 6 -59 6q-23 0 -30 -11.5t-7 -45.5q0 -33 8 -51t22 -18l66 5l8 -88q-26 -20 -93 -20q-33 0 -56 8.5t-38 28.5t-22 52t-7 79q0 48 7 80z" />
    <glyph glyph-name="guillemotleft" unicode="&#xab;" horiz-adv-x="603" 
d="M563 461v-147l-106 -71l106 -82v-148l-230 176v103zM40 292l230 169v-147l-106 -71l106 -82v-148l-230 176v103z" />
    <glyph glyph-name="registered" unicode="&#xae;" horiz-adv-x="660" 
d="M88 582q36 66 99.5 102t144.5 36t143 -37q63 -38 98 -104t35 -147t-34 -146q-35 -66 -97 -102t-143 -36t-145 37q-65 38 -101 103t-36 147q0 83 36 147zM147 322q28 -51 76.5 -81t108.5 -30q58 0 106 30t76 81.5t28 111.5q0 62 -28 112q-28 51 -76.5 81t-107.5 30
q-60 0 -109 -32q-49 -31 -76 -81.5t-27 -109.5q0 -60 29 -112zM207 592h142q51 0 82.5 -26t31.5 -72q0 -23 -1.5 -39.5t-6 -29t-11 -22.5t-17.5 -19l39 -109h-103l-24 90h-36v-90h-96v317zM332 441q30 0 30 38q0 36 -29 36h-31v-74h30z" />
    <glyph glyph-name="degree" unicode="&#xb0;" horiz-adv-x="407" 
d="M63 600q11 28 31 48t48 31t61 11t61 -11t48.5 -31t31.5 -48t11 -62q0 -68 -42 -109.5t-110 -41.5t-109.5 41.5t-41.5 109.5q0 34 11 62zM152 486q19 -20 51 -20t52.5 20t20.5 52t-20.5 52.5t-52.5 20.5q-33 0 -52 -20.5t-19 -52.5t20 -52z" />
    <glyph glyph-name="plusminus" unicode="&#xb1;" horiz-adv-x="566" 
d="M217 408v104h130v-104h167v-132h-167v-94h-130v94h-165v132h165zM514 146v-131h-462v131h462z" />
    <glyph glyph-name="paragraph" unicode="&#xb6;" horiz-adv-x="624" 
d="M52 481q0 42 13.5 78.5t38.5 62.5t59.5 41t76.5 15h332v-125h-29v-553h-124v553h-50v-553h-124v278h-7q-40 0 -74.5 16.5t-59 44.5t-38.5 65t-14 77z" />
    <glyph glyph-name="periodcentered" unicode="&#xb7;" horiz-adv-x="272" 
d="M69 188v143h135v-143h-135z" />
    <glyph glyph-name="guillemotright" unicode="&#xbb;" horiz-adv-x="603" 
d="M563 293v-104l-230 -175v147l105 82l-105 71v147zM40 14v147l106 82l-106 71v147l230 -168v-104z" />
    <glyph glyph-name="questiondown" unicode="&#xbf;" horiz-adv-x="444" 
d="M34 -36q0 38 3 65t11 48.5t23.5 39t40.5 35.5q44 30 58 50t14 46v29h117q10 -13 17 -29q7 -13 12 -30.5t5 -37.5q0 -13 -15 -31t-34.5 -36.5t-39.5 -35t-31 -25.5q-12 -11 -21 -28t-9 -35q0 -50 79 -50q28 0 63 3.5t75 11.5l7 -110q-84 -36 -183 -36q-97 0 -144.5 39
t-47.5 111v6zM181 498h134v-143h-134v143z" />
    <glyph glyph-name="multiply" unicode="&#xd7;" horiz-adv-x="569" 
d="M150 479l135 -134l134 134l93 -93l-134 -134l134 -135l-93 -93l-134 135l-135 -135l-93 93l135 135l-135 134z" />
    <glyph glyph-name="divide" unicode="&#xf7;" horiz-adv-x="604" 
d="M547 406v-130h-490v130h490zM229 473v139h144v-139h-144zM229 207h144v-138h-144v138z" />
    <glyph glyph-name="tilde" unicode="&#x2dc;" horiz-adv-x="542" 
d="M52 284q62 52 125 52q27 0 104 -20q38 -11 61.5 -15.5t34.5 -4.5t25 3.5t28.5 9t28 11.5t23.5 12l8 -117q-7 -8 -21 -17t-30.5 -16.5t-33 -12t-29.5 -4.5q-14 0 -41 4.5t-67 15.5q-80 20 -99 20q-9 0 -23.5 -4t-30 -10t-30 -12.5t-23.5 -11.5z" />
    <glyph glyph-name="uni060C" unicode="&#x60c;" horiz-adv-x="262" 
d="M56 69q5 17 9 30l47 145l75 -26l-39 -126l62 -24l-45 -127q-11 4 -26.5 10t-29.5 14q-22 11 -38.5 30t-18.5 42v7q0 12 4 25z" />
    <glyph glyph-name="uni060D" unicode="&#x60d;" horiz-adv-x="270" 
d="M149 -122h-109l50 259h149z" />
    <glyph glyph-name="uni061B" unicode="&#x61b;" horiz-adv-x="262" 
d="M55 390q4 19 9 32l47 144l76 -26l-40 -125l62 -25l-45 -126q-11 4 -26.5 10t-32.5 16q-20 11 -37 29.5t-17 41.5q0 10 4 29zM63 143h133v-143h-133v143z" />
    <glyph glyph-name="uni061F" unicode="&#x61f;" horiz-adv-x="443" 
d="M81 653q48 40 145 40q99 0 183 -36l-7 -110q-40 8 -75 11.5t-63 3.5q-79 0 -79 -50q0 -18 9 -35t21 -28q11 -9 31 -25.5t39.5 -35t34.5 -36.5t15 -31q0 -16 -4 -31.5t-10 -29t-11.5 -23.5t-8.5 -13h-117v29q0 26 -14 46t-58 50q-25 18 -40.5 35.5t-23.5 39t-11 49
t-3 64.5v6q0 72 47 110zM181 3v143h134v-143h-134z" />
    <glyph glyph-name="uni0640" unicode="&#x640;" horiz-adv-x="138" 
d="M0 146h138q14 0 14 -14v-118q0 -14 -14 -14h-138q-14 0 -14 14v118q0 14 14 14z" />
    <glyph glyph-name="uni0653" unicode="&#x653;" 
d="M-152 760q1 23 9.5 41t22 31t31 20.5t36.5 7.5l204 -1v-106h-188q-20 0 -20 -19v-34h-96z" />
    <glyph glyph-name="uni0653" unicode="&#x6e4;" 
d="M-152 760q1 23 9.5 41t22 31t31 20.5t36.5 7.5l204 -1v-106h-188q-20 0 -20 -19v-34h-96z" />
    <glyph glyph-name="uni0654" unicode="&#x654;" 
d="M-168 794l80 14q-1 1 -3.5 5.5t-4.5 12.5q-1 3 -2.5 11t-2.5 13q-2 12 -2 23q0 19 7 37.5t22.5 33.5t35 22.5t37.5 9.5l98 12l12 -97l-92 -10q-13 -2 -19 -7t-6 -15q0 -5 1 -10l4 -25q17 4 41.5 9t47.5 10q27 6 56 12l25 -89l-319 -65z" />
    <glyph glyph-name="uni0655" unicode="&#x655;" 
d="M-168 -191l82 11q-2 2 -3 4q-4 6 -5 11q-2 5 -2 8t-1 9q-2 14 -2 27q0 21 8.5 42t26 36.5t36 22.5t27.5 8l99 12l12 -97l-105 -13q-2 0 -8 -2t-6 -10v-6l7 -36q17 3 41.5 8.5t47.5 10.5q27 6 56 12l25 -89l-319 -65z" />
    <glyph glyph-name="uni0656" unicode="&#x656;" 
d="M46 -181h-91v181h91v-181z" />
    <glyph glyph-name="uni0660" unicode="&#x660;" horiz-adv-x="296" 
d="M59 229h177v-177h-177v177z" />
    <glyph glyph-name="uni0661" unicode="&#x661;" horiz-adv-x="287" 
d="M55 714l134 24l20 -99q10 -50 14.5 -98.5t4.5 -97.5v-443h-136v445q0 89 -18 177z" />
    <glyph glyph-name="uni0662" unicode="&#x662;" horiz-adv-x="564" 
d="M196 738l5 -19q5 -20 11 -50t11.5 -66t7.5 -69q2 -15 13.5 -23t25.5 -8h115v228h137v-242q0 -27 -10.5 -51t-28.5 -42.5t-42 -29t-51 -10.5h-101q-21 0 -36.5 9.5t-16.5 11.5l-1 -377h-136v445q0 45 -5 88.5t-14 88.5l-18 92z" />
    <glyph glyph-name="uni0663" unicode="&#x663;" horiz-adv-x="734" 
d="M190 738q1 -4 5 -22t9 -46t11 -63t10 -73q2 -16 15 -23.5t24 -7.5h14q17 0 30 10.5t15 26.5l39 190l134 -24l-33 -164v-3q0 -12 7.5 -24t28.5 -12h69l-1 229l137 -1v-245q0 -27 -10 -50.5t-28 -41t-41.5 -28t-50.5 -10.5h-68q-30 0 -58 10t-51 33q-49 -43 -108 -43
q-15 0 -32 3t-28 11v-370h-136v445q0 45 -5 88.5t-14 88.5l-18 92z" />
    <glyph glyph-name="uni0664" unicode="&#x664;" horiz-adv-x="475" 
d="M56 245q0 40 13.5 74t36.5 61q-19 28 -27 65l-17 92q-3 17 -3 33q0 21 7 48.5t29.5 54.5t55.5 42.5t72 15.5h162v-141h-173q-9 0 -15.5 -9t-6.5 -18v-5l15 -80q2 -14 9.5 -23t15.5 -9q4 0 8 2l143 41l37 -129l-187 -55q-17 -5 -30.5 -20.5t-13.5 -33.5v-79
q0 -12 7.5 -19.5t18.5 -7.5h232v-145h-224q-34 0 -64 12.5t-52.5 34t-35.5 52t-13 66.5v80z" />
    <glyph glyph-name="uni0665" unicode="&#x665;" horiz-adv-x="634" 
d="M55 315q11 50 33.5 94t55 85.5t74.5 86.5l-60 55l82 115l180 -170q38 -36 70 -77t55 -87.5t34.5 -97t11.5 -105.5v-9q-1 -43 -13 -80.5t-35.5 -65.5t-58 -43.5t-80.5 -15.5h-174q-46 0 -81 15.5t-58.5 43.5t-35.5 65.5t-12 80.5q0 60 12 110zM179 205q0 -37 13.5 -48
t27.5 -11h194q14 0 27.5 11.5t13.5 50.5q0 41 -6.5 75t-22 66t-42 65.5t-67.5 73.5q-41 -42 -68 -75.5t-42.5 -66t-21.5 -66t-6 -75.5z" />
    <glyph glyph-name="uni0666" unicode="&#x666;" horiz-adv-x="543" 
d="M2 602l13 138q63 -7 111 -12t98 -5q42 0 82.5 3.5t72.5 8t52 7.5l20 3v-450q0 -87 18 -177l19 -93l-134 -23l-20 99q-10 49 -14.5 98.5t-4.5 97.5v285q-8 0 -20.5 -0.5t-26.5 -1t-27 -0.5h-23q-51 0 -101 5.5t-115 16.5z" />
    <glyph glyph-name="uni0667" unicode="&#x667;" horiz-adv-x="634" 
d="M137 754q2 -3 16 -26.5t34 -61.5t43 -86.5t42 -101.5t32 -106t13 -100q0 46 13 98.5t32.5 105t42 101.5t42.5 87t34 62.5t16 27.5l109 -91q-20 -29 -54 -91t-69.5 -149t-64.5 -195t-40 -229h-122q-18 140 -48.5 250t-63.5 192.5t-64.5 137.5t-51.5 84z" />
    <glyph glyph-name="uni0668" unicode="&#x668;" horiz-adv-x="634" 
d="M28 90q20 29 51.5 84t64.5 137.5t63.5 193t48.5 249.5h122q11 -121 40 -229t64.5 -195t69.5 -149t54 -91l-109 -91q-2 3 -16 27.5t-34 62.5t-42.5 87t-42 101.5t-32.5 105t-13 98.5q0 -47 -13 -100t-32 -106t-42 -101.5t-43 -86.5t-34 -61.5t-16 -26.5z" />
    <glyph glyph-name="uni0669" unicode="&#x669;" horiz-adv-x="528" 
d="M30 512l18 92q6 29 20.5 53t36 41.5t48.5 27.5t56 10h56q35 0 66.5 -13.5t55 -37t37 -54.5t13.5 -67v-271q0 -43 4 -87.5t14 -89.5l19 -92l-123 -24l-19 98q-10 50 -15 99t-5 97v34q-1 -1 -3 -1q-5 -2 -13 -4t-18.5 -4t-22.5 -2h-64q-40 0 -73.5 13.5t-56 38.5t-29.5 52
t-7 46q0 21 5 45zM158 470q6 -7 18 -7h136v103q0 17 -9.5 24t-20.5 7h-84q-23 0 -30 -25l-15 -82v-6q0 -9 5 -14z" />
    <glyph glyph-name="uni066A" unicode="&#x66a;" horiz-adv-x="503" 
d="M286 177h177v-177h-177v177zM97 -9l-56 38l394 632l55 -37zM41 658h177v-177h-177v177z" />
    <glyph glyph-name="uni066B" unicode="&#x66b;" horiz-adv-x="158" 
d="M149 -122h-109l50 259h149z" />
    <glyph glyph-name="uni066C" unicode="&#x66c;" horiz-adv-x="158" 
d="M149 390h-109l50 259h149z" />
    <glyph glyph-name="uni066D" unicode="&#x66d;" 
d="M107 395l-50 63l104 78l-101 72l49 67l100 -71l39 119l81 -26l-38 -121h121v-80h-121l38 -118l-78 -24l-41 120z" />
    <glyph glyph-name="uni0670" unicode="&#x670;" 
d="M46 700h-91v181h91v-181z" />
    <glyph glyph-name="uni06F0" unicode="&#x6f0;" horiz-adv-x="496" 
d="M65 338q13 31 36.5 54.5t54.5 37t67 13.5h50q36 0 67 -13.5t54.5 -37t37 -54.5t13.5 -67v-51q0 -35 -13.5 -66.5t-37 -55t-54.5 -37t-67 -13.5h-50q-35 0 -66 13.5t-54.5 37t-37.5 55t-14 66.5v51q0 36 14 67zM189 272v-48q0 -12 8.5 -21t22.5 -9h58q15 0 23 9t8 21v48
q-1 14 -9 22t-22 8h-58q-14 0 -22.5 -8.5t-8.5 -21.5z" />
    <glyph glyph-name="uni06F1" unicode="&#x6f1;" horiz-adv-x="281" 
d="M183 739l20 -99q10 -50 14.5 -98.5t4.5 -97.5v-443h-130v445q0 45 -5 88.5t-14 88.5l-18 92z" />
    <glyph glyph-name="uni06F2" unicode="&#x6f2;" horiz-adv-x="552" 
d="M187 739l5 -19q5 -20 11 -50t11.5 -66t7.5 -69q2 -15 13.5 -23t25.5 -8h115v228h137v-242q0 -27 -10.5 -51t-28.5 -42.5t-42 -29t-51 -10.5h-96q-17 0 -34 6.5t-25 18.5v-381h-130v445q0 45 -5 88.5t-14 88.5l-18 92z" />
    <glyph glyph-name="uni06F3" unicode="&#x6f3;" horiz-adv-x="722" 
d="M184 739q1 -4 5 -22t9 -46t11 -63t10 -73q2 -16 15 -23.5t24 -7.5h14q17 0 30 10.5t15 26.5l39 190l128 -24l-33 -164v-3q0 -12 7.5 -24t28.5 -12h80v229h130v-246q0 -27 -10 -50.5t-27.5 -41t-41 -28t-50.5 -10.5h-69q-29 0 -57.5 11.5t-51.5 40.5q-24 -27 -47.5 -39.5
t-53.5 -12.5q-15 0 -35 5t-31 21v-382h-130v445q0 45 -5 88.5t-14 88.5l-18 92z" />
    <glyph glyph-name="uni06F4" unicode="&#x6f4;" horiz-adv-x="653" 
d="M56 715l128 23l-184 -738l184 738q0 -2 3 -15q4 -18 9.5 -48t12 -67.5t10.5 -73.5q7 -31 33 -31h36q-1 1 -5.5 7.5t-6.5 17.5l-1 5q-1 4 -2 11t-2.5 15t-3.5 14q-3 17 -3 33q0 22 7.5 50t30 54t55.5 41.5t71 15.5h122v-135h-140q-16 0 -20 -9.5t-4 -16.5q0 -4 1 -7
l18 -92q17 2 46 4.5t57 5.5q33 3 69 6l21 -127q-49 -7 -89.5 -14t-78 -12.5t-74.5 -9t-79 -3.5q-11 0 -27 3t-27 9v-369h-130v445q0 61 -10 123.5t-27 146.5z" />
    <glyph glyph-name="uni06F5" unicode="&#x6f5;" horiz-adv-x="680" 
d="M37 207q0 65 17 121.5t44.5 106t63.5 93t75 82.5l-35 33l90 112l135 -128q40 -38 79 -79.5t70 -91.5t49.5 -111t18.5 -138q0 -44 -11 -82t-33.5 -65.5t-57.5 -43.5t-83 -16q-35 0 -65 10t-53 27q-23 -16 -53.5 -26.5t-59.5 -10.5q-52 0 -88.5 17.5t-59.5 46.5t-33 66.5
t-10 76.5zM167 206q0 -29 15 -44t41 -15h4q17 0 29.5 10.5t21.5 44.5l17 72l126 -24l-17 -75q11 -29 43 -29h12q24 0 40 14.5t16 45.5q0 47 -8 84t-28 71.5t-53.5 71t-84.5 83.5q-54 -51 -88 -88.5t-53 -71.5t-26 -69.5t-7 -80.5z" />
    <glyph glyph-name="uni06F6" unicode="&#x6f6;" horiz-adv-x="634" 
d="M60 71l214 302h-3q-8 0 -24.5 4t-31.5 15l-78 61q-33 26 -47 58.5t-14 64.5q0 3 1 22.5t17.5 52.5t45.5 56l139 110l75 -100l-137 -116q-8 -6 -9.5 -13t-1.5 -9q0 -10 10 -17l122 -93q23 31 49 59.5t54 55.5l73 70l102 -90l-67 -65q-32 -32 -61 -66.5t-55 -71.5
l-254 -365z" />
    <glyph glyph-name="uni06F7" unicode="&#x6f7;" horiz-adv-x="634" 
d="M137 754q2 -3 16 -26.5t34 -61.5t43 -86.5t42 -101.5t32 -106t13 -100q0 46 13 98.5t32.5 105t42 101.5t42.5 87t34 62.5t16 27.5l109 -91q-20 -29 -54 -91t-69.5 -149t-64.5 -195t-40 -229h-122q-18 140 -48.5 250t-63.5 192.5t-64.5 137.5t-51.5 84z" />
    <glyph glyph-name="uni06F8" unicode="&#x6f8;" horiz-adv-x="634" 
d="M28 90q20 29 51.5 84t64.5 137.5t63.5 193t48.5 249.5h122q11 -121 40 -229t64.5 -195t69.5 -149t54 -91l-109 -91q-2 3 -16 27.5t-34 62.5t-42.5 87t-42 101.5t-32.5 105t-13 98.5q0 -47 -13 -100t-32 -106t-42 -101.5t-43 -86.5t-34 -61.5t-16 -26.5z" />
    <glyph glyph-name="uni06F9" unicode="&#x6f9;" horiz-adv-x="529" 
d="M29 512l18 92q6 29 20.5 53t36 41.5t48.5 27.5t56 10h56q35 0 66.5 -13.5t55 -37t37 -54.5t13.5 -67v-271q0 -43 4 -87.5t14 -89.5l19 -92l-123 -24l-19 98q-10 50 -15 99t-5 97v34q-1 -1 -3 -1q-5 -2 -13 -4t-18.5 -4t-22.5 -2h-64q-40 0 -73.5 13.5t-56 38.5t-29.5 52
t-7 46q0 21 5 45zM157 470q6 -7 18 -7h136v103q0 17 -9.5 24t-20.5 7h-84q-23 0 -30 -25l-15 -82v-6q0 -9 5 -14z" />
    <glyph glyph-name="uni200B" unicode="&#x200b;" horiz-adv-x="333" 
 />
    <glyph glyph-name="uni200C" unicode="&#x200c;" horiz-adv-x="333" 
 />
    <glyph glyph-name="endash" unicode="&#x2013;" horiz-adv-x="604" 
d="M52 203v125h500v-125h-500z" />
    <glyph glyph-name="emdash" unicode="&#x2014;" horiz-adv-x="1104" 
d="M52 203v125h1000v-125h-1000z" />
    <glyph glyph-name="quoteleft" unicode="&#x2018;" horiz-adv-x="282" 
d="M40 420l90 253h112l-49 -253h-153z" />
    <glyph glyph-name="quoteright" unicode="&#x2019;" horiz-adv-x="282" 
d="M40 421l49 253h153l-90 -253h-112z" />
    <glyph glyph-name="quotesinglbase" unicode="&#x201a;" horiz-adv-x="279" 
d="M40 -122l90 259h109l-50 -259h-149z" />
    <glyph glyph-name="quotedblleft" unicode="&#x201c;" horiz-adv-x="473" 
d="M40 420l90 253h112l-49 -253h-153zM231 420l90 253h112l-49 -253h-153z" />
    <glyph glyph-name="quotedblright" unicode="&#x201d;" horiz-adv-x="473" 
d="M40 421l49 253h153l-90 -253h-112zM231 421l49 253h153l-90 -253h-112z" />
    <glyph glyph-name="quotedblbase" unicode="&#x201e;" horiz-adv-x="473" 
d="M40 -135l90 253h112l-49 -253h-153zM231 -135l90 253h112l-49 -253h-153z" />
    <glyph glyph-name="dagger" unicode="&#x2020;" horiz-adv-x="531" 
d="M192 500v178h147v-178h140v-124h-140l-11 -446h-125l-11 446h-140v124h140z" />
    <glyph glyph-name="daggerdbl" unicode="&#x2021;" horiz-adv-x="531" 
d="M52 500h140v178h147v-178h139v-124h-139v-144h140v-125h-140v-177h-147v177h-140v125h140v144h-140v124z" />
    <glyph glyph-name="bullet" unicode="&#x2022;" horiz-adv-x="428" 
d="M339 109h-250v288h250v-288z" />
    <glyph glyph-name="ellipsis" unicode="&#x2026;" horiz-adv-x="782" 
d="M69 0v143h134v-143h-134zM323 0v143h135v-143h-135zM580 0v143h134v-143h-134z" />
    <glyph glyph-name="guilsinglleft" unicode="&#x2039;" horiz-adv-x="310" 
d="M40 293l230 168v-147l-105 -71l105 -82v-147l-230 175v104z" />
    <glyph glyph-name="guilsinglright" unicode="&#x203a;" horiz-adv-x="310" 
d="M270 305v-104l-230 -175v147l106 82l-106 71v147z" />
    <glyph glyph-name="fraction" unicode="&#x2044;" horiz-adv-x="126" 
d="M-172 -9l-56 38l394 632l55 -37z" />
    <glyph glyph-name="Euro" unicode="&#x20ac;" horiz-adv-x="617" 
d="M111 314v59h-54v111h61q8 58 25 98.5t46 65.5t71.5 36t100.5 11q40 0 89 -6t111 -20l-5 -117q-46 7 -84 10.5t-70 3.5q-33 0 -55.5 -3.5t-37.5 -12.5t-23.5 -25t-14.5 -41h224v-111h-233v-59h233v-112h-219q6 -18 15 -33t23.5 -26.5t34.5 -18t49 -6.5q64 0 158 12l3 -119
q-103 -24 -207 -24q-100 0 -156.5 57.5t-74.5 157.5h-64v112h54z" />
    <glyph glyph-name="trademark" unicode="&#x2122;" horiz-adv-x="621" 
d="M276 331v316h110l35 -147l39 147h109v-316h-88v163l-29 -141h-53l-35 141v-163h-88zM52 647h200v-85h-35v-230h-96v230h-69v85z" />
    <glyph glyph-name="minus" unicode="&#x2212;" horiz-adv-x="552" 
d="M57 185v132h438v-132h-438z" />
    <glyph glyph-name="uniFBB2" unicode="&#xfbb2;" 
d="M275 1v124h125l-1 -124h-124z" />
    <glyph glyph-name="uniFBB3" unicode="&#xfbb3;" 
d="M276 -126l-1 126h125l1 -126h-125z" />
    <glyph glyph-name="uniFBB4" unicode="&#xfbb4;" 
d="M389 125h125v-125h-125v125zM337 125v-125h-125v125h125z" />
    <glyph glyph-name="uniFBB5" unicode="&#xfbb5;" 
d="M388 0h125v-125h-125v125zM336 0v-125h-124v125h124z" />
    <glyph glyph-name="uniFBB6" unicode="&#xfbb6;" 
d="M387 125h125v-125h-125v125zM422 287v-125h-125v125h125zM335 125v-125h-125v125h125z" />
    <glyph glyph-name="uniFBB7" unicode="&#xfbb7;" 
d="M389 0h125v-125h-125v125zM423 -162v-125h-125v125h125zM337 0v-125h-125v125h125z" />
    <glyph glyph-name="uniFBB7" unicode="&#xfbb9;" 
d="M389 0h125v-125h-125v125zM423 -162v-125h-125v125h125zM337 0v-125h-125v125h125z" />
    <glyph glyph-name="uniFE70FE7C" 
d="M-176 907h89v-97q0 -5 3.5 -8.5t8.5 -4.5h19q13 0 15 13l19 94l83 -16l-17 -79q0 -7 4 -9t8 -2h40v112h89v-128q0 -16 -6.5 -31t-18 -26.5t-26 -18t-31.5 -6.5h-42q-14 0 -30 5t-29 19q-14 -14 -33 -19t-35 -5q-23 0 -43 8.5t-35 23.5t-23.5 35t-8.5 43v97zM156 1119
l20 -86l-346 -74l-15 86zM-185 1178l341 73l20 -85l-346 -74z" />
    <glyph glyph-name="uniFB8E.alt" horiz-adv-x="1125" 
d="M176 400v-177q0 -31 23 -54t54 -23h676q14 0 22 9.5t8 21.5v73q0 14 -10 25t-25 11h-504l-89 84l304 357l89 -83l-190 -223h377q36 0 67 -13.5t54.5 -37t37 -55t13.5 -67.5v-76q0 -36 -14.5 -67.5t-38.5 -54.5t-55 -36.5t-64 -13.5h-648q-43 0 -81 16.5t-67 45.5
t-46 67.5t-17 81.5v189h124z" />
    <glyph glyph-name="uniFB8F.alt" horiz-adv-x="1193" 
d="M52 400h124v-177q0 -31 23 -54t54 -23h676q14 0 22 9.5t8 21.5v73q0 14 -10 25t-25 11h-504l-89 84l304 357l89 -83l-190 -223h377q36 0 67 -13.5t54.5 -37t37 -55t13.5 -67.5v-66q2 -16 13 -26t27 -10h70q6 0 10 -4t4 -9v-2v-116v-2q0 -5 -4 -9t-10 -4h-49
q-35 0 -65 11.5t-55 31.5q-24 -20 -53 -31.5t-60 -11.5h-648q-43 0 -81 16.5t-67 45.5t-46 67.5t-17 81.5v189z" />
    <glyph glyph-name="uniFB91.alt" horiz-adv-x="896" 
d="M-10 142q4 4 10 4h631q11 0 21 9t10 23v71q0 15 -11 25.5t-25 10.5h-503l-89 85l304 356l89 -82l-190 -224h376q36 0 67 -13.5t54.5 -37t37 -55t13.5 -67.5v-61q0 -17 12 -28.5t29 -11.5h70q5 0 9.5 -4t4.5 -10v-118q0 -14 -14 -14h-49q-35 0 -65.5 12t-54.5 32
q-25 -20 -55.5 -32t-62.5 -12h-609q-14 0 -14 14v118q0 5 4 10z" />
    <glyph glyph-name="uniFB90.alt" horiz-adv-x="827" 
d="M-14 14v118q0 12 14 14h631q11 0 21 8t10 23v72q0 15 -11 25.5t-25 10.5h-503l-89 85l304 356l89 -82l-190 -224h376q36 0 67.5 -13.5t55 -37t37 -55t13.5 -67.5v-74q0 -37 -14.5 -69t-39.5 -55t-56.5 -36t-66.5 -13h-609q-5 0 -9.5 4t-4.5 10z" />
    <glyph glyph-name="uniFB92.alt" horiz-adv-x="1125" 
d="M176 400v-177q0 -31 23 -54t54 -23h676q14 0 22 9.5t8 21.5v73q0 14 -10 25t-25 11h-492l-89 84l304 357l89 -83l-190 -223h365q36 0 67 -13.5t54.5 -37t37 -55t13.5 -67.5v-76q0 -36 -14.5 -67.5t-38.5 -54.5t-55 -36.5t-64 -13.5h-648q-43 0 -81 16.5t-67 45.5
t-46 67.5t-17 81.5v189h124zM253 489l244 286l59 -58l-238 -278z" />
    <glyph glyph-name="uniFB93.alt" horiz-adv-x="1193" 
d="M52 400h124v-177q0 -31 23 -54t54 -23h676q14 0 22 9.5t8 21.5v73q0 14 -10 25t-25 11h-492l-89 84l304 357l89 -83l-190 -223h365q36 0 67 -13.5t54.5 -37t37 -55t13.5 -67.5v-66q2 -16 13 -26t27 -10h70q14 0 14 -15v-116q0 -6 -4 -10.5t-10 -4.5h-49q-35 0 -65 11.5
t-55 31.5q-24 -20 -53 -31.5t-60 -11.5h-648q-43 0 -81 16.5t-67 45.5t-46 67.5t-17 81.5v189zM253 489l244 286l59 -58l-238 -278z" />
    <glyph glyph-name="uniFB95.alt" horiz-adv-x="998" 
d="M-11 142q4 4 11 4h734q11 0 20.5 9t9.5 23v71q0 15 -10.5 25.5t-24.5 10.5h-504l-89 85l304 356l89 -82l-189 -224h376q36 0 67 -13.5t54.5 -37t37 -55t13.5 -67.5v-60q0 -17 11.5 -29t28.5 -12h70q6 0 10 -4.5t4 -9.5l1 -118q0 -6 -4.5 -10t-10.5 -4h-49q-34 0 -64.5 12
t-55.5 32q-24 -20 -54.5 -32t-63.5 -12h-711q-14 0 -14 14v118q0 5 3 10zM47 488l244 287l58 -58l-238 -279z" />
    <glyph glyph-name="uniFB94.alt" horiz-adv-x="931" 
d="M-10 142q4 4 10 4h737q9 0 18 9t9 23v71q0 15 -10.5 25.5t-24.5 10.5h-504l-89 85l304 356l89 -82l-189 -224h376q35 0 66.5 -13.5t55 -37t37 -55t13.5 -67.5v-74q0 -37 -14.5 -69t-39 -55t-56.5 -36t-67 -13h-711q-14 0 -14 14v118q0 5 4 10zM47 488l244 287l58 -58
l-238 -279z" />
  </font>
</defs>
</svg>
