<?xml version="1.0" standalone="no"?>
<!DOCTYPE svg PUBLIC "-//W3C//DTD SVG 1.1//EN" "http://www.w3.org/Graphics/SVG/1.1/DTD/svg11.dtd" >
<svg xmlns="http://www.w3.org/2000/svg" xmlns:xlink="http://www.w3.org/1999/xlink" version="1.1">
<metadata>
Created by FontForge 20170731 at Wed Jun 10 09:39:12 2020
 By Aleksey,,,
Copyright (c) 2019 by www.fontiran.com All rights reserved.
</metadata>
<defs>
<font id="PeydaWeb-ExtraLight" horiz-adv-x="0" >
  <font-face 
    font-family="PeydaWeb ExtLt"
    font-weight="200"
    font-stretch="normal"
    units-per-em="1000"
    panose-1="0 0 0 0 0 0 0 0 0 0"
    ascent="800"
    descent="-200"
    x-height="498"
    cap-height="698"
    bbox="-200 -425 1439 1139"
    underline-thickness="50"
    underline-position="-175"
    unicode-range="U+000D-FEFC"
  />
<missing-glyph horiz-adv-x="250" 
 />
    <glyph glyph-name="uniFDF2" unicode="&#x627;&#xfedf;&#xfee0;&#xfeea;" horiz-adv-x="1240" arabic-form="isolated" 
d="M85 215q0 63 30.5 99t76.5 48l150 38v84h41v-340q0 -20 8 -37.5t22 -30t32 -20t37 -7.5h67q18 0 34.5 7t28.5 19t19 28t7 34v267h41v-269q0 -18 7 -33.5t19.5 -27.5t29 -18.5t35.5 -6.5h64q37 0 63 26t26 63v403h41v-404q0 -28 -11 -53t-29.5 -43.5t-43.5 -29.5t-53 -11
h-51q-38 0 -68.5 18t-48.5 47q-20 -29 -50.5 -47t-67.5 -18h-59q-46 0 -82 25t-51 64q-7 -6 -16 -10t-20 -4h-155q-41 0 -57 17t-16 56v67zM342 124v231l-145 -38q-16 -4 -29 -14t-22.5 -23.5t-14.5 -30t-5 -33.5v-92h216zM1173 641v-641h-41v641h41zM541 660v-64
q0 -19 13.5 -32.5t31.5 -13.5h7q18 0 31.5 11t16.5 29l13 61l24 -4l-11 -54q-1 -4 -1 -8q0 -6 3 -12.5t9.5 -12t15.5 -8t18 -2.5h48v113h25v-98q0 -18 -13 -31.5t-32 -13.5h-28q-18 0 -33.5 9t-24.5 28q-11 -20 -27.5 -28.5t-34.5 -8.5q-32 0 -54 22.5t-22 53.5v64h25z
M647 711v113h24v-113h-24z" />
    <glyph glyph-name="uniFEF5" unicode="&#xfedf;&#xfe82;" horiz-adv-x="509" arabic-form="isolated" 
d="M171 29l-48 518l39 6l46 -518l106 14q42 5 63.5 29.5t21.5 73.5v489h41v-489q0 -36 -9 -61t-24 -41.5t-35.5 -26t-43.5 -12.5l-260 -36l-5 40zM-20 578v28q0 26 16 46t51 20h179v-38h-184q-12 0 -22 -10t-10 -23v-23h-30z" />
    <glyph glyph-name="uniFEF6" unicode="&#xfee0;&#xfe82;" horiz-adv-x="561" arabic-form="final" 
d="M63 17l108 14l-48 516l40 7l46 -519l106 14q42 6 64 29.5t22 73.5v490h41v-506q0 -25 8.5 -41.5t22.5 -26.5t32 -14.5t36 -4.5h20q14 0 14 -14v-21q0 -5 -4 -9.5t-10 -4.5h-24q-37 0 -67 18t-49 47q-17 -24 -40 -36t-52 -16l-261 -38zM-20 580v27q0 26 16 46.5t51 20.5
h179v-39h-184q-12 0 -22 -10t-10 -23v-22h-30z" />
    <glyph glyph-name="uniFEF7" unicode="&#xfedf;&#xfe84;" horiz-adv-x="502" arabic-form="isolated" 
d="M50 15l108 14l-48 518l39 6l46 -518l106 14q42 5 63.5 29.5t21.5 73.5v489h41v-489q0 -36 -9 -61t-24 -41.5t-35.5 -26t-43.5 -12.5l-260 -36zM142 648q-1 1 -6 5.5t-12 16.5l-20 43q-9 19 -9 38t6.5 36t19.5 30.5t30 20.5l70 29l9 -23l-77 -35q-21 -10 -27 -27t-6 -28
q0 -13 6 -26l35 -71l155 81l11 -25l-256 -131l-13 25z" />
    <glyph glyph-name="uniFEF8" unicode="&#xfee0;&#xfe84;" horiz-adv-x="547" arabic-form="final" 
d="M49 17l108 14l-48 516l40 7l46 -519l106 14q42 6 64 30.5t22 72.5v489h41v-505q0 -25 8.5 -41.5t22.5 -26.5t32 -14.5t36 -4.5h20q14 0 14 -14v-21q0 -5 -4 -9.5t-10 -4.5h-24q-37 0 -67 18t-49 47q-17 -24 -40 -36t-52 -16l-261 -38zM155 649q-1 0 -6.5 4.5t-10.5 16.5
l-20 43q-9 19 -9 38.5t6.5 36.5t19 30t29.5 20l70 29l9 -23l-77 -35q-20 -10 -26 -26.5t-6 -26.5q0 -14 7 -28l34 -69l153 79l13 -24l-257 -132l-13 26z" />
    <glyph glyph-name="uniFEF9" unicode="&#xfedf;&#xfe88;" horiz-adv-x="503" arabic-form="isolated" 
d="M50 15l108 14l-48 518l39 6l46 -518l106 14q42 5 63.5 29.5t21.5 73.5v489h41v-489q0 -36 -9 -61t-24 -41.5t-35.5 -26t-43.5 -12.5l-260 -36zM90 -332l83 41l-6 6q-5 5 -11 16l-21 44q-9 19 -9 38.5t7 36t20 30t30 20.5l69 29l9 -23l-77 -36q-21 -10 -26.5 -27t-5.5 -27
q0 -14 7 -30l33 -67l155 80l11 -24l-257 -132z" />
    <glyph glyph-name="uniFEFA" unicode="&#xfee0;&#xfe88;" horiz-adv-x="548" arabic-form="final" 
d="M158 31l-48 516l40 7l46 -519l106 14q42 6 64 30.5t22 72.5v489h41v-505q0 -25 8.5 -41.5t22.5 -26.5t32 -14.5t36 -4.5h20q14 0 14 -14v-21q0 -5 -4 -9.5t-10 -4.5h-24q-37 0 -67 18t-49 47q-17 -24 -40 -36t-52 -16l-261 -38l-5 42zM173 -290q-1 0 -6.5 5t-10.5 16
q0 1 -3 7t-6.5 13.5t-6.5 14.5t-4 9q-9 19 -9 38.5t7 36t19.5 30t29.5 20.5l69 29l9 -23l-77 -36q-20 -10 -26 -26.5t-6 -26.5q0 -14 6 -28q2 -3 6 -12t9 -19.5t10.5 -20.5t8.5 -17l155 79l12 -24l-258 -131l-11 26z" />
    <glyph glyph-name="uniFEFB" unicode="&#xfedf;&#xfe8e;" horiz-adv-x="503" arabic-form="isolated" 
d="M158 29l-48 518l39 6l46 -518l106 14q42 5 63.5 29.5t21.5 73.5v489h41v-489q0 -36 -9 -61t-24 -41.5t-35.5 -26t-43.5 -12.5l-260 -36l-5 40z" />
    <glyph glyph-name="uniFEFC" unicode="&#xfee0;&#xfe8e;" horiz-adv-x="548" arabic-form="final" 
d="M50 16l108 14l-48 516l40 7l46 -519l106 14q42 6 64 30.5t22 72.5v489h41v-505q0 -25 8.5 -41.5t22.5 -26.5t32 -14.5t36 -4.5h20q14 0 14 -14v-21q0 -5 -4 -9.5t-10 -4.5h-24q-37 0 -67 18t-49 47q-17 -24 -40 -36t-52 -16l-261 -38z" />
    <glyph glyph-name="uniFEB3FBFD" unicode="&#xfeb3;&#xfbfd;" horiz-adv-x="1287" 
d="M126 192v-216q0 -29 11.5 -55t31.5 -45.5t46.5 -31t55.5 -11.5h177q25 0 47.5 10t40 27t27.5 39.5t10 47.5v49l-238 55v79q0 34 12 63t31.5 50.5t46 35.5t54.5 17l58 7q6 0 11 1q28 -1 56.5 -14.5t46.5 -41.5l95 -148q18 -29 45.5 -45.5t58.5 -16.5q36 0 62.5 22t32.5 55
l29 144l40 -7l-21 -113q-2 -9 -2 -18q0 -10 3.5 -24t15 -27.5t29 -22t37.5 -8.5h94v258h41v-239q0 -33 -17 -51t-50 -18h-67q-75 0 -107 72q-20 -36 -52.5 -54t-70.5 -18t-71.5 19.5t-62.5 64.5l-95 151q-11 18 -30.5 27t-37.5 9h-7l-70 -8q-21 -3 -39 -14t-30.5 -27.5
t-20 -37.5t-7.5 -43v-42l180 -42q26 -6 42 -26t16 -47v-37q0 -33 -13.5 -62.5t-36.5 -51.5t-53.5 -35t-64.5 -13h-177q-38 0 -71.5 14.5t-58.5 39.5t-39.5 58.5t-14.5 71.5v224h41z" />
    <glyph glyph-name="uniFEB4FBFD" unicode="&#xfeb4;&#xfbfd;" horiz-adv-x="1343" 
d="M126 192v-219q0 -29 11.5 -54.5t31 -44.5t45.5 -30.5t55 -11.5h179q26 0 48 9.5t38.5 26t26.5 39t10 47.5v52l-236 55v79q0 33 11.5 62t31.5 51t46.5 36t54.5 17l57 7h10q28 0 56 -14.5t46 -40.5l102 -148q20 -29 45 -45t55 -16q37 0 63 21.5t33 53.5l29 145l40 -7
l-21 -113q-2 -9 -2 -18t3.5 -23t15 -28t28 -22.5t37.5 -8.5h8q37 0 62.5 25.5t25.5 62.5v170h42v-178q0 -16 7.5 -30.5t19.5 -25.5t28 -17.5t34 -6.5h40q5 0 9.5 -4.5t4.5 -10.5v-21q-5 -13 -14 -13h-33q-36 0 -67 18t-50 54q-18 -36 -47 -54t-66 -18q-36 0 -65 17.5
t-44 53.5q-20 -36 -52 -53.5t-71 -17.5q-40 0 -73 19t-62 63l-98 151q-11 18 -28.5 27.5t-36.5 9.5h-7l-70 -8q-21 -3 -39 -14t-31 -27.5t-20 -37.5t-7 -43v-42l179 -41q26 -6 41.5 -26.5t15.5 -48.5v-36q0 -33 -13.5 -63t-36 -52t-52.5 -35t-64 -13h-178q-38 0 -71.5 14.5
t-58 40t-39 58.5t-14.5 71v225h41z" />
    <glyph glyph-name="uniFEB7FBFD" unicode="&#xfeb7;&#xfbfd;" horiz-adv-x="1281" 
d="M85 -32v224h41v-216q0 -29 11.5 -55t31.5 -45.5t46.5 -31t55.5 -11.5h177q25 0 47.5 10t40 27t27.5 39.5t10 47.5v49l-238 55v79q0 34 12 63t31.5 50.5t46 35.5t54.5 17l58 7q6 0 11 1q28 -1 56.5 -14.5t46.5 -41.5l95 -148q18 -29 45.5 -45.5t58.5 -16.5q36 0 62.5 22
t32.5 55l29 144l40 -7l-21 -113q-2 -9 -2 -18q0 -10 3.5 -24t15 -27.5t29 -22t37.5 -8.5h94v258h41v-239q0 -33 -17 -51t-50 -18h-67q-75 0 -107 72q-20 -36 -52.5 -54t-70.5 -18t-71.5 19.5t-62.5 64.5l-95 151q-11 18 -30.5 27t-37.5 9h-7l-70 -8q-21 -3 -39 -14
t-30.5 -27.5t-20 -37.5t-7.5 -43v-42l180 -42q26 -6 42 -26t16 -47v-37q0 -33 -13.5 -62.5t-36.5 -51.5t-53.5 -35t-64.5 -13h-177q-38 0 -71.5 14.5t-58.5 39.5t-39.5 58.5t-14.5 71.5zM886 405v66h67v-66h-67zM1003 405v66h66v-66h-66zM942 572h66v-65h-66v65z" />
    <glyph glyph-name="uniFEB8FBFD" unicode="&#xfeb8;&#xfbfd;" horiz-adv-x="1343" 
d="M126 192v-219q0 -29 11.5 -54.5t31 -44.5t45.5 -30.5t55 -11.5h179q26 0 48 9.5t38.5 26t26.5 39t10 47.5v52l-236 55v79q0 33 11.5 62t31.5 51t46.5 36t54.5 17l57 7h10q28 0 56 -14.5t46 -40.5l102 -148q20 -29 45 -45t55 -16q37 0 63 21.5t33 53.5l29 145l40 -7
l-21 -113q-2 -9 -2 -18t3.5 -23t15 -28t28 -22.5t37.5 -8.5h8q37 0 62.5 25.5t25.5 62.5v170h42v-178q0 -16 7.5 -30.5t19.5 -25.5t28 -17.5t34 -6.5h40q5 0 9.5 -4.5t4.5 -10.5v-21q-5 -13 -14 -13h-33q-36 0 -67 18t-50 54q-18 -36 -47 -54t-66 -18q-36 0 -65 17.5
t-44 53.5q-20 -36 -52 -53.5t-71 -17.5q-40 0 -73 19t-62 63l-98 151q-11 18 -28.5 27.5t-36.5 9.5h-7l-70 -8q-21 -3 -39 -14t-31 -27.5t-20 -37.5t-7 -43v-42l179 -41q26 -6 41.5 -26.5t15.5 -48.5v-36q0 -33 -13.5 -63t-36 -52t-52.5 -35t-64 -13h-178q-38 0 -71.5 14.5
t-58 40t-39 58.5t-14.5 71v225h41zM885 470h65v-65h-65v65zM941 572h65v-65h-65v65zM1002 405v65h65v-65h-65z" />
    <glyph glyph-name="uniFEBBFBFD" unicode="&#xfebb;&#xfbfd;" horiz-adv-x="1376" 
d="M85 192h43v-214q0 -30 11 -56.5t30.5 -46t45 -30.5t55.5 -11h179q26 0 48 10t38.5 27t26 39.5t9.5 47.5l1 48l-237 56l1 78q0 34 11.5 63t31.5 50.5t46.5 35t55.5 16.5l83 9q7 1 13 1q25 0 53 -14t45 -40l106 -162q6 -9 12.5 -14.5t14.5 -13.5l179 192q26 28 61.5 43.5
t73.5 15.5h61q26 0 48.5 -9.5t39.5 -26t27 -39.5t10 -49v-77q0 -25 -9.5 -47t-26 -38.5t-39 -26t-47.5 -9.5h-313q-42 0 -73.5 20.5t-59.5 63.5l-97 149q-13 20 -32 29t-37 9h-8l-92 -8q-22 -2 -40.5 -13.5t-32 -28t-21 -37.5t-7.5 -43v-41l183 -44q26 -8 41.5 -26.5
t15.5 -45.5v-37q0 -34 -13.5 -63.5t-36 -51.5t-52.5 -34.5t-64 -12.5h-177q-38 0 -72 14.5t-59 39.5t-39.5 59t-14.5 72v222zM1189 49q32 0 54.5 22.5t22.5 54.5v69q0 35 -24 58.5t-59 23.5h-57q-33 0 -63.5 -13t-53.5 -37l-166 -178h346z" />
    <glyph glyph-name="uniFEBCFBFD" unicode="&#xfebc;&#xfbfd;" horiz-adv-x="1422" 
d="M127 189v-213q0 -31 11.5 -57t31 -45t45.5 -29.5t56 -10.5h178q26 0 48.5 9.5t39 26t26 39t9.5 48.5v49l-235 55v77q0 34 12 63t32.5 50.5t46.5 34.5t54 16l82 9q5 1 11 1q26 0 54 -13.5t45 -39.5l114 -174q4 -6 6 -8t4 -3t4.5 -2t6.5 -5l177 193q26 28 61.5 43t74.5 15
h60q25 0 47.5 -9.5t39 -26t26.5 -39t10 -48.5v-61q0 -37 26.5 -61t62.5 -24h28q14 0 14 -15v-20q0 -14 -14 -14h-20q-35 0 -64 16.5t-47 45.5q-15 -29 -42.5 -45.5t-62.5 -16.5h-314q-40 0 -72 20t-60 64l-96 150q-13 20 -32.5 28t-38.5 8h-8l-90 -8q-22 -1 -39.5 -12.5
t-30.5 -28.5t-20 -38.5t-7 -43.5v-43l178 -44q26 -6 41.5 -25t15.5 -45v-38q0 -33 -13.5 -62t-36.5 -50.5t-53 -34t-63 -12.5h-177q-38 0 -71.5 14.5t-58 39t-39 58t-14.5 71.5v221h40zM841 47h347q32 0 54.5 22t22.5 54v70q0 35 -24.5 59t-59.5 24h-54q-35 0 -66.5 -12.5
t-54.5 -38.5z" />
    <glyph glyph-name="uniFEBFFBFD" unicode="&#xfebf;&#xfbfd;" horiz-adv-x="1376" 
d="M85 -30v222h41v-214q0 -30 11.5 -56.5t31 -46t45.5 -30.5t56 -11h179q26 0 48 10t39 27t26.5 39.5t9.5 47.5v48l-236 56v78q0 34 11.5 63t31.5 51t46.5 35t55.5 16l83 9q7 1 13 1q25 0 53 -14t45 -40l106 -162q6 -9 12.5 -14.5t14.5 -13.5l179 192q26 28 61.5 43.5
t73.5 15.5h61q26 0 48.5 -9.5t39.5 -26t27 -39.5t10 -49v-77q0 -25 -9.5 -47t-26 -38.5t-39 -26t-47.5 -9.5h-313q-42 0 -73.5 20.5t-59.5 63.5l-97 149q-13 20 -32 29t-37 9h-8l-92 -8q-22 -2 -40 -13.5t-30.5 -28t-19.5 -37.5t-7 -43v-41l179 -44q26 -7 41.5 -26t15.5 -46
v-37q0 -34 -13.5 -63.5t-36 -51.5t-52.5 -34.5t-64 -12.5h-177q-38 0 -72 14.5t-59 39.5t-39.5 59t-14.5 72zM843 49h346q32 0 55 22.5t23 54.5v69q0 35 -24.5 58.5t-59.5 23.5h-57q-33 0 -63.5 -13t-53.5 -37zM1167 523v-66h-65v66h65z" />
    <glyph glyph-name="uniFEC0FBFD" unicode="&#xfec0;&#xfbfd;" horiz-adv-x="1426" 
d="M85 -31v223h42v-214q0 -30 11 -56.5t30.5 -46t45.5 -30.5t56 -11h179q26 0 48 10t38.5 26.5t26 39t9.5 48.5l1 49l-236 55v78q0 35 12 63.5t32.5 50.5t46.5 35t54 16l83 9q7 1 14 1q26 0 53.5 -13.5t45.5 -40.5l111 -171q4 -6 6 -8t5 -3l5 -3l6 -6l177 193
q26 28 61.5 43.5t75.5 15.5h60q26 0 48.5 -9.5t39.5 -26.5t27 -40t10 -49v-61q0 -37 26 -62t62 -25h29q13 0 13 -14v-21q0 -14 -13 -14h-21q-35 0 -64.5 16.5t-46.5 45.5q-16 -29 -44 -45.5t-63 -16.5h-313q-42 0 -73.5 20.5t-59.5 64.5l-97 150q-12 20 -32 28t-39 8h-8
l-90 -8q-22 -1 -39.5 -12t-30 -28t-19.5 -38.5t-7 -43.5v-43l177 -43q27 -6 42.5 -25.5t15.5 -45.5v-39q0 -33 -13.5 -62.5t-36.5 -51t-53.5 -34t-63.5 -12.5h-178q-38 0 -71.5 14.5t-58.5 39.5t-39.5 58.5t-14.5 71.5zM1190 49q32 0 54 22.5t22 54.5v70q0 35 -24 58t-59 23
h-55q-34 0 -65 -12.5t-54 -37.5l-164 -178h345zM1165 523v-66h-65v66h65z" />
    <glyph glyph-name="uniFE92FBFD" unicode="&#xfe92;&#xfbfd;" horiz-adv-x="902" 
d="M126 194v-215q0 -30 11.5 -56t31 -45.5t45.5 -30.5t56 -11h178q26 0 48 10t39 26.5t26.5 39t9.5 47.5v48l-238 55l1 79q1 35 13 64t32 50t46 34t55 16l84 10q5 0 11 1q26 -1 53 -14.5t45 -39.5q8 -11 23.5 -36t32.5 -51q19 -30 41 -65q18 -29 46 -45t61 -16h25
q5 0 9.5 -4t4.5 -11v-20q0 -5 -4.5 -9.5t-9.5 -4.5h-28q-42 0 -75.5 20t-61.5 64l-96 151q-12 20 -31 29t-36 9q-6 0 -11 -1l-90 -10q-22 -2 -40 -13t-31.5 -28t-21 -37.5t-7.5 -42.5v-40l183 -44q26 -6 41 -25.5t15 -46.5v-36q0 -34 -13.5 -63.5t-36 -51.5t-53 -35
t-63.5 -13h-177q-38 0 -71.5 14.5t-58.5 39.5t-39.5 59t-14.5 72v223h41zM790 -121v-64h-64v64h64z" />
    <glyph glyph-name="uniFB59FBFD" unicode="&#xfb59;&#xfbfd;" horiz-adv-x="940" 
d="M85 -29v223h41v-215q0 -30 11.5 -56t31 -45.5t45.5 -30.5t56 -11h178q26 0 48 10t39 26.5t26.5 39t9.5 47.5v48l-238 55l1 79q1 35 13 64t32 50t46 34t55 16l84 10q5 0 11 1q26 -1 53 -14.5t45 -39.5q8 -11 23.5 -36t32.5 -51q19 -30 41 -65q18 -29 46 -45t61 -16h63
q5 0 9.5 -4t4.5 -11v-20q0 -5 -4.5 -9.5t-9.5 -4.5h-66q-42 0 -75.5 20t-61.5 64l-96 151q-12 20 -31 29t-36 9q-6 0 -11 -1l-90 -10q-22 -2 -40 -13t-31.5 -28t-21 -37.5t-7.5 -42.5v-40l183 -44q26 -6 41 -25.5t15 -46.5v-36q0 -34 -13.5 -63.5t-36 -51.5t-53 -35
t-63.5 -13h-177q-38 0 -71.5 14.5t-58.5 39.5t-39.5 59t-14.5 72zM671 -120h65v-65h-65v65zM798 -222v-65h-65v65h65zM788 -185v65h65v-65h-65z" />
    <glyph glyph-name="uniFE98FBFD" unicode="&#xfe98;&#xfbfd;" horiz-adv-x="902" 
d="M85 194h41v-215q0 -30 11.5 -56t31 -45.5t45.5 -30.5t56 -11h178q26 0 48 10t39 26.5t26.5 39t9.5 47.5v48l-238 55l1 79q1 35 13 64t32 50t46 34t55 16l84 10q5 0 11 1q26 -1 53 -14.5t45 -39.5q8 -11 23.5 -36t32.5 -51q19 -30 41 -65q18 -29 46 -45t61 -16h25
q5 0 9.5 -4t4.5 -11v-20q0 -5 -4.5 -9.5t-9.5 -4.5h-28q-42 0 -75.5 20t-61.5 64l-96 151q-12 20 -31 29t-36 9q-6 0 -11 -1l-90 -10q-22 -2 -40 -13t-31.5 -28t-21 -37.5t-7.5 -42.5v-40l183 -44q26 -6 41 -25.5t15 -46.5v-36q0 -34 -13.5 -63.5t-36 -51.5t-53 -35
t-63.5 -13h-177q-38 0 -71.5 14.5t-58.5 39.5t-39.5 59t-14.5 72v223zM662 521h65v-65h-65v65zM545 456v65h65v-65h-65z" />
    <glyph glyph-name="uniFE9CFBFD" unicode="&#xfe9c;&#xfbfd;" horiz-adv-x="902" 
d="M85 -29v223h41v-215q0 -30 11.5 -56t31 -45.5t45.5 -30.5t56 -11h178q26 0 48 10t39 26.5t26.5 39t9.5 47.5v48l-238 55l1 79q1 35 13 64t32 50t46 34t55 16l84 10q5 0 11 1q26 -1 53 -14.5t45 -39.5q8 -11 23.5 -36t32.5 -51q19 -30 41 -65q18 -29 46 -45t61 -16h25
q5 0 9.5 -4t4.5 -11v-20q0 -5 -4.5 -9.5t-9.5 -4.5h-28q-42 0 -75.5 20t-61.5 64l-96 151q-12 20 -31 29t-36 9q-6 0 -11 -1l-90 -10q-22 -2 -40 -13t-31.5 -28t-21 -37.5t-7.5 -42.5v-40l183 -44q26 -6 41 -25.5t15 -46.5v-36q0 -34 -13.5 -63.5t-36 -51.5t-53 -35
t-63.5 -13h-177q-38 0 -71.5 14.5t-58.5 39.5t-39.5 59t-14.5 72zM725 518v-64h-64v64h64zM601 619h63v-64h-63v64zM546 454v64h63v-64h-63z" />
    <glyph glyph-name="uniFEE8FBFD" unicode="&#xfee8;&#xfbfd;" horiz-adv-x="903" 
d="M126 194v-215q0 -30 11.5 -56t31 -45.5t45.5 -30.5t56 -11h178q26 0 48 10t39 26.5t26.5 39t9.5 47.5v48l-238 55l1 79q1 35 13 64t32 50t46 34t55 16l84 10q5 0 11 1q26 -1 53 -14.5t45 -39.5q8 -11 23.5 -36t32.5 -51q19 -30 41 -65q18 -29 46 -45t61 -16h25
q5 0 9.5 -4t4.5 -11v-20q0 -5 -4.5 -9.5t-9.5 -4.5h-28q-42 0 -75.5 20t-61.5 64l-96 151q-12 20 -31 29t-36 9q-6 0 -11 -1l-90 -10q-22 -2 -40 -13t-31.5 -28t-21 -37.5t-7.5 -42.5v-40l183 -44q26 -6 41 -25.5t15 -46.5v-36q0 -34 -13.5 -63.5t-36 -51.5t-53 -35
t-63.5 -13h-177q-38 0 -71.5 14.5t-58.5 39.5t-39.5 59t-14.5 72v223h41zM600 456v65h65v-65h-65z" />
    <glyph glyph-name="uniFBFDFE8C" unicode="&#xfe8c;&#xfbfd;" horiz-adv-x="902" 
d="M126 194v-215q0 -30 11.5 -56t31 -45.5t45.5 -30.5t56 -11h178q26 0 48 10t39 26.5t26.5 39t9.5 47.5v48l-238 55l1 79q1 35 13 64t32 50t46 34t55 16l84 10q5 0 11 1q26 -1 53 -14.5t45 -39.5q8 -11 23.5 -36t32.5 -51q19 -30 41 -65q18 -29 46 -45t61 -16h25
q5 0 9.5 -4t4.5 -11v-20q0 -5 -4.5 -9.5t-9.5 -4.5h-28q-42 0 -75.5 20t-61.5 64l-96 151q-12 20 -31 29t-36 9q-6 0 -11 -1l-90 -10q-22 -2 -40 -13t-31.5 -28t-21 -37.5t-7.5 -42.5v-40l183 -44q26 -6 41 -25.5t15 -46.5v-36q0 -34 -13.5 -63.5t-36 -51.5t-53 -35
t-63.5 -13h-177q-38 0 -71.5 14.5t-58.5 39.5t-39.5 59t-14.5 72v223h41zM475 407l85 42q-1 0 -7 4.5t-12 16.5q0 2 -3 8t-6 13t-6 13.5t-4 8.5q-9 19 -9.5 29.5t-0.5 11.5q0 18 7 34t19.5 29.5t29.5 20.5l70 29l9 -23l-77 -36q-21 -9 -26.5 -26t-5.5 -27q0 -14 6 -27
q2 -5 6.5 -14.5t9.5 -20t10 -20.5l8 -16l154 80l12 -24l-257 -131z" />
    <glyph glyph-name="uniFBFDFBFF" unicode="&#xfbff;&#xfbfd;" horiz-adv-x="939" 
d="M85 193h41v-215q0 -30 11.5 -56t31 -45.5t45.5 -30.5t56 -11h178q26 0 48 10t39 27t26.5 39.5t9.5 47.5v47l-237 56v78q0 35 12 63.5t32 50t46.5 34.5t55.5 16l84 10q7 1 13 1q25 0 52 -14t44 -40q8 -11 24 -36t33 -51q19 -30 41 -65q17 -29 45.5 -44.5t60.5 -15.5h62
q6 0 10 -4.5t4 -10.5v-21q0 -13 -14 -13h-65q-42 0 -75.5 19.5t-61.5 64.5l-95 150q-13 20 -32 29.5t-37 9.5q-5 0 -10 -1l-90 -11q-22 -2 -40 -13t-31.5 -27.5t-21 -37t-7.5 -42.5v-41l183 -43q26 -6 41 -26t15 -46v-36q0 -34 -13.5 -64t-36 -52t-53 -34.5t-63.5 -12.5
h-177q-37 0 -70.5 14.5t-59 39.5t-40 58.5t-14.5 71.5v223zM804 -185v65h65v-65h-65zM687 -120h65v-65h-65v65z" />
    <glyph glyph-name="uni0621" unicode="&#x621;" horiz-adv-x="460" arabic-form="isolated" 
d="M175 67q-2 0 -10.5 5.5t-17.5 23.5l-22 45q-10 22 -10.5 34t-0.5 13q0 21 8 40t23 34.5t35 23.5l81 34l15 -27l-91 -42q-23 -11 -32 -30.5t-9 -32.5q0 -15 8 -30q2 -4 7 -14.5t11 -22.5l12 -25q6 -13 10 -21l182 94l13 -29l-300 -154l-15 28z" />
    <glyph glyph-name="uni0622" unicode="&#x622;" horiz-adv-x="214" arabic-form="isolated" 
d="M86 560h41v-560h-41v560zM-30 586v28q0 25 16 45.5t51 20.5h179v-39h-189q-10 0 -18.5 -8.5t-8.5 -19.5v-27h-30z" />
    <glyph glyph-name="uni0623" unicode="&#x623;" horiz-adv-x="208" arabic-form="isolated" 
d="M142 560v-560h-41v560h41zM63 671q-1 1 -6 5t-11 17q0 1 -3 6.5t-6 13t-6 14.5t-5 10q-9 18 -9 37t7 36t19.5 30t29.5 20l70 29l8 -21l-76 -37q-21 -10 -27 -27t-6 -27q0 -13 6 -26q2 -4 6 -13t9.5 -19.5t10.5 -21t8 -16.5l155 80l12 -25l-256 -132l-13 24z" />
    <glyph glyph-name="uni0624" unicode="&#x624;" horiz-adv-x="459" arabic-form="isolated" 
d="M78 138l17 91q8 41 39.5 67t73.5 26h56q26 0 48.5 -9.5t39.5 -26.5t26.5 -39t9.5 -48v-217q0 -33 -10 -63.5t-28 -56t-43.5 -44.5t-56.5 -29l-100 -33l-14 44l106 35q48 16 76 56t28 89v26q-7 -4 -13.5 -5t-14.5 -1h-127q-27 0 -50 11.5t-38.5 30.5t-21 39t-5.5 37
q0 10 2 20zM121 102q4 -16 13.5 -27.5t24 -18.5t30.5 -7h158v150q0 34 -23.5 56.5t-56.5 22.5h-55q-29 0 -51 -18t-27 -45l-15 -81q-1 -6 -1 -12q0 -11 3 -20zM161 454q-2 0 -7 4.5t-10 15.5q0 1 -2.5 7t-6 13.5t-6.5 14t-5 9.5q-9 19 -9 38.5t6.5 36t19.5 30t30 20.5l70 29
l9 -23l-77 -35q-21 -10 -26.5 -26.5t-5.5 -26.5q0 -14 6 -28l34 -71l155 80l11 -24l-257 -131l-12 26z" />
    <glyph glyph-name="uni0625" unicode="&#x625;" horiz-adv-x="207" arabic-form="isolated" 
d="M138 641v-641h-41v641h41zM71 -284q-1 0 -6 5t-10 16q0 1 -2.5 6.5t-6 13t-6.5 14.5t-5 10q-9 19 -9 38t6.5 36t19.5 30.5t30 20.5l70 29l9 -23l-77 -36q-21 -10 -26.5 -26.5t-5.5 -26.5q0 -14 6 -27q2 -3 6 -11.5t9 -19t10 -21.5t9 -18l155 79l11 -24l-257 -131l-13 23z
" />
    <glyph glyph-name="uni0626" unicode="&#x626;" horiz-adv-x="765" arabic-form="isolated" 
d="M185 269v-223q0 -29 11.5 -55.5t31 -46t45.5 -31t56 -11.5h198q26 0 48.5 10t39.5 27t26.5 39.5t9.5 48.5v48l-269 62v99q0 34 12 62.5t32.5 50t47 35t54.5 17.5l100 13l5 -40l-112 -16q-22 -3 -40 -14.5t-31 -28t-20 -37t-7 -41.5v-62l212 -50q26 -6 41.5 -22.5
t15.5 -42.5v-44q0 -33 -13 -63t-35 -52t-51.5 -35t-62.5 -13h-202q-38 0 -71.5 14.5t-58.5 39.5t-39.5 59t-14.5 72v231h41zM167 479h1q-1 1 -6 4.5t-11 16.5l-20 44q-9 19 -9 38t6.5 36t19.5 30t30 20l70 29l9 -22l-77 -36q-21 -10 -27.5 -27t-6.5 -27q0 -13 7 -27l7 -13
q4 -9 9 -19l10 -21q5 -11 8 -18l155 81l12 -24l-257 -132l-12 26z" />
    <glyph glyph-name="uni0627" unicode="&#x627;" horiz-adv-x="201" arabic-form="isolated" 
d="M85 0v641h41v-641h-41z" />
    <glyph glyph-name="uni0628" unicode="&#x628;" horiz-adv-x="835" arabic-form="isolated" 
d="M126 304v-133q0 -25 10 -47.5t27 -39t39.5 -26t48.5 -9.5h385q18 0 34 7t28.5 19t19.5 28t7 34v167h41v-167q0 -28 -11 -53t-29.5 -44t-43.5 -29.5t-53 -10.5h-380q-34 0 -63.5 12.5t-52 34.5t-35.5 51.5t-13 62.5v143h41zM468 -120v-65h-65v65h65z" />
    <glyph glyph-name="uni0629" unicode="&#x629;" horiz-adv-x="471" arabic-form="isolated" 
d="M96 236q11 26 37 45q12 8 26 16.5t26 16.5q13 9 27 17l-68 45l22 37l13 -8q12 -9 31 -22.5t42.5 -29.5t44.5 -30.5t37.5 -26t22.5 -16.5q18 -14 31.5 -40.5t13.5 -61.5v-38q0 -32 -12.5 -59.5t-33 -47.5t-47 -31t-55.5 -11h-21q-29 0 -55.5 11t-47 31t-33 47.5
t-12.5 59.5v36q0 33 11 60zM126 187v-36q0 -24 9 -44t24 -34.5t35 -23t42 -8.5h16q21 0 40.5 8t34.5 22.5t24 35t9 45.5v36q0 34 -29 59q-4 3 -18 12t-29 19q-17 12 -38 26l-92 -60q-27 -20 -28 -57zM268 547v65h65v-65h-65zM216 612v-65h-65v65h65z" />
    <glyph glyph-name="uni062A" unicode="&#x62a;" horiz-adv-x="835" arabic-form="isolated" 
d="M85 304h41v-133q0 -25 10 -47.5t27 -39t39.5 -26t48.5 -9.5h385q18 0 34 7t28.5 19t19.5 28t7 34v167h41v-167q0 -28 -11 -53t-29.5 -44t-43.5 -29.5t-53 -10.5h-380q-34 0 -63.5 12.5t-52 34.5t-35.5 51.5t-13 62.5v143zM516 369v-65h-65v65h65zM334 304v65h65v-65h-65z
" />
    <glyph glyph-name="uni062B" unicode="&#x62b;" horiz-adv-x="834" arabic-form="isolated" 
d="M85 305h41v-133q0 -25 10 -47.5t26.5 -39t39.5 -26.5t48 -10h384q38 0 63.5 26t25.5 63v167h41v-167q0 -28 -10.5 -53t-29.5 -44t-43.5 -30t-53.5 -11h-379q-34 0 -64 12.5t-52 34.5t-34.5 51.5t-12.5 63.5v143zM334 370h65v-65h-65v65zM389 472h65v-65h-65v65zM451 370
h65v-65h-65v65z" />
    <glyph glyph-name="uni062C" unicode="&#x62c;" horiz-adv-x="650" arabic-form="isolated" 
d="M107 301q6 24 21 39.5t33 24t30 9.5t16 1q15 0 27 -4l348 -105l-14 -34l-50 11q-9 3 -19 3q-18 0 -36 -12l-251 -187q-35 -25 -53.5 -60t-18.5 -75v-4q0 -38 14.5 -72t39.5 -59t58.5 -39.5t71.5 -14.5h218v-49h-218q-46 0 -87 17.5t-71.5 48.5t-48.5 71.5t-18 87.5
q0 57 26 105.5t71 82.5q23 17 55 40.5t65.5 47.5t63 45.5t46.5 33.5q3 2 6.5 5t11.5 7l-229 67q-7 2 -14 2q-15 0 -34.5 -12.5t-26.5 -35.5l-19 -67l-35 9zM351 -110v65h65v-65h-65z" />
    <glyph glyph-name="uni062D" unicode="&#x62d;" horiz-adv-x="650" arabic-form="isolated" 
d="M106 301q7 24 22 39.5t33 24t30 9.5t16 1q15 0 27 -4l347 -105l-13 -34l-50 11q-9 2 -18 2q-20 0 -37 -11l-252 -187q-34 -25 -52.5 -60.5t-18.5 -77.5v-4q0 -37 14.5 -70t39.5 -58t58.5 -39.5t71.5 -14.5h217v-49h-217q-46 0 -87 17.5t-72 48.5t-48.5 71.5t-17.5 87.5
q0 57 26 105.5t71 82.5l229 167q4 2 7.5 5t11.5 7l-229 67q-7 2 -15 2q-15 0 -34.5 -12.5t-26.5 -35.5l-19 -67l-35 9z" />
    <glyph glyph-name="uni062E" unicode="&#x62e;" horiz-adv-x="650" arabic-form="isolated" 
d="M85 229l21 72q7 24 21.5 39.5t33 24t31 9.5t16.5 1q15 0 27 -4l347 -104l-13 -35l-51 11q-9 2 -17 2q-21 0 -38 -12l-252 -185q-34 -26 -53 -62.5t-19 -79.5q0 -38 14.5 -71t39.5 -57.5t59 -39t72 -14.5h218v-49h-218q-46 0 -87 17.5t-72 48t-48.5 71t-17.5 87.5
q0 57 26 105.5t71 81.5l229 168q4 2 7.5 4.5t11.5 6.5l-229 68q-7 2 -14 2q-16 0 -35 -13t-26 -36l-20 -66zM236 576v-65h-65v65h65z" />
    <glyph glyph-name="uni062F" unicode="&#x62f;" horiz-adv-x="532" arabic-form="isolated" 
d="M120 182v-78q0 -23 12.5 -39t38.5 -16h153q38 0 60.5 15.5t31 36t8.5 40.5q0 5 -1 19.5t-12 33.5l-110 196l35 23l102 -183q24 -42 24.5 -63.5t0.5 -22.5q0 -40 -17.5 -72t-50 -52t-76.5 -20h-142q-19 0 -35.5 7t-29 19.5t-20 29.5t-7.5 36v90h35z" />
    <glyph glyph-name="uni0630" unicode="&#x630;" horiz-adv-x="532" arabic-form="isolated" 
d="M120 182v-78q0 -23 12.5 -39t38.5 -16h153q38 0 60.5 15.5t31 36t8.5 40.5q0 5 -1 19.5t-12 33.5l-111 197l36 22l102 -183q24 -42 24.5 -63.5t0.5 -22.5q0 -40 -17 -72t-50 -52t-77 -20h-142q-19 0 -35.5 7t-29 19.5t-20 29.5t-7.5 36v90h35zM237 616h65v-65h-65v65z
" />
    <glyph glyph-name="uni0631" unicode="&#x631;" horiz-adv-x="296" arabic-form="isolated" 
d="M67 -165q46 16 74.5 55.5t28.5 89.5v297h41v-295q0 -32 -10 -62.5t-28 -56t-43.5 -45t-56.5 -29.5l-99 -32l-14 44z" />
    <glyph glyph-name="uni0632" unicode="&#x632;" horiz-adv-x="308" arabic-form="isolated" 
d="M66 -164q47 15 75.5 54.5t28.5 89.5v297h41v-294q0 -33 -10 -63.5t-28 -55.5t-43.5 -44.5t-56.5 -29.5l-99 -34l-14 44zM223 476v-65h-65v65h65z" />
    <glyph glyph-name="uni0633" unicode="&#x633;" horiz-adv-x="1132" arabic-form="isolated" 
d="M126 261v-243q0 -29 11.5 -55t31.5 -45.5t46 -31t56 -11.5h170q25 0 47.5 9.5t39 26t26.5 38.5t10 47v282h41v-140q0 -37 25.5 -63t63.5 -26h9q35 0 61 22t33 55l28 143l41 -6l-23 -113q-2 -9 -2 -17q0 -11 4 -25t16 -28t29 -22.5t37 -8.5h95v258h41v-239q0 -68 -68 -68
h-68q-35 0 -63 18.5t-45 52.5q-18 -35 -48.5 -53t-65.5 -18q-28 0 -54 11t-46 35v-53q0 -34 -13 -64.5t-35 -53t-52 -36t-64 -13.5h-171q-38 0 -72 14.5t-59 39.5t-39.5 58.5t-14.5 71.5v251h41z" />
    <glyph glyph-name="uni0634" unicode="&#x634;" horiz-adv-x="1132" arabic-form="isolated" 
d="M126 261v-243q0 -29 11.5 -55t31.5 -45.5t46 -31t56 -11.5h170q25 0 47.5 9.5t39 26t26.5 38.5t10 47v282h41v-140q0 -37 25.5 -63t63.5 -26h9q35 0 61 22t33 55l28 143l41 -6l-23 -113q-2 -9 -2 -17q0 -11 4 -25t16 -28t29 -22.5t37 -8.5h95v258h41v-239q0 -68 -68 -68
h-68q-35 0 -63 18.5t-45 52.5q-18 -35 -48.5 -53t-65.5 -18q-28 0 -54 11t-46 35v-53q0 -34 -13 -64.5t-35 -53t-52 -36t-64 -13.5h-171q-38 0 -72 14.5t-59 39.5t-39.5 58.5t-14.5 71.5v251h41zM735 405v65h65v-65h-65zM790 507v65h65v-65h-65zM917 470v-65h-65v65h65z" />
    <glyph glyph-name="uni0635" unicode="&#x635;" horiz-adv-x="1204" arabic-form="isolated" 
d="M85 9v251h41v-241q0 -30 11.5 -56.5t31 -46t46 -31t55.5 -11.5h170q26 0 48 9.5t39 26t26.5 39t9.5 47.5v281h41v-142q0 -20 5 -33t11 -21q7 -9 16 -14l178 196q26 28 62 43.5t74 15.5h61q26 0 48.5 -9.5t39.5 -26.5t26.5 -39.5t9.5 -48.5v-77q0 -25 -9.5 -47t-26 -38.5
t-38 -26t-46.5 -9.5h-293q-98 0 -118 39v-45q0 -35 -13 -66t-35 -54t-52 -36t-64 -13h-171q-38 0 -71.5 14.5t-58.5 39.5t-39.5 58.5t-14.5 71.5zM673 49h344q32 0 54.5 21t22.5 56v69q0 35 -24 59t-59 24h-56q-38 0 -66 -13.5t-51 -37.5z" />
    <glyph glyph-name="uni0636" unicode="&#x636;" horiz-adv-x="1204" arabic-form="isolated" 
d="M126 260v-241q0 -30 11.5 -56.5t31 -46t46 -31t55.5 -11.5h170q26 0 48 9.5t39 26t26.5 39t9.5 47.5v281h41v-142q0 -20 5 -33t11 -21q7 -9 16 -14l178 196q26 28 62 43.5t74 15.5h61q26 0 48.5 -9.5t39.5 -26.5t26.5 -39.5t9.5 -48.5v-77q0 -25 -9.5 -47t-26 -38.5
t-38 -26t-46.5 -9.5h-293q-98 0 -118 39v-45q0 -35 -13 -66t-35 -54t-52 -36t-64 -13h-171q-38 0 -71.5 14.5t-58.5 39.5t-39.5 58.5t-14.5 71.5v251h41zM1017 49q32 0 54.5 21t22.5 56v69q0 35 -24 59t-59 24h-56q-38 0 -66 -13.5t-51 -37.5l-165 -178h344zM928 458v65h65
v-65h-65z" />
    <glyph glyph-name="uni0637" unicode="&#x637;" horiz-adv-x="728" arabic-form="isolated" 
d="M141 49l115 124v469h41v-396q0 -13 -1 -22q-1 -8 -1 -9l38 42q27 32 63.5 48.5t78.5 16.5h61q26 0 48.5 -9.5t39 -26.5t26.5 -39.5t10 -48.5v-78q0 -25 -9.5 -46.5t-26 -38t-38 -26t-46.5 -9.5h-454v49h55zM542 49q32 0 54.5 22.5t22.5 54.5v69q0 35 -24.5 59t-58.5 24
h-57q-34 0 -64.5 -13.5t-53.5 -37.5l-168 -178h349z" />
    <glyph glyph-name="uni0638" unicode="&#x638;" horiz-adv-x="728" arabic-form="isolated" 
d="M540 0h-454v49h55l115 124v469h41v-396q0 -13 -1 -22q-1 -8 -1 -9l38 42q27 32 63.5 48.5t78.5 16.5h61q26 0 48.5 -9.5t39 -26.5t26.5 -39.5t10 -48.5v-78q0 -25 -9.5 -46.5t-26 -38t-38 -26t-46.5 -9.5zM542 49q32 0 54.5 22.5t22.5 54.5v69q0 35 -24.5 59t-58.5 24
h-57q-34 0 -64.5 -13.5t-53.5 -37.5l-168 -178h349zM464 523h65v-65h-65v65z" />
    <glyph glyph-name="uni0639" unicode="&#x639;" horiz-adv-x="562" arabic-form="isolated" 
d="M85 -206q0 56 26 101.5t64 72.5q-7 9 -12 19.5t-7 24.5l-33 162q-2 11 -2 21q0 15 5.5 35t21 39.5t38.5 31t50 11.5h130v-43h-136q-16 0 -30 -7t-23.5 -18.5t-12.5 -23t-3 -20.5q0 -6 1 -13l40 -205q5 1 18 5.5t30.5 10t39 12.5t42.5 14q50 16 111 35l12 -39l-217 -68
q-18 -6 -37.5 -18t-36 -30.5t-27.5 -44.5t-11 -59q0 -35 13 -67t37 -56t58 -38.5t76 -14.5h191v-49h-191q-46 0 -87 17.5t-72 47.5t-48.5 69.5t-17.5 84.5z" />
    <glyph glyph-name="uni063A" unicode="&#x63a;" horiz-adv-x="562" arabic-form="isolated" 
d="M85 -176q0 56 26 101.5t64 72.5q-7 9 -12 19.5t-7 24.5l-33 162q-2 11 -2 21q0 15 5.5 35t21 39.5t38.5 31t50 11.5h130v-43h-136q-16 0 -30 -7t-23.5 -18.5t-12.5 -23t-3 -20.5q0 -6 1 -13l40 -205q5 1 18 5.5t30.5 10t39 12.5t42.5 14q50 16 111 35l12 -39l-217 -68
q-18 -6 -37.5 -18t-36 -30.5t-27.5 -44.5t-11 -59q0 -35 13 -67t37 -56t58 -38.5t76 -14.5h191v-49h-191q-46 0 -87 17.5t-72 47.5t-48.5 69.5t-17.5 84.5zM225 526h65v-65h-65v65z" />
    <glyph glyph-name="uni0641" unicode="&#x641;" horiz-adv-x="836" arabic-form="isolated" 
d="M85 304h41v-139q0 -51 31.5 -83.5t85.5 -32.5h380q20 0 38.5 5t32.5 16t22.5 29.5t8.5 46.5v9q-6 -2 -13 -4t-15 -2h-123q-27 0 -49.5 11.5t-38 30.5t-21 38.5t-5.5 34.5q0 11 2 22l16 86q8 41 39.5 67t73.5 26h52q26 0 48.5 -9.5t39 -26t26 -39.5t9.5 -49v-203
q0 -29 -10.5 -54t-29.5 -44t-44 -29.5t-54 -10.5h-375q-39 0 -70 12.5t-52.5 35t-33.5 53t-12 66.5v137zM504 251q4 -15 14 -27t24 -19t31 -7h152v143q0 34 -23 57.5t-57 23.5h-51q-29 0 -50.5 -18.5t-26.5 -46.5l-15 -75q-1 -6 -1 -12q0 -10 3 -19zM591 665h65v-65h-65v65z
" />
    <glyph glyph-name="uni0642" unicode="&#x642;" horiz-adv-x="685" arabic-form="isolated" 
d="M85 -41v223h41v-215q0 -29 11.5 -55t31 -45.5t45.5 -31t56 -11.5h170q26 0 48 10t38.5 27t26 39.5t9.5 48.5v57q-1 -1 -5 -2q-9 -4 -24 -4h-121q-27 0 -50 11.5t-38.5 30.5t-21 38.5t-5.5 34.5q0 10 2 21l17 86q8 42 39.5 68t73.5 26h50q26 0 49 -10t40 -27t26 -38.5
t9 -44.5v-5v-253q0 -34 -12.5 -63.5t-34.5 -51.5t-52 -35t-64 -13h-171q-38 0 -71.5 14.5t-58.5 39.5t-39.5 58.5t-14.5 71.5zM342 102q4 -16 14 -27.5t24 -18.5t30 -7h152v143q0 34 -23 57t-56 23h-52q-29 0 -50.5 -18.5t-26.5 -45.5l-14 -75q-1 -6 -1 -12q0 -10 3 -19z
M431 517v-65h-65v65h65zM483 517h64v-65h-64v65z" />
    <glyph glyph-name="uni0643" unicode="&#x643;" horiz-adv-x="841" arabic-form="isolated" 
d="M126 303v-131q0 -26 10 -48.5t26.5 -39t39.5 -26t48 -9.5h385q37 0 63.5 25.5t26.5 63.5v496h41v-496q0 -29 -11 -54t-30 -44t-44 -29.5t-53 -10.5h-380q-34 0 -63.5 12.5t-51.5 34.5t-35 51.5t-13 63.5v141h41zM302 268l83 43v0q0 1 -5 4.5t-12 16.5l-20 43
q-9 19 -9 38.5t7 36.5t19.5 30t29.5 20l70 29l8 -23l-76 -35q-21 -10 -27 -27t-6 -28q0 -13 6 -26l34 -71l155 81l12 -24l-258 -132z" />
    <glyph glyph-name="uni0644" unicode="&#x644;" horiz-adv-x="679" arabic-form="isolated" 
d="M85 232h41v-214q0 -30 11.5 -56t31 -45.5t45.5 -31t56 -11.5h170q26 0 48 9.5t39 26.5t26.5 39t9.5 48v644h41v-652q0 -34 -13 -64t-35 -52t-52 -35t-63 -13h-172q-38 0 -71.5 14.5t-58.5 39.5t-39.5 58.5t-14.5 71.5v223z" />
    <glyph glyph-name="uni0645" unicode="&#x645;" horiz-adv-x="626" arabic-form="isolated" 
d="M86 184q0 29 11 54t29.5 44t43.5 29.5t53 10.5h211q26 0 48.5 -9.5t39.5 -26t26.5 -39t9.5 -48.5v-130q0 -69 -68 -69h-129q-27 0 -50 11.5t-38.5 30.5t-21 39t-5.5 35q0 10 2 21l26 141h-58q-19 0 -35 -8t-28 -21t-19 -30.5t-7 -35.5v-426h-41v427zM289 102
q3 -15 12.5 -27t24 -19t34.5 -7h157v151q0 33 -23.5 55.5t-55.5 22.5h-124l-26 -145q-1 -7 -1 -14q0 -8 2 -17z" />
    <glyph glyph-name="uni0646" unicode="&#x646;" horiz-adv-x="679" arabic-form="isolated" 
d="M85 260h41v-242q0 -29 11.5 -55t31 -45.5t45.5 -31t56 -11.5h170q25 0 47.5 9.5t39 26t26.5 38.5t10 48v280h41v-288q0 -34 -13 -64t-35.5 -52t-52 -34.5t-63.5 -12.5h-171q-38 0 -71.5 14.5t-58.5 39.5t-39.5 58.5t-14.5 71.5v250zM377 344v-65h-65v65h65z" />
    <glyph glyph-name="uni0647" unicode="&#x647;" horiz-adv-x="471" arabic-form="isolated" 
d="M96 237q10 27 37 44q12 8 26 16.5t26 16.5q13 8 27 17l-68 45l22 37q14 -10 30 -21q13 -9 30 -20.5t35 -24.5q42 -29 95 -66q19 -15 32.5 -41.5t13.5 -61.5v-38q0 -32 -12.5 -59t-33 -47t-47 -31.5t-55.5 -11.5h-21q-29 0 -55.5 11t-47 31t-33 47.5t-12.5 59.5v36
q0 34 11 61zM126 187v-36q0 -24 9 -44.5t24 -35t35 -23t42 -8.5h16q21 0 40.5 8t35 22.5t24.5 35t9 45.5v37q0 34 -30 59q-4 3 -18 12t-29 19q-17 12 -38 26l-92 -60q-28 -18 -28 -57z" />
    <glyph glyph-name="uni0648" unicode="&#x648;" horiz-adv-x="461" arabic-form="isolated" 
d="M78 138l17 91q8 41 39.5 67t73.5 26h56q26 0 48.5 -9.5t39.5 -26.5t26.5 -39t9.5 -48v-217q0 -33 -10 -63.5t-28 -56t-43.5 -44.5t-56.5 -29l-100 -33l-14 44l106 35q48 16 76.5 56t28.5 89v26q-7 -4 -14 -5t-15 -1h-127q-27 0 -50 11.5t-38.5 30.5t-21 39t-5.5 37
q0 10 2 20zM121 102q4 -16 13.5 -27.5t24 -18.5t30.5 -7h158v150q0 34 -23.5 56.5t-56.5 22.5h-55q-29 0 -51 -18t-27 -45l-15 -81q-1 -6 -1 -12q0 -11 3 -20z" />
    <glyph glyph-name="uni0649" unicode="&#x649;" horiz-adv-x="707" arabic-form="isolated" 
d="M126 269v-223q0 -29 11.5 -55.5t31 -46t45.5 -31t56 -11.5h198q26 0 48.5 10t39.5 27t26.5 39.5t9.5 48.5v48l-269 62v99q0 34 12 62.5t32.5 50t47 35t54.5 17.5l100 13l5 -40l-112 -16q-22 -3 -40 -14.5t-31 -28t-20 -37t-7 -41.5v-62l212 -50q26 -6 41.5 -22.5
t15.5 -42.5v-44q0 -33 -13 -63t-35 -52t-51.5 -35t-62.5 -13h-202q-38 0 -71.5 14.5t-58.5 39.5t-39.5 59t-14.5 72v231h41z" />
    <glyph glyph-name="uni064A" unicode="&#x64a;" horiz-adv-x="707" arabic-form="isolated" 
d="M126 269v-223q0 -29 11.5 -55.5t31 -46t45.5 -31t56 -11.5h198q26 0 48.5 10t39.5 27t26.5 39.5t9.5 48.5v48l-268 62v99q0 34 12 62.5t32.5 50t46.5 35t54 17.5l100 13l5 -40l-112 -16q-21 -3 -39 -14t-31 -27.5t-20 -37t-7 -42.5v-62l211 -50q26 -6 41.5 -22.5
t15.5 -42.5v-44q0 -33 -13 -63t-35 -52t-51.5 -35t-62.5 -13h-202q-38 0 -71.5 14.5t-58.5 39.5t-39.5 59t-14.5 72v231h41zM380 -305v65h65v-65h-65zM263 -240h65v-65h-65v65z" />
    <glyph glyph-name="uni064B" unicode="&#xfe70;" arabic-form="isolated" 
d="M-136 700l-5 25l277 60l6 -25zM-136 812l-5 25l277 60l6 -25z" />
    <glyph glyph-name="uni064C" unicode="&#xfe72;" arabic-form="isolated" 
d="M-154 726l54 10l-25 111l27 5l24 -110l57 12q-2 8 -4.5 21.5t-5.5 28t-5.5 26.5t-3.5 17q-2 7 -2 13q0 5 1.5 13t9 18t20 17t30.5 8l53 1q24 0 43.5 -15.5t24.5 -38.5l9 -46q1 -6 1 -12q0 -18 -13.5 -32t-39.5 -20q-1 0 -12 -2.5t-29 -6t-40.5 -8.5t-45.5 -10
q-55 -11 -124 -26zM-10 844l21 -85l90 20q9 4 17 11.5t8 16.5v5l-10 52q-3 14 -15 20.5t-23 6.5l-61 -4q-12 -1 -20 -10.5t-8 -23.5q0 -4 1 -9z" />
    <glyph glyph-name="uni064D" unicode="&#xfe74;" arabic-form="isolated" 
d="M-136 -98l-6 38l276 59l8 -37zM-136 -210l-6 38l276 59l8 -37z" />
    <glyph glyph-name="uni064E" unicode="&#xfe76;" arabic-form="isolated" 
d="M-137 700l-5 25l277 60l7 -25z" />
    <glyph glyph-name="uni064F" unicode="&#xfe78;" arabic-form="isolated" 
d="M-28 750q-2 8 -5 21.5t-6 28t-6 26.5t-4 17q-2 7 -2 13q0 5 1.5 13t8.5 18t19.5 17t30.5 8l53 2q24 0 44 -15.5t24 -38.5l10 -47q2 -8 2 -15q0 -16 -12 -29.5t-37 -18.5q-1 0 -11 -2t-26.5 -6t-37 -8t-41.5 -9q-50 -11 -113 -24l-7 25zM-23 840l21 -85l90 20q12 2 18 10
t6 17v6l-10 52q-2 14 -13 20.5t-20 6.5h-5l-61 -4q-11 -1 -19 -12t-8 -23q0 -4 1 -8z" />
    <glyph glyph-name="uni0650" unicode="&#xfe7a;" arabic-form="isolated" 
d="M-137 -81l-4 22l277 59l6 -21z" />
    <glyph glyph-name="uni0651" unicode="&#xfe7c;" arabic-form="isolated" 
d="M-111 838v-63q1 -18 15 -31t32 -14h7q18 0 31.5 11t17.5 28l11 62l25 -6l-10 -52q-1 -3 -1 -7q0 -15 13 -25.5t29 -10.5h3h47v113h26v-110q0 -19 -7 -26t-27 -7h-34q-19 0 -35.5 8.5t-25.5 25.5q-10 -17 -27.5 -25.5t-37.5 -8.5q-32 0 -54 22t-22 54v62h24z" />
    <glyph glyph-name="uni0652" unicode="&#xfe7e;" arabic-form="isolated" 
d="M-80 786q0 30 22 52t53 22h10q31 0 52.5 -21.5t21.5 -52.5v-11q0 -32 -21.5 -53.5t-52.5 -21.5h-10q-31 0 -53 21.5t-22 53.5v11zM-55 786v-9v-3q0 -18 14 -32t35 -14h13q20 0 34.5 14.5t14.5 34.5v9q0 20 -14.5 34.5t-34.5 14.5h-13q-21 0 -35 -14t-14 -32v-3z" />
    <glyph glyph-name="uni0671" unicode="&#x671;" horiz-adv-x="297" arabic-form="isolated" 
d="M-24 642q20 0 34 13.5t14 33.5v21h28v-32q0 -14 12 -26l100 98q16 15 36 24.5t41 9.5h26q29 0 49.5 -21t20.5 -50v-32q0 -29 -20.5 -49.5t-50.5 -20.5h-162q-32 0 -45 10t-24 33q-11 -23 -27.5 -33t-36.5 -10h-11v31h16zM185 560v-560h-41v560h41zM267 642q17 0 30 12.5
t13 29.5v26q0 20 -13.5 33t-32.5 13h-18q-17 0 -34.5 -7.5t-30.5 -19.5l-90 -87h176z" />
    <glyph glyph-name="uni067E" unicode="&#x67e;" horiz-adv-x="835" arabic-form="isolated" 
d="M126 304v-133q0 -25 10 -47.5t27 -39t39.5 -26t48.5 -9.5h385q18 0 34 7t28.5 19t19.5 28t7 34v167h41v-167q0 -28 -11 -53t-29.5 -44t-43.5 -29.5t-53 -10.5h-380q-34 0 -63.5 12.5t-52 34.5t-35.5 51.5t-13 62.5v143h41zM419 -121v-65h-65v65h65zM416 -288v65h65v-65
h-65zM471 -186v65h65v-65h-65z" />
    <glyph glyph-name="uni0686" unicode="&#x686;" horiz-adv-x="650" arabic-form="isolated" 
d="M86 229l21 72q6 24 21 39.5t33 24t30 9.5t16 1q15 0 27 -4l348 -105l-14 -34l-50 11q-9 3 -19 3q-18 0 -36 -12l-251 -187q-35 -25 -53.5 -60t-18.5 -75v-4q0 -38 14.5 -72t39.5 -59t58.5 -39.5t71.5 -14.5h218v-49h-218q-46 0 -87 17.5t-71.5 48.5t-48.5 71.5t-18 87.5
q0 57 26 105.5t71 82.5q23 17 55 40.5t65.5 47.5t63 45.5t46.5 33.5q3 2 6.5 5t11.5 7l-229 67q-7 2 -14 2q-15 0 -34.5 -12.5t-26.5 -35.5l-19 -67zM438 -74v70h70v-70h-70zM448 -113v-70h-69v70h69zM314 -74v70h69v-70h-69z" />
    <glyph glyph-name="uni0698" unicode="&#x698;" horiz-adv-x="329" arabic-form="isolated" 
d="M-40 -199l107 34q46 16 74.5 55.5t28.5 89.5v297h41v-295q0 -32 -10 -62.5t-28 -56t-43.5 -45t-56.5 -29.5l-99 -32zM167 480v-65h-65v65h65zM158 582h65v-65h-65v65zM219 480h65v-65h-65v65z" />
    <glyph glyph-name="uni06A9" unicode="&#x6a9;" horiz-adv-x="857" arabic-form="isolated" 
d="M126 350v-185q0 -51 31 -83.5t85 -32.5h367q37 0 67 18t44 45t14 58q0 7 -2 30.5t-33 66.5l-154 215v45l286 148l19 -40l-264 -137l148 -208q36 -51 39 -82t3 -41q0 -39 -18 -77t-59.5 -64t-98.5 -26h-348q-38 0 -69 13t-52.5 35.5t-33.5 53t-12 65.5v183h41z" />
    <glyph glyph-name="uni06AF" unicode="&#x6af;" horiz-adv-x="857" arabic-form="isolated" 
d="M85 166v183h41v-185q0 -51 31 -83.5t85 -32.5h367q37 0 67 18t44 45t14 58q0 7 -2 30.5t-33 66.5l-154 215v45l286 148l19 -40l-264 -137l148 -208q36 -51 39 -82t3 -41q0 -39 -18 -77t-59.5 -64t-98.5 -26h-348q-38 0 -69 13t-52.5 35.5t-33.5 53t-12 65.5zM783 766
l15 -36l-248 -128l-16 36z" />
    <glyph glyph-name="uni06C0" unicode="&#x6c0;" horiz-adv-x="471" arabic-form="isolated" 
d="M96 236q11 26 37 45q12 8 26 16.5t26 16.5q13 9 27 17l-68 45l22 37l13 -8q12 -9 31 -22.5t42.5 -29.5t44.5 -30.5t37.5 -26t22.5 -16.5q18 -14 31.5 -40.5t13.5 -61.5v-38q0 -32 -12.5 -59.5t-33 -47.5t-47 -31t-55.5 -11h-21q-29 0 -55.5 11t-47 31t-33 47.5
t-12.5 59.5v36q0 33 11 60zM126 187v-36q0 -24 9 -44t24 -34.5t35 -23t42 -8.5h16q21 0 40.5 8t34.5 22.5t24 35t9 45.5v36q0 34 -29 59q-4 3 -18 12t-29 19q-17 12 -38 26l-92 -60q-27 -20 -28 -57zM211 555q-1 0 -6 4.5t-11 16.5q0 1 -3 7l-6 13q-4 7 -7 13.5t-4 9.5
q-9 19 -9 38.5t7 36.5t19.5 30t29.5 20l69 29l9 -23l-76 -35q-21 -10 -27 -27t-6 -28q0 -13 6 -26q2 -4 6 -13t9 -19.5t10.5 -21t8.5 -17.5l155 81l12 -25l-256 -131l-12 24z" />
    <glyph glyph-name="uni06CC" unicode="&#x6cc;" horiz-adv-x="707" arabic-form="isolated" 
d="M126 269v-223q0 -29 11.5 -55.5t31 -46t45.5 -31t56 -11.5h198q26 0 48.5 10t39.5 27t26.5 39.5t9.5 48.5v48l-268 62v99q0 34 12 62.5t32.5 50t46.5 35t54 17.5l100 13l5 -40l-112 -16q-21 -3 -39 -14t-31 -27.5t-20 -37t-7 -42.5v-62l211 -50q26 -6 41.5 -22.5
t15.5 -42.5v-44q0 -33 -13 -63t-35 -52t-51.5 -35t-62.5 -13h-202q-38 0 -71.5 14.5t-58.5 39.5t-39.5 59t-14.5 72v231h41z" />
    <glyph glyph-name="uniFB51" unicode="&#x671;" horiz-adv-x="297" arabic-form="final" 
d="M-40 642h16q20 0 34 13.5t14 33.5v21h28v-32q0 -14 12 -26l100 98q16 15 36 24.5t41 9.5h26q29 0 49.5 -21t20.5 -50v-32q0 -29 -20.5 -49.5t-50.5 -20.5h-162q-21 0 -38 9t-28 25q-11 -16 -29 -25t-38 -9h-11v31zM123 139v421h41v-422q0 -38 25.5 -63.5t61.5 -25.5h46
q14 0 14 -14v-21q0 -14 -14 -14h-37q-28 0 -53 11t-44 29.5t-29.5 44t-10.5 54.5zM267 642q17 0 30 12.5t13 29.5v26q0 20 -13.5 33t-32.5 13h-18q-19 0 -35.5 -8t-29.5 -19l-90 -87h176z" />
    <glyph glyph-name="uniFB57" unicode="&#x67e;" horiz-adv-x="884" arabic-form="final" 
d="M85 161v144h41v-133q0 -26 10 -48.5t27 -39t39.5 -26t48.5 -9.5h386q18 0 34 7t28 19t19 28t7 35v139h41v-139q0 -38 26 -63.5t63 -25.5h29q14 0 14 -14v-21q0 -14 -14 -14h-21q-37 0 -67.5 18t-49.5 52q-20 -34 -50.5 -52t-67.5 -18h-380q-33 0 -63 12.5t-52 34.5
t-35 51.5t-13 62.5zM419 -120v-65h-65v65h65zM481 -222v-65h-65v65h65zM471 -120h65v-65h-65v65z" />
    <glyph glyph-name="uniFB58" unicode="&#x67e;" horiz-adv-x="297" arabic-form="initial" 
d="M-10 45q4 4 10 4h89q18 0 34 7t28 19t19 28t7 34v168h41v-168q0 -28 -10.5 -53t-29 -43.5t-43.5 -29.5t-53 -11h-82q-14 0 -14 14v20q0 6 4 11zM65 -120v-65h-65v65h65zM62 -222h65v-65h-65v65zM117 -185v65h65v-65h-65z" />
    <glyph glyph-name="uniFB59" unicode="&#x67e;" horiz-adv-x="326" arabic-form="medial" 
d="M0 49h50q35 0 61 22t33 54l28 144l41 -7l-24 -119q-2 -8 -2 -16q0 -10 4.5 -23.5t16.5 -26.5t29.5 -20.5t36.5 -7.5h52q14 0 14 -14v-21q0 -14 -14 -14h-53q-35 0 -67 19t-40 51q-19 -32 -49 -51t-65 -19h-52q-14 0 -14 14v21q0 14 14 14zM140 -120v-65h-65v65h65z
M202 -222v-65h-65v65h65zM192 -120h65v-65h-65v65z" />
    <glyph glyph-name="uniFB7B" unicode="&#x686;" horiz-adv-x="678" arabic-form="final" 
d="M106 301q6 24 21 39.5t33 24t30 9.5t16 1q15 0 27 -4l348 -105l-14 -35l-50 12q-9 2 -17 2t-19.5 -2.5t-24.5 -13.5v-90q0 -19 7 -35.5t19.5 -28.5t28.5 -19t34 -7h132q6 0 10.5 -4t4.5 -10v-21q0 -6 -4.5 -10t-10.5 -4h-124q-28 0 -52 11t-42 30t-28 44.5t-10 54.5v63
l-210 -156q-35 -25 -53.5 -61.5t-18.5 -79.5q0 -38 15 -71t39.5 -58t58 -39.5t71.5 -14.5h218v-49h-218q-46 0 -87 17.5t-71.5 48t-48.5 71.5t-18 87q0 57 26 106t71 83l230 167q5 4 8.5 6.5t9.5 5.5l-229 67q-7 2 -14 2q-15 0 -34.5 -12.5t-26.5 -35.5l-19 -67l-35 9z
M258 -44h57v-57h-57v57zM416 -44v-57h-57v57h57zM311 -124h56v-56h-56v56z" />
    <glyph glyph-name="uniFB7C" unicode="&#x686;" horiz-adv-x="672" arabic-form="initial" 
d="M-14 14v21q0 14 14 14h152q51 0 98 18t85 51l110 95q5 4 10.5 8.5t11.5 8.5l-259 77q-9 3 -18 3q-15 0 -34 -12t-26 -36l-19 -67l-35 10l21 72q6 20 19 35.5t30 25t30.5 11t19.5 1.5q14 0 29 -4l378 -113l-11 -38l-35 10q-13 4 -24 4q-4 0 -12.5 -1t-20.5 -6.5t-23 -14.5
l-139 -119q-38 -33 -84 -50.5t-97 -17.5h-157q-14 0 -14 14zM217 -120h65v-65h-65v65zM344 -222v-65h-65v65h65zM334 -185v65h65v-65h-65z" />
    <glyph glyph-name="uniFB7D" unicode="&#x686;" horiz-adv-x="686" arabic-form="medial" 
d="M-14 14v21q0 5 4 9.5t10 4.5h151q52 0 99 18t86 51l109 94q9 8 23 18l-261 76q-9 3 -18 3q-15 0 -33.5 -11.5t-25.5 -35.5l-19 -66l-35 10l21 70q6 20 18.5 36t30 26t31 11.5t19.5 1.5q15 0 30 -4l378 -114l-12 -38l-36 10q-13 3 -24 3q-15 0 -32.5 -8t-35.5 -23v-39
q0 -38 26 -63.5t63 -25.5h132q6 0 10 -4.5t4 -9.5v-21q0 -14 -14 -14h-124q-30 0 -55 11.5t-43 31.5t-27 45.5t-9 52.5v6l-89 -79q-37 -33 -83.5 -50.5t-96.5 -17.5h-158q-14 0 -14 14zM284 -120v-65h-65v65h65zM283 -287v65h65v-65h-65zM401 -120v-65h-65v65h65z" />
    <glyph glyph-name="uniFB8B" unicode="&#x698;" horiz-adv-x="416" arabic-form="final" 
d="M-39 -201l105 36q48 16 76 55.5t28 89.5v296h42v-137q0 -37 25.5 -63.5t63.5 -26.5h115q6 0 10 -4.5t4 -10.5v-20q0 -14 -14 -14h-107q-29 0 -54.5 13t-42.5 33v-61q0 -67 -38 -120.5t-101 -75.5l-98 -34zM98 478h65v-65h-65v65zM154 515v65h65v-65h-65zM280 478v-65h-65
v65h65z" />
    <glyph glyph-name="uniFB8F" unicode="&#x6a9;" horiz-adv-x="988" arabic-form="final" 
d="M126 349v-185q0 -51 31 -83.5t85 -32.5h367q38 0 68 18.5t43.5 46t13.5 57.5q0 8 -2.5 32t-32.5 66l-155 213v45l286 148l20 -40l-264 -137l276 -389q19 -26 45.5 -43t60.5 -17h20q14 -2 14 -15v-20q0 -14 -14 -14h-13q-47 0 -82 22.5t-66 69.5l-61 88q2 -13 2 -26
q0 -29 -12 -58t-36.5 -51.5t-56.5 -33.5t-62 -11h-349q-38 0 -69 13t-52.5 35.5t-33.5 53t-12 65.5v183h41z" />
    <glyph glyph-name="uniFB90" unicode="&#x6a9;" horiz-adv-x="380" arabic-form="initial" 
d="M0 49h132q36 0 66.5 18t44 45t13.5 58q0 7 -2 31t-33 67l-153 214v44l285 148l20 -40l-265 -137l148 -208q37 -51 40 -82t3 -41q0 -39 -17.5 -76.5t-59 -63.5t-98.5 -26h-124q-14 0 -14 14v21q0 14 14 14z" />
    <glyph glyph-name="uniFB91" unicode="&#x6a9;" horiz-adv-x="512" arabic-form="medial" 
d="M-14 14v21q0 14 14 14h132q38 0 68 18.5t43 45.5t13 57q0 8 -2.5 32t-32.5 66l-153 213v45l285 148l20 -40l-265 -137l277 -388q20 -27 46.5 -43.5t60.5 -16.5h19q5 0 9.5 -5t4.5 -11v-19q0 -6 -4.5 -10t-9.5 -4h-13q-46 0 -81.5 21.5t-67.5 69.5l-59 88q1 -12 1 -23
q0 -31 -12 -60.5t-36.5 -51.5t-56.5 -33t-62 -11h-124q-14 0 -14 14z" />
    <glyph glyph-name="uniFB93" unicode="&#x6af;" horiz-adv-x="988" arabic-form="final" 
d="M126 350v-185q0 -51 31 -83.5t85 -32.5h367q38 0 68 18.5t43.5 46t13.5 57.5q0 8 -2.5 32t-32.5 66l-155 213v45l286 148l20 -40l-264 -137l276 -389q19 -26 45.5 -43t60.5 -17h20q14 -2 14 -15v-20q0 -14 -14 -14h-13q-47 0 -82 22.5t-66 69.5l-61 88q2 -13 2 -26
q0 -29 -12 -58t-36.5 -51.5t-56.5 -33.5t-62 -11h-349q-38 0 -69 13t-52.5 35.5t-33.5 53t-12 65.5v183h41zM783 767l15 -36l-248 -128l-16 36z" />
    <glyph glyph-name="uniFB94" unicode="&#x6af;" horiz-adv-x="380" arabic-form="initial" 
d="M0 49h132q36 0 66.5 18t44 45t13.5 58q0 7 -2 31t-33 67l-153 214v44l285 148l20 -40l-265 -137l148 -208q37 -51 40 -82t3 -41q0 -39 -17.5 -76.5t-59 -63.5t-98.5 -26h-124q-14 0 -14 14v21q0 14 14 14zM55 638l248 128l16 -36l-249 -127z" />
    <glyph glyph-name="uniFB95" unicode="&#x6af;" horiz-adv-x="512" arabic-form="medial" 
d="M0 49h132q38 0 68 18.5t43 45.5t13 57q0 8 -2.5 32t-32.5 66l-153 213v45l285 148l20 -40l-265 -137l277 -388q20 -27 46.5 -43.5t60.5 -16.5h19q5 0 9.5 -5t4.5 -11v-19q0 -6 -4.5 -10t-9.5 -4h-13q-46 0 -81.5 21.5t-67.5 69.5l-59 88q1 -12 1 -23q0 -31 -12 -60.5
t-36.5 -51.5t-56.5 -33t-62 -11h-124q-14 0 -14 14v21q0 14 14 14zM304 766l16 -36l-249 -127l-15 35z" />
    <glyph glyph-name="uniFBA5" unicode="&#x6c0;" horiz-adv-x="509" arabic-form="final" 
d="M85 149v66q0 63 30.5 99t78.5 49l145 38v86h41v-343q0 -20 8 -37.5t22 -30t32 -20t37 -7.5h30q14 0 14 -14v-21q0 -14 -14 -14h-30q-44 0 -80 25t-51 63q-7 -5 -14 -9t-17 -4h-159q-40 0 -56.5 17t-16.5 57zM339 124v230l-140 -36q-34 -9 -54 -38.5t-20 -62.5v-93h214z
M115 511l86 43q0 2 -6 6.5t-11 15.5q0 1 -2.5 7t-6.5 13.5t-7 14t-5 9.5q-9 19 -9 38t6.5 36t19.5 30.5t30 20.5l70 29l9 -23l-77 -36q-21 -9 -26.5 -26t-5.5 -27q0 -14 7 -28q2 -4 6 -12.5t9 -18.5l10 -21q5 -11 8 -18l153 80l12 -24l-256 -132z" />
    <glyph glyph-name="uniFBE8" unicode="&#x649;" horiz-adv-x="287" arabic-form="initial" 
d="M-10 45q4 4 10 4h89q18 0 34 7t28 19t19 28t7 34v168h41v-168q0 -28 -10.5 -53t-29 -43.5t-43.5 -29.5t-53 -11h-82q-14 0 -14 14v20q0 6 4 11z" />
    <glyph glyph-name="uniFBE9" unicode="&#x649;" horiz-adv-x="326" arabic-form="medial" 
d="M0 49h50q35 0 61 22t33 54l28 144l41 -7l-24 -119q-2 -8 -2 -16q0 -10 4.5 -23.5t16.5 -26.5t29.5 -20.5t36.5 -7.5h52q14 0 14 -14v-21q0 -14 -14 -14h-53q-35 0 -67 19t-40 51q-19 -32 -49 -51t-65 -19h-52q-14 0 -14 14v21q0 14 14 14z" />
    <glyph glyph-name="uniFBFD" unicode="&#x6cc;" horiz-adv-x="731" arabic-form="final" 
d="M126 171v-214q0 -30 11.5 -56t31 -45.5t45.5 -31t56 -11.5h169q26 0 48.5 10t39 26.5t26.5 39t10 48.5v63h-181v49h349q5 -1 9.5 -4.5t4.5 -10.5v-20q0 -6 -4.5 -10t-9.5 -4h-133q6 -14 6 -24v-47q0 -34 -13 -64t-35 -52.5t-51.5 -35.5t-62.5 -13h-173q-38 0 -71.5 14.5
t-58.5 39.5t-39.5 58.5t-14.5 71.5v223h41z" />
    <glyph glyph-name="uniFBFE" unicode="&#x6cc;" horiz-adv-x="303" arabic-form="initial" 
d="M-10 45q4 4 10 4h89q18 0 34 7t28 19t19 28t7 34v168h41v-168q0 -28 -10.5 -53t-29 -43.5t-43.5 -29.5t-53 -11h-82q-14 0 -14 14v20q0 6 4 11zM114 -185v65h65v-65h-65zM-4 -120h65v-65h-65v65z" />
    <glyph glyph-name="uniFBFF" unicode="&#x6cc;" horiz-adv-x="326" arabic-form="medial" 
d="M0 49h50q34 0 60.5 22t33.5 54l28 144l40 -7l-23 -119q-2 -8 -2 -16q0 -10 4.5 -23.5t16.5 -26.5t29.5 -20.5t36.5 -7.5h52q14 0 14 -14v-21q0 -14 -14 -14h-53q-35 0 -67 19t-40 51q-20 -32 -49.5 -51t-64.5 -19h-52q-14 0 -14 14v21q0 14 14 14zM74 -185v65h66v-65h-66
zM192 -120h65v-65h-65v65z" />
    <glyph glyph-name="uniFC5E" unicode="&#xfc5e;" arabic-form="isolated" 
d="M-89 958l-23 110l26 5l23 -109l59 11l-9 40q-4 17 -7 32t-5 22q-1 5 -1 10q0 18 12 37t49 22l53 1q23 0 43 -15.5t24 -38.5l10 -46q2 -7 2 -13q0 -17 -14 -31.5t-40 -19.5q-1 0 -12 -2.5t-28.5 -6.5t-40 -8.5t-46.5 -9.5q-54 -12 -123 -26l-5 26zM-136 839l25 -1v-64
q1 -18 14 -31t31 -13h9q17 0 31 11.5t16 28.5l13 61l24 -5l-9 -54q-1 -4 -1 -8q0 -13 13 -23.5t30 -10.5h50v113l25 -1v-110q0 -19 -7 -25.5t-26 -6.5h-40q-39 0 -58 32q-11 -16 -27.5 -24t-35.5 -9q-32 0 -54.5 22.5t-22.5 54.5v63zM2 1066l21 -85l90 20q9 3 17 10.5
t8 17.5v5l-10 52q-2 14 -15 20t-24 7l-61 -5q-11 0 -19 -9.5t-8 -23.5q0 -4 1 -9z" />
    <glyph glyph-name="uniFC5F" unicode="&#xfc5f;" arabic-form="isolated" 
d="M-140 1077h24v-63q1 -19 14.5 -32t31.5 -14h8q17 0 30.5 11.5t17.5 28.5l12 61l25 -4l-10 -54q-1 -3 -1 -6q0 -15 13.5 -25.5t30.5 -11.5h48v113h25v-110q0 -19 -7 -26t-26 -7h-40q-18 0 -33 9t-24 23q-11 -15 -27.5 -23.5t-35.5 -8.5q-32 0 -54 22t-22 54v63zM136 896
l6 -25l-278 -59l-5 25zM136 784l6 -25l-278 -59l-5 25z" />
    <glyph glyph-name="uniFC60" unicode="&#xfc60;" arabic-form="isolated" 
d="M-141 776v63h25v-63q1 -19 14.5 -32t31.5 -14h7q18 0 31.5 11.5t17.5 28.5l12 61l24 -4l-9 -53q-1 -4 -1 -8q0 -14 13 -24.5t31 -11.5h48v113h25v-110q0 -19 -7 -26t-26 -7h-40q-38 2 -57 32q-11 -14 -27.5 -23t-36.5 -9q-32 0 -54 22t-22 54zM-142 909l276 59l7 -25
l-278 -59z" />
    <glyph glyph-name="uniFC61" unicode="&#xfc61;" arabic-form="isolated" 
d="M-24 940q-1 5 -4 17.5t-6 27.5t-6.5 29t-4.5 20q-2 6 -2 12q0 5 2 13.5t9 18t19 16.5t30 8l54 3q23 0 43.5 -15.5t25.5 -38.5l9 -47q1 -6 1 -12q0 -18 -11.5 -32t-37.5 -20l-10 -2q-10 -2 -26.5 -5.5t-37 -7.5t-41.5 -9q-50 -11 -113 -24l-7 24zM-135 777v62h25v-63
q1 -18 15 -31.5t31 -14.5h8q17 0 31 11t17 28l12 62l25 -5l-10 -52q-1 -4 -1 -8q0 -15 13 -25.5t31 -10.5h48v113h26v-110q0 -19 -7 -26t-27 -7h-39q-39 0 -58 32q-11 -15 -27.5 -23.5t-35.5 -8.5q-32 0 -54.5 22.5t-22.5 54.5zM-18 1032l21 -86l89 20q9 4 17 11t8 17v5
l-10 52q-2 14 -13.5 20.5t-21.5 6.5h-3l-60 -5q-12 0 -20 -10.5t-8 -22.5q0 -4 1 -8z" />
    <glyph glyph-name="uniFC62" unicode="&#xfc62;" arabic-form="isolated" 
d="M-141 909v63h25v-64q0 -18 13.5 -31.5t31.5 -13.5h8q17 0 31 11t17 28l13 61l24 -4l-10 -53q-1 -3 -1 -6q0 -15 13.5 -26t31.5 -11h48v113h24v-110q0 -20 -6.5 -26.5t-26.5 -6.5h-39q-19 0 -34 8.5t-24 22.5q-11 -14 -27.5 -23t-35.5 -9q-32 0 -54 22.5t-22 54.5z
M-142 725l277 60l6 -25l-278 -60z" />
    <glyph glyph-name="uniFC63" unicode="&#xfc63;" arabic-form="isolated" 
d="M-135 839h25v-63q1 -19 14.5 -32t31.5 -14h7q18 0 31.5 11.5t17.5 28.5l12 61l24 -4l-9 -53q-1 -4 -1 -8q0 -14 13 -24.5t31 -11.5h48v113h25v-110q0 -19 -7 -26t-26 -7h-40q-38 2 -57 32q-11 -14 -27.5 -23t-36.5 -9q-32 0 -54 22t-22 54v63zM8 1006v-114h-23v114h23z
" />
    <glyph glyph-name="uniFE82" unicode="&#x622;" horiz-adv-x="248" arabic-form="final" 
d="M71 139v422l42 -1v-423q0 -37 25.5 -62.5t63.5 -25.5h46q5 0 9.5 -4.5t4.5 -10.5v-20q-1 -6 -5 -10t-9 -4h-38q-29 0 -54.5 11t-44 30t-29.5 44.5t-11 53.5zM-18 586v28q0 12 5.5 23.5t15 21t21.5 15.5t25 6h178v-39h-187q-11 0 -20 -8.5t-9 -19.5v-27h-29z" />
    <glyph glyph-name="uniFE84" unicode="&#x623;" horiz-adv-x="223" arabic-form="final" 
d="M49 137v426h41v-426q0 -37 25.5 -62.5t61.5 -25.5h46q6 0 10 -4.5t4 -10.5v-20q0 -14 -14 -14h-37q-28 0 -53 10.5t-44 29.5t-29.5 44t-10.5 53zM-20 631l83 40q0 1 -5.5 5t-10.5 17q0 1 -3 6.5t-6 13t-6 14.5t-5 10q-9 18 -9 37t6.5 35.5t19.5 30t30 20.5l70 29l8 -22
l-76 -36q-21 -10 -27 -27t-6 -27q0 -13 6 -26l34 -71l155 81l12 -26l-258 -131z" />
    <glyph glyph-name="uniFE86" unicode="&#x624;" horiz-adv-x="473" arabic-form="final" 
d="M78 138l17 91q8 41 39.5 67t73.5 26h56q26 0 48.5 -9.5t39 -26.5t26 -39t9.5 -48v-150h86q6 0 10 -4.5t4 -9.5v-21q0 -14 -14 -14h-86v-10v-6q0 -31 -9 -61t-27 -57t-43.5 -47.5t-57.5 -30.5l-100 -33l-14 45l106 35q48 16 76 56t28 89v26q-7 -4 -13.5 -5t-14.5 -1h-127
q-27 0 -50 11.5t-38.5 30.5t-21 39t-5.5 35q0 11 2 22zM121 102q4 -16 13.5 -27.5t24 -18.5t30.5 -7h157v151q0 33 -23 55.5t-56 22.5h-55q-29 0 -51 -18t-27 -45l-15 -81q-1 -6 -1 -12q0 -11 3 -20zM161 454q-2 0 -7 4.5t-10 15.5q0 1 -2.5 7t-6 13.5t-6.5 14t-5 9.5
q-9 19 -9 38.5t6.5 36t19.5 30t30 20.5l70 29l9 -23l-77 -35q-21 -10 -26.5 -26.5t-5.5 -26.5q0 -14 6 -28l34 -71l155 80l11 -24l-257 -131l-12 26z" />
    <glyph glyph-name="uniFE88" unicode="&#x625;" horiz-adv-x="260" arabic-form="final" 
d="M127 660v-524q0 -36 25.5 -62t61.5 -26h46q6 0 10 -4.5t4 -10.5v-20q0 -14 -14 -14h-37q-28 0 -53 11t-44 29.5t-29.5 44t-10.5 53.5v523h41zM99 -284q0 1 -5.5 5t-10.5 17q0 1 -3 6.5t-6 13t-6 14t-5 9.5q-9 19 -9 38t6.5 35.5t19.5 30t30 20.5l69 29l8 -22l-76 -36
q-20 -10 -26.5 -27t-6.5 -27q0 -13 7 -26l35 -71l154 81l12 -26l-258 -131l-12 27z" />
    <glyph glyph-name="uniFE8A" unicode="&#x626;" horiz-adv-x="730" arabic-form="final" 
d="M125 171v-214q0 -30 11.5 -56t31 -45.5t45.5 -31t56 -11.5h169q26 0 48.5 10t39 26.5t26.5 39t10 48.5v63h-181v49h349q5 -1 9.5 -4.5t4.5 -10.5v-20q0 -6 -4.5 -10t-9.5 -4h-133q6 -14 6 -24v-47q0 -34 -13 -64t-35 -52.5t-51.5 -35.5t-62.5 -13h-173q-38 0 -71.5 14.5
t-58.5 39.5t-39.5 58.5t-14.5 71.5v223h41zM168 390q0 1 -5.5 5.5t-9.5 12.5q-1 3 -4.5 10t-6.5 14.5t-6 14.5t-5 9q-9 19 -9 38t6.5 36t19.5 30.5t30 20.5l69 29l10 -23l-78 -36q-10 -4 -17.5 -13t-11 -19.5t-3.5 -20.5q0 -2 0.5 -9t6.5 -19l34 -70l155 80l11 -24
l-257 -133l-12 26z" />
    <glyph glyph-name="uniFE8B" unicode="&#x626;" horiz-adv-x="319" arabic-form="initial" 
d="M-10 45q4 4 10 4h89q18 0 34 7t28 19t19 28t7 34v168h41v-168q0 -28 -10.5 -53t-29 -43.5t-43.5 -29.5t-53 -11h-82q-14 0 -14 14v20q0 6 4 11zM76 421q-1 1 -6 5.5t-12 16.5l-20 43q-9 19 -9 38t6.5 36t19.5 30.5t30 20.5l70 29l9 -23l-77 -35q-21 -10 -27 -27t-6 -28
q0 -13 6 -26l35 -71l155 81l11 -25l-256 -131l-13 25z" />
    <glyph glyph-name="uniFE8C" unicode="&#x626;" horiz-adv-x="326" arabic-form="medial" 
d="M0 49h50q34 0 60.5 22t33.5 54l28 144l40 -7l-23 -119q-2 -8 -2 -16q0 -10 4.5 -23.5t16.5 -26.5t29.5 -20.5t36.5 -7.5h52q14 0 14 -14v-21q0 -14 -14 -14h-53q-35 0 -67 19t-40 51q-20 -32 -49.5 -51t-64.5 -19h-52q-14 0 -14 14v21q0 14 14 14zM15 358l83 41
q-1 0 -6 4.5t-10 17.5l-21 42q-9 19 -9 38.5t7 36.5t19.5 30t29.5 20l69 29l9 -23l-77 -35q-20 -10 -26 -27t-6 -27q0 -13 6 -26l34 -71l155 80l12 -25l-257 -131z" />
    <glyph glyph-name="uniFE8E" unicode="&#x627;" horiz-adv-x="265" arabic-form="final" 
d="M126 641v-504q0 -37 25.5 -62.5t62.5 -25.5h51q6 0 10 -4.5t4 -10.5v-20q0 -14 -14 -14h-43q-28 0 -53 11t-44 29.5t-29.5 43.5t-10.5 53v504h41z" />
    <glyph glyph-name="uniFE90" unicode="&#x628;" horiz-adv-x="883" arabic-form="final" 
d="M126 305v-133q0 -26 9.5 -48.5t26.5 -39t39.5 -26t48.5 -9.5h386q18 0 34 7t28 19t19 28t7 35v139h41v-139q0 -38 26 -63.5t63 -25.5h29q14 0 14 -14v-21q0 -14 -14 -14h-21q-37 0 -67.5 18t-49.5 52q-20 -34 -50.5 -52t-67.5 -18h-380q-33 0 -62.5 12.5t-51.5 34.5
t-35 51.5t-13 62.5v144h41zM477 -122v-65h-65v65h65z" />
    <glyph glyph-name="uniFE91" unicode="&#x628;" horiz-adv-x="287" arabic-form="initial" 
d="M-10 45q4 4 10 4h89q18 0 34 7t28 19t19 28t7 34v168h41v-168q0 -28 -10.5 -53t-29 -43.5t-43.5 -29.5t-53 -11h-82q-14 0 -14 14v20q0 6 4 11zM23 -120h66v-65h-66v65z" />
    <glyph glyph-name="uniFE92" unicode="&#x628;" horiz-adv-x="326" arabic-form="medial" 
d="M1 49h50q34 0 60.5 22t33.5 54l28 144l40 -7l-23 -119q-2 -8 -2 -16q0 -10 4.5 -23.5t16.5 -26.5t29.5 -20.5t36.5 -7.5h52q14 0 14 -14v-21q0 -14 -14 -14h-53q-35 0 -67 19t-40 51q-20 -32 -49.5 -51t-64.5 -19h-52q-14 0 -14 14v21q0 14 14 14zM131 -121h65v-65h-65
v65z" />
    <glyph glyph-name="uniFE94" unicode="&#x629;" horiz-adv-x="509" arabic-form="final" 
d="M85 215q0 63 30.5 99t78.5 49l145 38v86h41v-343q0 -20 8 -37.5t22 -30t32 -20t37 -7.5h30q14 0 14 -14v-21q0 -14 -14 -14h-30q-44 0 -80 25t-51 63q-7 -5 -14 -9t-17 -4h-159q-40 0 -56.5 17t-16.5 57v66zM125 124h214v230l-140 -36q-34 -9 -54 -38.5t-20 -62.5v-93z
M255 660h65v-65h-65v65zM203 660v-65h-65v65h65z" />
    <glyph glyph-name="uniFE96" unicode="&#x62a;" horiz-adv-x="884" arabic-form="final" 
d="M85 305h41v-133q0 -26 10 -48.5t27 -39t39.5 -26t48.5 -9.5h386q18 0 34 7t28 19t19 28t7 35v139h41v-139q0 -38 26 -63.5t63 -25.5h29q14 0 14 -14v-21q0 -14 -14 -14h-21q-37 0 -67.5 18t-49.5 52q-20 -34 -50.5 -52t-67.5 -18h-380q-33 0 -63 12.5t-52 34.5t-35 51.5
t-13 62.5v144zM450 305v65h65v-65h-65zM398 370v-65h-65v65h65z" />
    <glyph glyph-name="uniFE97" unicode="&#x62a;" horiz-adv-x="287" arabic-form="initial" 
d="M-10 45q4 4 10 4h89q18 0 34 7t28 19t19 28t7 34v168h41v-168q0 -28 -10.5 -53t-29 -43.5t-43.5 -29.5t-53 -11h-82q-14 0 -14 14v20q0 6 4 11zM152 440v65h65v-65h-65zM35 505h65v-65h-65v65z" />
    <glyph glyph-name="uniFE98" unicode="&#x62a;" horiz-adv-x="326" arabic-form="medial" 
d="M0 49h50q34 0 60.5 22t33.5 54l28 144l40 -7l-23 -119q-2 -8 -2 -16q0 -10 4.5 -23.5t16.5 -26.5t29.5 -20.5t36.5 -7.5h52q14 0 14 -14v-21q0 -14 -14 -14h-53q-35 0 -67 19t-40 51q-20 -32 -49.5 -51t-64.5 -19h-52q-14 0 -14 14v21q0 14 14 14zM198 405v65h65v-65h-65
zM81 470h65v-65h-65v65z" />
    <glyph glyph-name="uniFE9A" unicode="&#x62b;" horiz-adv-x="884" arabic-form="final" 
d="M85 161v144h41v-133q0 -26 10 -48.5t27 -39t39.5 -26t48.5 -9.5h386q18 0 34 7t28 19t19 28t7 35v139h41v-139q0 -38 26 -63.5t63 -25.5h29q14 0 14 -14v-21q0 -14 -14 -14h-21q-37 0 -67.5 18t-49.5 52q-20 -34 -50.5 -52t-67.5 -18h-380q-33 0 -63 12.5t-52 34.5
t-35 51.5t-13 62.5zM334 305v65h65v-65h-65zM390 407v65h65v-65h-65zM516 370v-65h-65v65h65z" />
    <glyph glyph-name="uniFE9B" unicode="&#x62b;" horiz-adv-x="292" arabic-form="initial" 
d="M-10 45q4 4 10 4h89q18 0 34 7t28 19t19 28t7 34v168h41v-168q0 -28 -10.5 -53t-29 -43.5t-43.5 -29.5t-53 -11h-82q-14 0 -14 14v20q0 6 4 11zM41 440v65h65v-65h-65zM161 607v-65h-65v65h65zM158 440v65h65v-65h-65z" />
    <glyph glyph-name="uniFE9C" unicode="&#x62b;" horiz-adv-x="326" arabic-form="medial" 
d="M0 49h50q34 0 60.5 22t33.5 54l28 144l40 -7l-23 -119q-2 -8 -2 -16q0 -10 4.5 -23.5t16.5 -26.5t29.5 -20.5t36.5 -7.5h52q14 0 14 -14v-21q0 -14 -14 -14h-53q-35 0 -67 19t-40 51q-20 -32 -49.5 -51t-64.5 -19h-52q-14 0 -14 14v21q0 14 14 14zM81 403v65h65v-65h-65z
M137 570h65v-65h-65v65zM198 468h65v-65h-65v65z" />
    <glyph glyph-name="uniFE9E" unicode="&#x62c;" horiz-adv-x="678" arabic-form="final" 
d="M86 229l21 72q6 24 21 39.5t33 24t30 9.5t16 1q15 0 27 -4l348 -105l-14 -35l-50 12q-9 2 -17 2t-19.5 -2.5t-24.5 -13.5v-90q0 -19 7 -35.5t19.5 -28.5t28.5 -19t34 -7h132q6 0 10.5 -4t4.5 -10v-21q0 -6 -4.5 -10t-10.5 -4h-124q-28 0 -52 11t-42 30t-28 44.5t-10 54.5
v63l-210 -156q-35 -25 -53.5 -61.5t-18.5 -79.5q0 -38 15 -71t39.5 -58t58 -39.5t71.5 -14.5h218v-49h-218q-46 0 -87 17.5t-71.5 48t-48.5 71.5t-18 87q0 57 26 106t71 83l230 167q5 4 8.5 6.5t9.5 5.5l-229 67q-7 2 -14 2q-15 0 -34.5 -12.5t-26.5 -35.5l-19 -67zM314 -43
h65v-65h-65v65z" />
    <glyph glyph-name="uniFE9F" unicode="&#x62c;" horiz-adv-x="672" arabic-form="initial" 
d="M0 49h152q51 0 98 18t85 51l110 95q5 4 10.5 8.5t11.5 8.5l-259 77q-9 3 -18 3q-15 0 -34 -12t-26 -36l-19 -67l-35 10l21 72q6 20 19 35.5t30 25t30.5 11t19.5 1.5q14 0 29 -4l378 -113l-11 -38l-35 10q-13 4 -24 4q-4 0 -12.5 -1t-20.5 -6.5t-23 -14.5l-139 -119
q-38 -33 -84 -50.5t-97 -17.5h-157q-14 0 -14 14v21q0 14 14 14zM275 -120h65v-65h-65v65z" />
    <glyph glyph-name="uniFEA0" unicode="&#x62c;" horiz-adv-x="685" arabic-form="medial" 
d="M-14 35q0 5 4 9.5t10 4.5h151q52 0 99 18t86 51l109 94q9 8 23 18l-261 76q-9 3 -18 3q-15 0 -33.5 -11.5t-25.5 -35.5l-19 -66l-35 10l21 70q6 20 18.5 36t30 26t31 11.5t19.5 1.5q15 0 30 -4l378 -114l-12 -38l-36 10q-13 3 -24 3q-15 0 -32.5 -8t-35.5 -23v-39
q0 -38 26 -63.5t63 -25.5h132q6 0 10 -4.5t4 -9.5v-21q0 -14 -14 -14h-124q-30 0 -55 11.5t-43 31.5t-27 45.5t-9 52.5v6l-89 -79q-37 -33 -83.5 -50.5t-96.5 -17.5h-158q-14 0 -14 14v21zM340 -120v-65h-65v65h65z" />
    <glyph glyph-name="uniFEA2" unicode="&#x62d;" horiz-adv-x="678" arabic-form="final" 
d="M85 229l21 72q6 24 21 39.5t33 24t30 9.5t16 1q15 0 27 -4l348 -105l-14 -35l-50 12q-9 2 -17 2t-19.5 -2.5t-24.5 -13.5v-90q0 -19 7 -35.5t19.5 -28.5t28.5 -19t34 -7h132q6 0 10.5 -4t4.5 -10v-21q0 -6 -4.5 -10t-10.5 -4h-124q-28 0 -52 11t-42 30t-28 44.5t-10 54.5
v63l-210 -156q-35 -25 -53.5 -61.5t-18.5 -79.5q0 -38 15 -71t39.5 -58t58 -39.5t71.5 -14.5h218v-49h-218q-46 0 -87 17.5t-71.5 48t-48.5 71.5t-18 87q0 57 26 106t71 83l230 167q5 4 8.5 6.5t9.5 5.5l-229 67q-7 2 -14 2q-15 0 -34.5 -12.5t-26.5 -35.5l-19 -67z" />
    <glyph glyph-name="uniFEA3" unicode="&#x62d;" horiz-adv-x="672" arabic-form="initial" 
d="M0 49h152q51 0 98 18t85 51l110 95q5 4 10.5 8.5t11.5 8.5l-259 77q-9 3 -18 3q-15 0 -34 -12t-26 -36l-19 -67l-35 10l21 72q6 20 19 35.5t30 25t30.5 11t19.5 1.5q14 0 29 -4l378 -113l-11 -38l-35 10q-13 4 -24 4q-4 0 -12.5 -1t-20.5 -6.5t-23 -14.5l-139 -119
q-38 -33 -84 -50.5t-97 -17.5h-157q-14 0 -14 14v21q0 14 14 14z" />
    <glyph glyph-name="uniFEA4" unicode="&#x62d;" horiz-adv-x="685" arabic-form="medial" 
d="M-14 14v21q0 5 4 9.5t10 4.5h151q52 0 99 18t86 51l109 94q9 8 23 18l-261 76q-9 3 -18 3q-15 0 -33.5 -11.5t-25.5 -35.5l-19 -66l-35 10l21 70q6 20 18.5 36t30 26t31 11.5t19.5 1.5q15 0 30 -4l378 -114l-12 -38l-36 10q-13 3 -24 3q-15 0 -32.5 -8t-35.5 -23v-39
q0 -38 26 -63.5t63 -25.5h132q6 0 10 -4.5t4 -9.5v-21q0 -14 -14 -14h-124q-30 0 -55 11.5t-43 31.5t-27 45.5t-9 52.5v6l-89 -79q-37 -33 -83.5 -50.5t-96.5 -17.5h-158q-14 0 -14 14z" />
    <glyph glyph-name="uniFEA6" unicode="&#x62e;" horiz-adv-x="678" arabic-form="final" 
d="M86 229l21 72q6 24 21 39.5t33 24t30 9.5t16 1q15 0 27 -4l348 -105l-14 -35l-50 12q-8 2 -16 3q-8 -1 -20 -4.5t-25 -14.5v-89q0 -19 7 -35t19.5 -28t28.5 -19t34 -7h132q14 0 14 -14v-21q0 -14 -14 -14h-124q-28 0 -52 11t-42 30t-28 44.5t-10 54.5v62l-210 -155
q-35 -25 -53.5 -61.5t-18.5 -79.5q0 -38 15 -71t39.5 -58t58 -39.5t71.5 -14.5h218v-49h-218q-46 0 -87 17.5t-71.5 48t-48.5 71.5t-18 87q0 57 26 106t71 83l230 167q5 4 8.5 6.5t9.5 5.5l-229 67q-7 2 -14 2q-15 0 -34.5 -12.5t-26.5 -35.5l-19 -67zM171 575h65v-65h-65
v65z" />
    <glyph glyph-name="uniFEA7" unicode="&#x62e;" horiz-adv-x="672" arabic-form="initial" 
d="M0 49h152q51 0 98 18t85 51l110 95q5 4 10.5 8.5t11.5 8.5l-259 77q-9 3 -18 3q-15 0 -34 -12t-26 -36l-19 -67l-35 10l21 72q6 20 19 35.5t30 25t30.5 11t19.5 1.5q14 0 29 -4l378 -113l-11 -38l-35 10q-13 4 -24 4q-4 0 -12.5 -1t-20.5 -6.5t-23 -14.5l-139 -119
q-38 -33 -84 -50.5t-97 -17.5h-157q-14 0 -14 14v21q0 14 14 14zM151 486v65h65v-65h-65z" />
    <glyph glyph-name="uniFEA8" unicode="&#x62e;" horiz-adv-x="685" arabic-form="medial" 
d="M-14 35q0 5 4 9.5t10 4.5h151q52 0 99 18t86 51l109 94q9 8 23 18l-261 76q-9 3 -18 3q-15 0 -33.5 -11.5t-25.5 -35.5l-19 -66l-35 10l21 70q6 20 18.5 36t30 26t31 11.5t19.5 1.5q15 0 30 -4l378 -114l-12 -38l-36 10q-13 3 -24 3q-15 0 -32.5 -8t-35.5 -23v-39
q0 -38 26 -63.5t63 -25.5h132q6 0 10 -4.5t4 -9.5v-21q0 -14 -14 -14h-124q-30 0 -55 11.5t-43 31.5t-27 45.5t-9 52.5v6l-89 -79q-37 -33 -83.5 -50.5t-96.5 -17.5h-158q-14 0 -14 14v21zM218 551v-65h-65v65h65z" />
    <glyph glyph-name="uniFEAA" unicode="&#x62f;" horiz-adv-x="576" arabic-form="final" 
d="M120 182v-76q0 -23 12.5 -40t39.5 -17h145q25 0 45 11t33 28.5t16 33.5t3 26q0 12 -3 25l-70 256l39 14l89 -324q8 -30 33.5 -50t56.5 -20h17q6 0 10 -4.5t4 -10.5v-20q0 -14 -14 -14h-19q-37 0 -68.5 22t-48.5 68q-17 -45 -51 -67.5t-72 -22.5h-141q-19 0 -35.5 7
t-29 19.5t-19.5 29.5t-7 36v90h35z" />
    <glyph glyph-name="uniFEAC" unicode="&#x630;" horiz-adv-x="576" arabic-form="final" 
d="M85 92v90h35v-76q0 -23 12.5 -40t39.5 -17h145q25 0 45 11t33 28.5t16 33.5t3 26q0 12 -3 25l-70 256l39 14l89 -324q8 -30 33.5 -50t56.5 -20h17q6 0 10 -4.5t4 -10.5v-20q0 -14 -14 -14h-19q-37 0 -68.5 22t-48.5 68q-17 -45 -51 -67.5t-72 -22.5h-141q-19 0 -35.5 7
t-29 19.5t-19.5 29.5t-7 36zM375 643v-65h-65v65h65z" />
    <glyph glyph-name="uniFEAE" unicode="&#x631;" horiz-adv-x="418" arabic-form="final" 
d="M-40 -201l105 36q48 16 76 55.5t28 89.5v296h42v-137q0 -37 25.5 -63.5t63.5 -26.5h118q6 0 10 -4.5t4 -10.5v-20q0 -14 -14 -14h-110q-29 0 -54.5 13t-42.5 33v-61q0 -67 -38 -120.5t-101 -75.5l-98 -34z" />
    <glyph glyph-name="uniFEB0" unicode="&#x632;" horiz-adv-x="415" arabic-form="final" 
d="M65 -165q48 16 76 55.5t28 89.5v296h42v-137q0 -37 25.5 -63.5t63.5 -26.5h115q6 0 10 -4.5t4 -10.5v-20q0 -14 -14 -14h-107q-29 0 -54.5 13t-42.5 33v-61q0 -67 -38 -120.5t-101 -75.5l-98 -34l-14 44zM158 412v65h65v-65h-65z" />
    <glyph glyph-name="uniFEB2" unicode="&#x633;" horiz-adv-x="1190" arabic-form="final" 
d="M126 261v-242q0 -30 11.5 -56t31 -45.5t46 -31t56.5 -11.5h168q25 0 47 9.5t38.5 26.5t26 39t9.5 48v280h41v-139q0 -38 27 -64t64 -26h10q35 0 61 22t33 56l29 142l40 -6l-24 -119v-6q0 -16 5 -31.5t16.5 -28.5t28 -20.5t35.5 -7.5h6q37 0 62.5 26t25.5 63v170h41v-178
q0 -15 7.5 -30t20 -26.5t28.5 -18.5t34 -7h38q6 0 10.5 -4t4.5 -10v-20q0 -6 -4.5 -10.5t-10.5 -4.5h-30q-38 0 -68.5 18.5t-48.5 51.5q-20 -33 -49.5 -51.5t-64.5 -18.5q-36 0 -65 18.5t-45 51.5q-18 -34 -49 -52t-67 -18q-27 0 -53 11t-46 35v-52q0 -35 -12.5 -65.5
t-34.5 -53.5t-51.5 -36t-64.5 -13h-170q-39 0 -72.5 14.5t-58.5 39.5t-39.5 58.5t-14.5 71.5v251h41z" />
    <glyph glyph-name="uniFEB3" unicode="&#x633;" horiz-adv-x="692" arabic-form="initial" 
d="M0 49h37q18 0 34 7t28 19t19 28t7 35v140h41v-142q0 -18 7 -34t19 -28t27.5 -18.5t33.5 -6.5h10q35 0 61.5 22t32.5 56l29 142l40 -6l-24 -119q-1 -7 -1 -13q0 -12 4.5 -26.5t16.5 -27.5t29 -20.5t36 -7.5h95v259h41v-239q0 -69 -69 -69h-68q-34 0 -65 19t-43 51
q-19 -34 -50 -52t-67 -18t-66.5 18.5t-49.5 52.5q-17 -34 -47.5 -52.5t-68.5 -18.5h-29q-14 0 -14 14v21q0 14 14 14z" />
    <glyph glyph-name="uniFEB4" unicode="&#x633;" horiz-adv-x="757" arabic-form="medial" 
d="M-14 14v21q0 14 14 14h40q18 0 34 7t28.5 19.5t19.5 28.5t7 34v140h41v-142q0 -37 26.5 -62t62.5 -25h9q35 0 62 22t33 55l28 143l42 -6l-24 -119q-2 -8 -2 -16q0 -10 4.5 -24t17 -27t31.5 -20q1 0 1 -1q0 -9 -461 -56l500 49l-500 -49l499 49q17 0 33 7t28 19.5t19 28.5
t7 34v171h41v-178q0 -18 7.5 -33t20 -26t29 -17t33.5 -6h40q5 0 9.5 -4t4.5 -10v-21q0 -5 -4.5 -9.5t-9.5 -4.5h-32q-38 0 -68.5 18.5t-49.5 53.5q-18 -35 -49 -53.5t-67 -18.5q-35 0 -64.5 18t-42.5 54q-18 -35 -49.5 -53.5t-66.5 -18.5q-37 0 -68 18.5t-50 53.5
q-20 -35 -50.5 -53.5t-67.5 -18.5h-32q-6 0 -10 4.5t-4 9.5z" />
    <glyph glyph-name="uniFEB6" unicode="&#x634;" horiz-adv-x="1189" arabic-form="final" 
d="M126 261v-242q0 -30 11.5 -56t31 -45.5t46 -31t56.5 -11.5h168q25 0 47 9.5t38.5 26.5t26 39t9.5 48v280h41v-139q0 -38 27 -64t64 -26h10q35 0 61 22t33 56l29 142l40 -6l-24 -119v-6q0 -16 5 -31.5t16.5 -28.5t28 -20.5t35.5 -7.5h6q37 0 62.5 26t25.5 63v170h41v-178
q0 -15 7.5 -30t20 -26.5t28.5 -18.5t34 -7h38q6 0 10.5 -4t4.5 -10v-20q0 -6 -4.5 -10.5t-10.5 -4.5h-30q-38 0 -68.5 18.5t-48.5 51.5q-20 -33 -49.5 -51.5t-64.5 -18.5q-36 0 -65 18.5t-45 51.5q-18 -34 -49 -52t-67 -18q-27 0 -53 11t-46 35v-52q0 -35 -12.5 -65.5
t-34.5 -53.5t-51.5 -36t-64.5 -13h-170q-39 0 -72.5 14.5t-58.5 39.5t-39.5 58.5t-14.5 71.5v251h41zM735 469h65v-65h-65v65zM856 571v-65h-65v65h65zM852 404v65h65v-65h-65z" />
    <glyph glyph-name="uniFEB7" unicode="&#x634;" horiz-adv-x="695" arabic-form="initial" 
d="M0 49h38q18 0 34.5 7t28.5 19t19.5 28t7.5 35v140h41v-143q0 -36 25.5 -61t62.5 -25h11q34 0 60.5 22t33.5 56l28 142l40 -6l-24 -119q-2 -8 -2 -16q0 -10 4.5 -24t16.5 -27t29.5 -20.5t36.5 -7.5h94v259h41v-240q0 -68 -68 -68h-68q-34 0 -65.5 19t-42.5 51
q-19 -35 -50.5 -52.5t-67.5 -17.5q-37 0 -67.5 18t-49.5 52q-18 -34 -48.5 -52t-67.5 -18h-31q-14 0 -14 14v21q0 14 14 14zM300 469h65v-65h-65v65zM355 506v65h65v-65h-65zM417 469h65v-65h-65v65z" />
    <glyph glyph-name="uniFEB8" unicode="&#x634;" horiz-adv-x="755" arabic-form="medial" 
d="M-14 14v21q0 14 14 14h39q18 0 34 7t28.5 19.5t19.5 28.5t7 34v140h41v-141q0 -18 7 -34t19.5 -28t28.5 -19t34 -7h9q35 0 62 22t33 55l28 143l41 -6l-23 -119q-2 -9 -2 -17q0 -11 4.5 -24.5t17 -26.5t31.5 -20q1 0 1 -1q0 -8 -460 -55l499 49l-499 -49l498 49q17 0 33 7
t28 19.5t19 28.5t7 34v171h41v-178q0 -17 7.5 -32t20 -26t29 -17.5t33.5 -6.5h39q5 0 9.5 -4t4.5 -10v-21q0 -5 -4 -9.5t-10 -4.5h-31q-38 0 -68.5 18.5t-49.5 53.5q-18 -35 -49 -53.5t-67 -18.5q-35 0 -64.5 18t-42.5 54q-18 -35 -49.5 -53.5t-66.5 -18.5q-37 0 -68 18.5
t-50 53.5q-20 -35 -50.5 -53.5t-67.5 -18.5h-31q-6 0 -10 4.5t-4 9.5zM300 471h65v-65h-65v65zM355 573h65v-65h-65v65zM417 406v65h65v-65h-65z" />
    <glyph glyph-name="uniFEBA" unicode="&#x635;" horiz-adv-x="1252" arabic-form="final" 
d="M126 261v-243q0 -29 11.5 -55.5t31 -46t45.5 -31t56 -11.5h170q26 0 48 9.5t39 26.5t26.5 39t9.5 48v281h41v-143q0 -20 5 -33t12 -21q7 -9 16 -14l178 197q26 28 61 43t74 15h61q26 0 48.5 -10t39 -26.5t26.5 -39t10 -48.5v-60q0 -38 25.5 -63.5t63.5 -25.5h28
q5 0 9.5 -4t4.5 -10v-21q0 -5 -3.5 -9.5t-10.5 -4.5h-20q-36 0 -66 18t-48 53q-34 -71 -104 -71h-291q-34 0 -55.5 3.5t-34 8.5t-19 12t-10.5 13v-44q0 -35 -13 -65t-35 -53t-52 -36t-64 -13h-171q-38 0 -71.5 14.5t-58.5 39.5t-39.5 58.5t-14.5 71.5v251h41zM1018 49
q32 0 54 22t22 54v70q0 35 -24 59t-58 24h-58q-34 0 -63.5 -13.5t-52.5 -38.5l-164 -177h344z" />
    <glyph glyph-name="uniFEBB" unicode="&#x635;" horiz-adv-x="767" arabic-form="initial" 
d="M-14 16v20q0 6 4.5 9.5t10.5 3.5h36q19 0 35.5 7t28.5 19t19 28t7 34v123h41v-123q0 -20 5 -33t11 -21q7 -9 16 -14l178 194q26 28 61.5 43.5t74.5 15.5h61q26 0 48.5 -9.5t39 -26.5t26.5 -39.5t10 -48.5v-77q0 -25 -9.5 -47t-26 -38.5t-38.5 -26t-47 -9.5h-308
q-18 0 -38.5 5t-38.5 14t-31 22.5t-17 30.5q-18 -34 -48 -53t-67 -19h-28q-6 0 -11 4.5t-5 11.5zM581 49q32 0 54.5 21t22.5 56v70q0 35 -24.5 59t-58.5 24h-57q-38 0 -66 -13.5t-51 -38.5l-164 -178h344z" />
    <glyph glyph-name="uniFEBC" unicode="&#x635;" horiz-adv-x="814" arabic-form="medial" 
d="M-14 35q0 6 4.5 10t9.5 4h37q18 0 34.5 7t28.5 19t19 28t7 34v123h41v-137q0 -18 4.5 -29.5t9.5 -18t10 -8.5l4 -2l183 198q26 28 61 43.5t73 15.5h63q26 0 48 -9.5t39 -26.5t26.5 -39.5t9.5 -48.5v-68q0 -35 26.5 -58t61.5 -23h28q14 0 14 -14v-21q0 -5 -4 -9.5
t-10 -4.5h-20q-36 0 -66 17.5t-47 51.5q-34 -69 -103 -69h-314q-42 0 -75 15.5t-47 55.5q-19 -34 -47 -52.5t-66 -18.5h-29q-5 0 -9.5 4.5t-4.5 10.5v20zM231 49h348q33 0 55.5 22.5t22.5 54.5v69q0 17 -6.5 32.5t-18 26.5t-26.5 17.5t-33 6.5h-56q-33 0 -64.5 -13.5
t-54.5 -37.5z" />
    <glyph glyph-name="uniFEBE" unicode="&#x636;" horiz-adv-x="1251" arabic-form="final" 
d="M84 10v251h41v-243q0 -29 11.5 -55.5t31 -46t45.5 -31t56 -11.5h170q26 0 48 9.5t39 26.5t26.5 39t9.5 48v281h41v-143q0 -20 5 -33t11 -21q7 -9 16 -14l178 197q26 28 61.5 43t74.5 15h61q26 0 48.5 -10t39 -26.5t26.5 -39t10 -48.5v-60q0 -38 25.5 -63.5t63.5 -25.5h28
q5 0 9.5 -4t4.5 -10v-21q0 -5 -3.5 -9.5t-10.5 -4.5h-20q-36 0 -66 18t-48 53q-34 -71 -104 -71h-292q-34 0 -55 3.5t-34 8.5t-19 12t-10 13v-44q0 -35 -13 -65t-35 -53t-52 -36t-64 -13h-171q-38 0 -71.5 14.5t-58.5 39.5t-39.5 58.5t-14.5 71.5zM1017 49q32 0 54 22t22 54
v70q0 35 -24 59t-58 24h-58q-34 0 -64 -13.5t-53 -38.5l-164 -177h345zM992 523v-65h-65v65h65z" />
    <glyph glyph-name="uniFEBF" unicode="&#x636;" horiz-adv-x="767" arabic-form="initial" 
d="M0 49h37q19 0 35.5 7t28.5 19t19 28t7 34v123h41v-123q0 -20 5 -33t11 -21q7 -9 16 -14l178 194q26 28 61.5 43.5t74.5 15.5h61q26 0 48.5 -9.5t39 -26.5t26.5 -39.5t10 -48.5v-77q0 -25 -9.5 -47t-26 -38.5t-38.5 -26t-47 -9.5h-333q-37 0 -64.5 18.5t-35.5 52.5
q-18 -34 -48 -52.5t-67 -18.5h-30q-14 0 -14 16v20q0 13 14 13zM237 49h344q32 0 54.5 21t22.5 56v70q0 35 -24.5 58.5t-58.5 23.5h-57q-38 0 -66 -13t-51 -38zM484 523h65v-65h-65v65z" />
    <glyph glyph-name="uniFEC0" unicode="&#x636;" horiz-adv-x="814" arabic-form="medial" 
d="M-14 35q0 6 4.5 10t9.5 4h37q18 0 34.5 7t28.5 19t19 28t7 34v123h41v-137q0 -18 4.5 -29.5t9.5 -18t10 -8.5l4 -2l183 198q26 28 61 43.5t73 15.5h63q26 0 48 -9.5t39 -26.5t26.5 -39.5t9.5 -48.5v-68q0 -35 26.5 -58t61.5 -23h28q14 0 14 -14v-21q0 -5 -4 -9.5
t-10 -4.5h-20q-36 0 -66 17.5t-47 51.5q-34 -69 -103 -69h-314q-42 0 -75 15.5t-47 55.5q-19 -34 -47 -52.5t-66 -18.5h-29q-5 0 -9.5 4.5t-4.5 10.5v20zM231 49h348q33 0 55.5 22.5t22.5 54.5v69q0 17 -6.5 32.5t-18 26.5t-26.5 17.5t-33 6.5h-56q-33 0 -64.5 -13.5
t-54.5 -37.5zM482 523h65v-65h-65v65z" />
    <glyph glyph-name="uniFEC2" unicode="&#x637;" horiz-adv-x="775" arabic-form="final" 
d="M139 49l116 124v468h41v-395q0 -13 -1 -21q-1 -7 -1 -8l36 40q59 65 143 65h62q26 0 48.5 -10t39.5 -26.5t26.5 -39t9.5 -47.5v-61q0 -38 26 -63.5t63 -25.5h27q5 0 9.5 -4t4.5 -10v-21q0 -5 -4.5 -9.5t-9.5 -4.5h-19q-36 0 -66 18t-47 50q-17 -32 -43.5 -50t-61.5 -18
h-453v49h54zM540 49q16 0 30.5 6.5t25 17t16.5 24.5t6 30v68q0 35 -24.5 59t-59.5 24h-57q-33 0 -64 -13t-54 -37l-167 -179h348z" />
    <glyph glyph-name="uniFEC3" unicode="&#x637;" horiz-adv-x="652" arabic-form="initial" 
d="M-14 35q0 6 4.5 10t9.5 4h64l115 124v469h41v-396q0 -13 -1 -21.5t-1 -9.5l38 42q28 31 64 48t78 17h61q26 0 48.5 -9.5t39 -26.5t26.5 -39.5t10 -48.5v-78q0 -25 -9.5 -46.5t-26 -38t-38 -26t-46.5 -9.5h-463q-5 0 -9.5 4.5t-4.5 10.5v20zM465 49q32 0 54.5 22.5
t22.5 54.5v69q0 35 -24.5 59t-58.5 24h-57q-34 0 -64.5 -13.5t-53.5 -37.5l-168 -178h349z" />
    <glyph glyph-name="uniFEC4" unicode="&#x637;" horiz-adv-x="699" arabic-form="medial" 
d="M0 49h63l116 124v468h41v-395q0 -13 -1 -21q-1 -7 -1 -8l36 40q59 65 143 65h62q26 0 48.5 -10t39.5 -26.5t26.5 -39t9.5 -47.5v-61q0 -38 26 -63.5t63 -25.5h27q5 0 9.5 -3t4.5 -11v-24q0 -5 -4.5 -8t-9.5 -3h-19q-36 0 -66 17.5t-47 49.5q-34 -67 -105 -67h-462
q-14 0 -14 14v21q0 14 14 14zM464 49q16 0 30.5 6.5t25 17t16.5 24.5t6 30v68q0 35 -24.5 59t-59.5 24h-57q-33 0 -64 -13t-54 -37l-167 -179h348z" />
    <glyph glyph-name="uniFEC6" unicode="&#x638;" horiz-adv-x="775" arabic-form="final" 
d="M139 49l116 124v468h41v-395q0 -13 -1 -21q-1 -7 -1 -8l36 40q59 65 143 65h62q26 0 48.5 -10t39.5 -26.5t26.5 -39t9.5 -47.5v-61q0 -38 26 -63.5t63 -25.5h27q5 0 9.5 -4t4.5 -10v-21q0 -5 -4.5 -9.5t-9.5 -4.5h-19q-36 0 -66 18t-47 50q-17 -32 -43.5 -50t-61.5 -18
h-453v49h54zM192 49h348q16 0 30.5 6.5t25 17t16.5 24.5t6 30v68q0 35 -24.5 59t-59.5 24h-57q-33 0 -64 -13t-54 -37zM527 523v-65h-65v65h65z" />
    <glyph glyph-name="uniFEC7" unicode="&#x638;" horiz-adv-x="651" arabic-form="initial" 
d="M0 49h63l115 124v469h41v-396q0 -13 -1 -21.5t-1 -9.5l38 42q28 31 64 48t78 17h61q26 0 48.5 -9.5t39 -26.5t26.5 -39.5t10 -48.5v-78q0 -25 -9.5 -46.5t-26 -38t-38 -26t-46.5 -9.5h-462q-14 0 -14 14v21q0 14 14 14zM115 49h349q32 0 54.5 22.5t22.5 54.5v69
q0 35 -24.5 59t-58.5 24h-57q-34 0 -64.5 -13.5t-53.5 -37.5zM375 523h65v-65h-65v65z" />
    <glyph glyph-name="uniFEC8" unicode="&#x638;" horiz-adv-x="699" arabic-form="medial" 
d="M0 49h63l116 124v468h41v-395q0 -13 -1 -21q-1 -7 -1 -8l36 40q59 65 143 65h62q26 0 48.5 -10t39.5 -26.5t26.5 -39t9.5 -47.5v-61q0 -38 26 -63.5t63 -25.5h27q5 0 9.5 -3t4.5 -11v-24q0 -5 -4.5 -8t-9.5 -3h-19q-36 0 -66 17.5t-47 49.5q-34 -67 -105 -67h-462
q-14 0 -14 14v21q0 14 14 14zM464 49q16 0 30.5 6.5t25 17t16.5 24.5t6 30v68q0 35 -24.5 59t-59.5 24h-57q-33 0 -64 -13t-54 -37l-167 -179h348zM375 523h65v-65h-65v65z" />
    <glyph glyph-name="uniFECA" unicode="&#x639;" horiz-adv-x="581" arabic-form="final" 
d="M85 -169q0 53 24 101t72 83l84 58l-146 100v111q0 33 19.5 52.5t53.5 19.5h167q26 0 48.5 -9t39.5 -24.5t26.5 -36.5t9.5 -45v-24q0 -40 -34 -63l-108 -75q35 -15 74 -22.5t75 -7.5h91q14 0 14 -13v-24q0 -12 -14 -12h-90q-54 0 -100 15t-89 39l-104 -79
q-35 -26 -54.5 -61t-19.5 -78q0 -38 14.5 -71t40 -58.5t59 -40t71.5 -14.5h228v-49h-228q-46 0 -87 18t-71.5 48.5t-48 72t-17.5 89.5zM160 310v-112l145 -98l138 101v38q0 30 -23 50.5t-54 20.5h-206z" />
    <glyph glyph-name="uniFECB" unicode="&#x639;" horiz-adv-x="455" arabic-form="initial" 
d="M-10 45q4 4 10 4h133q-3 6 -4.5 12.5t-3.5 14.5l-27 143q-2 11 -2 21q0 15 5.5 35t21 39.5t38.5 31t50 11.5h139v-44h-145q-16 0 -30 -7t-23 -18.5t-12.5 -23.5t-3.5 -21q0 -7 1 -13l33 -179l210 22l7 -41l-129 -16q-57 -8 -114.5 -12t-114.5 -4h-29q-14 0 -14 14v22
q0 5 4 9z" />
    <glyph glyph-name="uniFECC" unicode="&#x639;" horiz-adv-x="564" arabic-form="medial" 
d="M-14 34q0 15 14 15h109q32 0 65 7.5t68 20.5l-141 96v115q0 30 19 48.5t49 18.5h181q24 0 45.5 -8.5t37 -24t25 -36.5t9.5 -45v-24q0 -18 -8.5 -35t-24.5 -28l-109 -75q34 -14 67 -22t65 -8h107q13 0 13 -15v-19q0 -6 -3.5 -10.5t-9.5 -4.5h-102q-48 0 -93 16t-86 41
q-41 -23 -87 -40t-94 -17h-102q-6 0 -10 4.5t-4 10.5v19zM144 200q19 -13 43 -29.5t46 -31.5q26 -18 53 -36l138 99v37q0 31 -20.5 51t-50.5 20h-209v-110z" />
    <glyph glyph-name="uniFECE" unicode="&#x63a;" horiz-adv-x="580" arabic-form="final" 
d="M109 -68q24 48 72 83l84 58l-146 100v111q0 33 19.5 52.5t53.5 19.5h167q26 0 48.5 -9t39.5 -24.5t26.5 -36.5t9.5 -45v-24q0 -40 -34 -63l-108 -75q35 -15 74 -22.5t75 -7.5h91q14 0 14 -13v-24q0 -12 -14 -12h-90q-54 0 -100 15t-89 39l-104 -79q-35 -26 -54.5 -61
t-19.5 -78q0 -38 14.5 -71t40 -58.5t59 -40t71.5 -14.5h228v-49h-228q-46 0 -87 18t-71.5 48.5t-48 72t-17.5 89.5q0 53 24 101zM160 198l145 -98l138 101v38q0 30 -23 50.5t-54 20.5h-206v-112zM234 490v64h65v-64h-65z" />
    <glyph glyph-name="uniFECF" unicode="&#x63a;" horiz-adv-x="455" arabic-form="initial" 
d="M-10 45q4 4 10 4h132q-2 6 -4 12.5t-4 14.5l-26 143q-2 11 -2 21q0 15 5.5 35t21 39.5t38.5 31t50 11.5h139v-44h-146q-16 0 -29.5 -7t-23 -18.5t-12.5 -23.5t-3 -20q0 -7 1 -14l33 -179l209 22l7 -41l-129 -16q-57 -8 -114 -12t-114 -4h-29q-14 0 -14 14v22q0 5 4 9z
M283 520v-65h-65v65h65z" />
    <glyph glyph-name="uniFED0" unicode="&#x63a;" horiz-adv-x="563" arabic-form="medial" 
d="M-14 15v19q0 15 14 15h109q32 0 65 7.5t68 20.5l-141 96v115q0 30 19 48.5t49 18.5h181q24 0 45.5 -8.5t37 -24t25 -36.5t9.5 -45v-24q0 -18 -8.5 -35t-24.5 -28l-109 -75q34 -14 67 -22t65 -8h107q13 0 13 -15v-19q0 -6 -3.5 -10.5t-9.5 -4.5h-102q-48 0 -93 16t-86 41
q-41 -23 -87 -40t-94 -17h-102q-6 0 -10 4.5t-4 10.5zM144 200q19 -13 43 -29.5t46 -31.5q26 -18 53 -36l138 99v37q0 31 -20.5 51t-50.5 20h-209v-110zM318 550v-65h-65v65h65z" />
    <glyph glyph-name="uniFED2" unicode="&#x641;" horiz-adv-x="913" arabic-form="final" 
d="M85 304h41v-140q0 -51 31.5 -83t85.5 -32h379q5 0 13 1q-38 26 -62 59.5t-24 76.5v30q0 31 11.5 58t31.5 47.5t47 32t58 11.5h10q31 0 58 -12t47.5 -32.5t32 -47.5t11.5 -58v-29q0 -43 -24 -76.5t-62 -59.5q8 -1 14 -1h129q6 0 10 -4.5t4 -9.5v-21q0 -14 -14 -14h-75
q-33 0 -65 3.5t-71 15.5q-38 -12 -70 -15.5t-65 -3.5h-314q-39 0 -70 13t-52.5 35.5t-33.5 53t-12 65.5v137zM623 111q32 -32 79 -58q24 12 44.5 26.5t36 31t24 33.5t8.5 32v39q0 22 -8.5 41t-23 33.5t-34 23t-42.5 8.5h-9q-22 0 -42 -8.5t-34 -23t-22.5 -33.5t-8.5 -41v-39
q0 -33 32 -65zM671 565h65v-65h-65v65z" />
    <glyph glyph-name="uniFED3" unicode="&#x641;" horiz-adv-x="434" arabic-form="initial" 
d="M-10 45q5 4 10 4h222q20 0 38 4.5t32 16t22.5 30t8.5 45.5v10q-10 -6 -27 -6h-123q-27 0 -49.5 11.5t-38 30t-21 38t-5.5 34.5q0 10 2 21l16 86q8 41 39.5 67.5t73.5 26.5h51q26 0 48.5 -10t39.5 -27t27 -39.5t10 -48.5v-201q0 -29 -11 -54t-30 -44t-44 -29.5t-54 -10.5
h-227q-14 0 -14 14v19q0 7 4 12zM103 251q4 -16 13.5 -27.5t24 -18.5t31.5 -7h153v143q0 16 -6.5 30.5t-17.5 25t-25.5 17t-31.5 6.5h-51q-29 0 -51 -18t-27 -47l-14 -73q-1 -6 -1 -12q0 -10 3 -19zM182 664h65v-65h-65v65z" />
    <glyph glyph-name="uniFED4" unicode="&#x641;" horiz-adv-x="416" arabic-form="medial" 
d="M-14 14v20q0 6 3.5 10.5t10.5 4.5h125q7 0 15 1q-38 26 -62 59.5t-24 76.5v30q0 30 11.5 57t31.5 47.5t47.5 32.5t58.5 12h10q31 0 58 -12t47.5 -32.5t32 -48t11.5 -58.5v-28q0 -43 -24 -76.5t-62 -59.5q8 -1 15 -1h125q5 0 9.5 -3.5t4.5 -11.5v-20q0 -6 -4.5 -10
t-9.5 -4h-72q-33 0 -70 5t-66 12q-29 -7 -65.5 -12t-71.5 -5h-71q-14 0 -14 14zM96 182q0 -40 32 -71t80 -58q48 27 80.5 58t32.5 71v31q0 23 -8.5 42.5t-23 34t-34 23t-42.5 8.5h-10q-22 0 -41.5 -8.5t-34 -23t-23 -34t-8.5 -42.5v-31zM237 566v-65h-65v65h65z" />
    <glyph glyph-name="uniFED6" unicode="&#x642;" horiz-adv-x="725" arabic-form="final" 
d="M85 -41v223h41v-213q0 -30 11.5 -56.5t31 -46t45.5 -31t56 -11.5h170q26 0 48 10t38.5 27t26 39.5t9.5 48.5v57l1 1v0q-1 0 -8 -3.5t-21 -3.5h-123q-27 0 -49.5 11.5t-38 30.5t-21 39t-5.5 35q0 10 2 21l16 86q8 41 39.5 67t73.5 26h52q26 0 48.5 -10t39 -27t26.5 -39.5
t10 -48.5v-142h120q6 0 10.5 -4t4.5 -10v-21q0 -5 -4.5 -9.5t-10.5 -4.5h-121v-62q0 -33 -13 -63t-35 -52t-51.5 -35t-62.5 -13h-172q-38 0 -71.5 14.5t-58.5 39.5t-39.5 58.5t-14.5 71.5zM341 103q4 -16 14 -28t24 -19t31 -7h153v144q0 33 -23.5 56.5t-57.5 23.5h-51
q-29 0 -51 -18t-27 -47l-14 -74q-1 -6 -1 -12q0 -10 3 -19zM483 516h65v-65h-65v65zM366 516h65v-65h-65v65z" />
    <glyph glyph-name="uniFED7" unicode="&#x642;" horiz-adv-x="434" arabic-form="initial" 
d="M-10 45q5 4 10 4h221q20 0 38.5 5t32.5 16t22.5 30t8.5 46v10q-6 -4 -13 -5t-14 -1h-123q-27 0 -50 11.5t-38.5 30t-21 38.5t-5.5 35q0 10 2 20l17 86q8 41 39.5 67t73.5 26h51q26 0 48.5 -9.5t39.5 -26.5t26.5 -39.5t9.5 -48.5v-202q0 -28 -11 -53.5t-29.5 -44
t-43.5 -29.5t-54 -11h-227q-14 0 -14 13v21q0 6 4 11zM103 252q4 -16 13.5 -27.5t24 -18.5t31.5 -7h152v142q0 33 -23 56.5t-57 23.5h-51q-29 0 -51 -18t-27 -47l-14 -73q-1 -6 -1 -12q0 -10 3 -19zM244 600v65h65v-65h-65zM192 665v-65h-65v65h65z" />
    <glyph glyph-name="uniFED8" unicode="&#x642;" horiz-adv-x="416" arabic-form="medial" 
d="M-10 45q5 4 10 4h125q7 0 15 1q-38 26 -62 59.5t-24 76.5v30q0 30 11.5 57t31.5 47.5t47.5 32.5t58.5 12h10q31 0 58 -12t47.5 -32.5t32 -48t11.5 -58.5v-28q0 -43 -24 -76.5t-62 -59.5q8 -1 15 -1h125q5 0 9.5 -4.5t4.5 -10.5v-20q0 -6 -4.5 -10t-9.5 -4h-72
q-33 0 -70 5t-66 12q-29 -7 -65.5 -12t-71.5 -5h-71q-14 0 -14 14v20q0 6 4 11zM128 111q32 -31 80 -58q48 27 80.5 58t32.5 71v31q0 23 -8.5 42.5t-23 34t-34 23t-42.5 8.5h-10q-22 0 -41.5 -8.5t-34.5 -23t-23.5 -34t-8.5 -42.5v-31q0 -40 33 -71zM234 499v65h65v-65h-65z
M117 499v65h65v-65h-65z" />
    <glyph glyph-name="uniFEDA" unicode="&#x643;" horiz-adv-x="884" arabic-form="final" 
d="M85 303h41v-131q0 -26 10 -48.5t26.5 -39t39.5 -26t48 -9.5h385q37 0 63.5 25.5t26.5 63.5v496h41v-496q0 -38 25.5 -63.5t63.5 -25.5h29q14 0 14 -14v-21q0 -14 -14 -14h-21q-37 0 -68 18.5t-49 53.5q-20 -35 -50.5 -53.5t-67.5 -18.5h-380q-34 0 -63.5 12.5t-51.5 34.5
t-35 51.5t-13 63.5v141zM301 270l85 41v0q0 1 -6 4.5t-12 16.5q0 1 -3 7t-6 13t-6 13.5t-5 9.5q-9 19 -9 38.5t6.5 36t19.5 30t30 20.5l70 29l9 -23l-77 -35q-21 -10 -27 -27t-6 -28q0 -13 6 -26q2 -3 6 -11.5t9.5 -19t10.5 -21.5t9 -19l154 81l12 -24l-257 -132z" />
    <glyph glyph-name="uniFEDB" unicode="&#x643;" horiz-adv-x="380" arabic-form="initial" 
d="M0 49h132q36 0 66.5 18t44 45t13.5 58q0 7 -2 31t-33 67l-153 214v44l285 148l20 -40l-265 -137l148 -208q37 -51 40 -82t3 -41q0 -39 -17.5 -76.5t-59 -63.5t-98.5 -26h-124q-14 0 -14 14v21q0 14 14 14z" />
    <glyph glyph-name="uniFEDC" unicode="&#x643;" horiz-adv-x="511" arabic-form="medial" 
d="M-14 14v21q0 14 14 14h132q38 0 68 18.5t43 45.5t13 57q0 8 -2.5 32t-32.5 66l-153 213v45l285 148l20 -40l-265 -137l277 -388q20 -27 46.5 -43.5t60.5 -16.5h19q5 0 9.5 -5t4.5 -11v-19q0 -6 -4.5 -10t-9.5 -4h-13q-46 0 -81.5 21.5t-67.5 69.5l-59 88q1 -12 1 -23
q0 -31 -12 -60.5t-36.5 -51.5t-56.5 -33t-62 -11h-124q-14 0 -14 14z" />
    <glyph glyph-name="uniFEDE" unicode="&#x644;" horiz-adv-x="738" arabic-form="final" 
d="M85 232h41v-211q0 -30 11.5 -56.5t31 -46.5t45.5 -31.5t56 -11.5h169q25 0 47.5 10t39 27t26.5 39.5t10 48.5v641h41v-503q0 -38 25.5 -63.5t63.5 -25.5h46q5 0 9.5 -4.5t4.5 -9.5v-21q0 -14 -14 -14h-34q-26 0 -52.5 10t-48.5 36v-53q0 -37 -13 -68t-35.5 -53t-52.5 -34
t-63 -12h-170q-38 0 -71.5 15t-58.5 40.5t-39.5 59.5t-14.5 72v219z" />
    <glyph glyph-name="uniFEDF" unicode="&#x644;" horiz-adv-x="259" arabic-form="initial" 
d="M0 49h59q37 0 63.5 25.5t26.5 63.5v503h41v-503q0 -29 -11 -54t-30 -44t-44 -29.5t-53 -10.5h-52q-14 0 -14 14v21q0 14 14 14z" />
    <glyph glyph-name="uniFEE0" unicode="&#x644;" horiz-adv-x="332" arabic-form="medial" 
d="M0 49h61q18 0 34 7t28.5 19t19.5 28t7 34v504h41v-508q0 -18 7 -33.5t19 -27t28 -18t34 -6.5h53q14 0 14 -14v-20q0 -14 -14 -14h-45q-37 0 -67.5 17.5t-49.5 46.5q-19 -29 -49 -46.5t-68 -17.5h-53q-14 0 -14 14v21q0 14 14 14z" />
    <glyph glyph-name="uniFEE2" unicode="&#x645;" horiz-adv-x="742" arabic-form="final" 
d="M85 184q0 29 11 54.5t29.5 44t43.5 29.5t53 11h211q26 0 48.5 -9.5t39.5 -26.5t26.5 -39.5t9.5 -48.5v-61q0 -19 7 -35t19.5 -28t28.5 -19t34 -7h96q13 0 13 -14v-21q0 -5 -3.5 -9.5t-9.5 -4.5h-88q-29 0 -58 13t-46 42q-2 -35 -18.5 -45t-42.5 -10h-129q-27 0 -50 11.5
t-38.5 30.5t-21 39t-5.5 35q0 10 2 21l26 142h-58q-19 0 -35 -8t-28 -21.5t-19 -31t-7 -35.5v-427h-41v428zM288 102q4 -15 13 -27t23.5 -19t33.5 -7h158v151q0 33 -23.5 56t-57.5 23h-122l-26 -146q-1 -7 -1 -14q0 -8 2 -17z" />
    <glyph glyph-name="uniFEE3" unicode="&#x645;" horiz-adv-x="507" arabic-form="initial" 
d="M-10 45q4 4 10 4h32q34 0 61 22t32 55l20 103q8 41 40 67t74 26h56q26 0 48.5 -9.5t39 -26t26.5 -39t10 -47.5v-131q0 -69 -70 -69h-127q-33 0 -59.5 17t-39.5 54q-15 -37 -46.5 -54t-64.5 -17h-32q-14 0 -14 14v21q0 5 4 10zM171 103q4 -16 13.5 -28t24 -19t30.5 -7h159
v150q0 34 -23.5 57t-57.5 23h-55q-29 0 -51 -18t-27 -46l-15 -81q-1 -6 -1 -12q0 -10 3 -19z" />
    <glyph glyph-name="uniFEE4" unicode="&#x645;" horiz-adv-x="556" arabic-form="medial" 
d="M-14 35q0 5 4.5 9.5t9.5 4.5h32q34 0 60.5 22t32.5 55l20 103q8 41 40 67t74 26h56q26 0 48.5 -9.5t39 -26t26.5 -39t10 -47.5v-61q0 -38 25.5 -64t63.5 -26h28q6 0 10 -4.5t4 -9.5v-21q0 -14 -14 -14h-20q-31 0 -58.5 13t-45.5 42q-3 -36 -20 -45.5t-43 -9.5h-127
q-33 0 -60.5 17t-38.5 54q-15 -37 -46.5 -54t-64.5 -17h-32q-14 0 -14 14v21zM171 103q4 -16 13.5 -28t24 -19t30.5 -7h159v150q0 34 -23.5 57t-57.5 23h-55q-29 0 -51 -18t-27 -46l-15 -81q-1 -6 -1 -12q0 -10 3 -19z" />
    <glyph glyph-name="uniFEE6" unicode="&#x646;" horiz-adv-x="752" arabic-form="final" 
d="M126 260v-242q0 -29 11.5 -55t31 -45.5t45.5 -31t56 -11.5h170q25 0 47.5 9.5t39 26t26.5 38.5t10 48v280h41v-136q0 -26 8.5 -44t22.5 -28.5t32 -15t37 -4.5h47q14 0 14 -14v-21q0 -5 -4 -9.5t-10 -4.5h-51q-24 0 -52 11.5t-44 34.5v-52q0 -35 -13 -66t-35 -53.5
t-52 -35.5t-64 -13h-171q-38 0 -71.5 14.5t-58.5 39.5t-39.5 58.5t-14.5 71.5v250h41zM377 344v-65h-65v65h65z" />
    <glyph glyph-name="uniFEE7" unicode="&#x646;" horiz-adv-x="294" arabic-form="initial" 
d="M-10 45q4 4 10 4h89q18 0 34 7t28 19t19 28t7 34v168h41v-168q0 -28 -10.5 -53t-29 -43.5t-43.5 -29.5t-53 -11h-82q-14 0 -14 14v20q0 6 4 11zM226 507v-65h-65v65h65z" />
    <glyph glyph-name="uniFEE8" unicode="&#x646;" horiz-adv-x="326" arabic-form="medial" 
d="M0 49h50q34 0 60.5 22t33.5 54l28 144l40 -7l-23 -119q-2 -8 -2 -16q0 -10 4.5 -23.5t16.5 -26.5t29.5 -20.5t36.5 -7.5h52q14 0 14 -14v-21q0 -14 -14 -14h-53q-35 0 -67 19t-40 51q-20 -32 -49.5 -51t-64.5 -19h-52q-14 0 -14 14v21q0 14 14 14zM131 470h65v-65h-65v65
z" />
    <glyph glyph-name="uniFEEA" unicode="&#x647;" horiz-adv-x="509" arabic-form="final" 
d="M85 151v64q0 63 31 99t79 49l144 38v86h41v-341q0 -20 8 -38t22 -31t32 -20.5t37 -7.5h30q14 0 14 -14v-21q0 -14 -14 -14h-30q-44 0 -80 25t-51 63q-7 -5 -14 -9t-17 -4h-159q-40 0 -56.5 17.5t-16.5 58.5zM126 217v-91h213v231l-139 -37q-17 -4 -31 -14.5t-23.5 -24.5
t-14.5 -30.5t-5 -33.5z" />
    <glyph glyph-name="uniFEEB" unicode="&#x647;" horiz-adv-x="623" arabic-form="initial" 
d="M-14 36q0 7 4.5 10t9.5 3h113q-7 2 -14.5 9t-13.5 18t-7.5 21t-1.5 16q0 8 2 18l15 71q8 38 37.5 62t67.5 24h35q25 0 46.5 -9t37 -24.5t24 -36t8.5 -44.5v-101q0 -14 -3.5 -18.5t-3.5 -5.5h171v136q0 43 -21 68.5t-53 35.5l-308 95l11 41l304 -94q22 -7 41.5 -19
t34.5 -29.5t23.5 -41.5t8.5 -54v-115q0 -39 -16.5 -55.5t-56.5 -16.5h-143v28q-2 -3 -6 -8q-6 -7 -18 -13.5t-33 -6.5h-281q-5 0 -9.5 3.5t-4.5 9.5v23zM117 95q4 -14 13.5 -24t23 -16t28.5 -6h126v122q0 32 -22 53.5t-54 21.5h-31q-27 0 -47 -17t-25 -43l-13 -62
q-1 -7 -1 -13q0 -9 2 -16z" />
    <glyph glyph-name="uniFEEC" unicode="&#x647;" horiz-adv-x="541" arabic-form="medial" 
d="M-14 35q0 6 4.5 10t9.5 4h109v138q0 26 9.5 48.5t26 39.5t39.5 26.5t50 9.5h37q41 0 73 -26t40 -67l15 -81q2 -11 2 -21q0 -15 -5.5 -35t-21 -39t-38.5 -30.5t-50 -11.5h-108q-8 0 -15 2t-12 4q0 -1 -0.5 -5t-0.5 -6q1 -66 26.5 -96.5t74.5 -39.5l72 -13l67 127
q21 40 54.5 58t80.5 18h16q14 0 14 -14v-19q0 -6 -4 -11t-10 -5h-35q-33 0 -53 -14t-36 -44l-73 -138l-103 17q-63 11 -97 52t-35 127h-109q-5 0 -9.5 5t-4.5 11v19zM287 49q17 0 31.5 7t24 19t13 24.5t3.5 21.5q0 7 -1 13l-13 69q-5 29 -27 47t-51 18h-37q-34 0 -57 -23.5
t-23 -56.5v-139h137z" />
    <glyph glyph-name="uniFEEE" unicode="&#x648;" horiz-adv-x="473" arabic-form="final" 
d="M78 138l17 91q8 41 39.5 67t73.5 26h56q26 0 48.5 -9.5t39.5 -26.5t26.5 -39t9.5 -48v-150h85q6 0 10 -4.5t4 -9.5v-21q0 -14 -14 -14h-86v-5q0 -3 1 -4v-6q0 -31 -9.5 -61.5t-27.5 -57t-43.5 -47t-57.5 -30.5l-100 -33l-14 44l106 35q48 16 76 56t28 89v26
q-7 -4 -13.5 -5t-14.5 -1h-127q-27 0 -50 11.5t-38.5 30.5t-21 39t-5.5 35q0 11 2 22zM121 102q4 -16 13.5 -27.5t24 -18.5t30.5 -7h158v150q0 34 -23.5 56.5t-56.5 22.5h-55q-29 0 -51 -18t-27 -45l-15 -81q-1 -6 -1 -12q0 -11 3 -20z" />
    <glyph glyph-name="uniFEF0" unicode="&#x649;" horiz-adv-x="731" arabic-form="final" 
d="M126 171v-214q0 -30 11.5 -56t31 -45.5t45.5 -31t56 -11.5h169q26 0 48.5 10t39 26.5t26.5 39t10 48.5v63h-181v49h349q5 -1 9.5 -4.5t4.5 -10.5v-20q0 -6 -4.5 -10t-9.5 -4h-133q6 -14 6 -24v-47q0 -34 -13 -64t-35 -52.5t-51.5 -35.5t-62.5 -13h-173q-38 0 -71.5 14.5
t-58.5 39.5t-39.5 58.5t-14.5 71.5v223h41z" />
    <glyph glyph-name="uniFEF2" unicode="&#x64a;" horiz-adv-x="731" arabic-form="final" 
d="M85 171h41v-214q0 -30 11.5 -56t31 -45.5t45.5 -31t56 -11.5h169q26 0 48.5 10t39 26.5t26.5 39t10 48.5v63h-181v49h349q5 -1 9.5 -4.5t4.5 -10.5v-20q0 -6 -4.5 -10t-9.5 -4h-133q6 -14 6 -24v-47q0 -34 -13 -64t-35 -52.5t-51.5 -35.5t-62.5 -13h-173
q-38 0 -71.5 14.5t-58.5 39.5t-39.5 58.5t-14.5 71.5v223zM371 -320h65v-65h-65v65zM319 -320v-65h-65v65h65z" />
    <glyph glyph-name="uniFEF3" unicode="&#x64a;" horiz-adv-x="303" arabic-form="initial" 
d="M-10 45q4 4 10 4h89q18 0 34 7t28 19t19 28t7 34v168h41v-168q0 -28 -10.5 -53t-29 -43.5t-43.5 -29.5t-53 -11h-82q-14 0 -14 14v20q0 6 4 11zM-1 -185v65h66v-65h-66zM182 -120v-65h-65v65h65z" />
    <glyph glyph-name="uniFEF4" unicode="&#x64a;" horiz-adv-x="326" arabic-form="medial" 
d="M1 49h50q34 0 60.5 22t33.5 54l28 144l40 -7l-23 -119q-2 -8 -2 -16q0 -10 4.5 -23.5t16.5 -26.5t29.5 -20.5t36.5 -7.5h52q14 0 14 -14v-21q0 -14 -14 -14h-53q-35 0 -67 19t-40 51q-20 -32 -49.5 -51t-64.5 -19h-52q-14 0 -14 14v21q0 14 14 14zM190 -185v65h65v-65
h-65zM138 -120v-65h-65v65h65z" />
    <glyph glyph-name=".notdef" horiz-adv-x="250" 
 />
    <glyph glyph-name=".null" 
 />
    <glyph glyph-name=".null" 
 />
    <glyph glyph-name="uni000D" unicode="&#xd;" horiz-adv-x="250" 
 />
    <glyph glyph-name="space" unicode=" " horiz-adv-x="145" 
 />
    <glyph glyph-name="exclam" unicode="!" horiz-adv-x="220" 
d="M84 0v90h54v-90h-54zM86 218l-1 480h49l-2 -480h-46z" />
    <glyph glyph-name="quotedbl" unicode="&#x22;" horiz-adv-x="392" 
d="M90 698h50l-4 -214h-44zM252 698h49l-3 -214h-44z" />
    <glyph glyph-name="numbersign" unicode="#" horiz-adv-x="676" 
d="M85 185v42h119v214h-119v42h119v186h46v-186h176v186h46v-186h119v-42h-119v-214h119v-42h-119v-185h-46v185h-176v-185h-46v185h-119zM250 227h176v214h-176v-214z" />
    <glyph glyph-name="dollar" unicode="$" horiz-adv-x="585" 
d="M141 638q47 38 148 38q17 0 34 -1l17 118l33 1l-17 -120l24 -4q18 -3 38 -6.5t38 -6.5t23 -3l-3 -44q-10 1 -28 3t-37 4t-35.5 3.5t-24.5 2.5l-38 -272q57 -13 93.5 -27.5t57 -34t28.5 -44.5t8 -59q-1 -97 -53.5 -149.5t-158.5 -52.5h-21l-11 -104q-20 2 -26.5 3t-6.5 3
l14 99q-7 1 -27.5 5t-44.5 8t-44.5 7t-27.5 4l7 42q10 -1 30.5 -3.5t43 -4.5t42 -4t26.5 -3l35 274q-40 9 -75 21.5t-61 33.5t-41 54t-15 84q0 90 56 135zM147 447q9 -24 27 -39.5t45.5 -26t64.5 -18.5l34 262q-34 0 -65.5 -1t-56.5 -12t-40.5 -35.5t-16.5 -71.5v-7
q0 -30 8 -51zM404 69q42 36 42 108q0 31 -8 51t-25 33.5t-43.5 22.5t-62.5 18l-32 -268h9q80 0 120 35z" />
    <glyph glyph-name="percent" unicode="%" horiz-adv-x="571" 
d="M40 536q0 134 106 134q107 0 107 -134q0 -70 -29 -105t-78 -35q-51 0 -78.5 35t-27.5 105zM426 264q105 0 105 -132q0 -69 -28 -105.5t-78 -36.5q-49 0 -76.5 36.5t-27.5 105.5q0 132 105 132zM175 -2l191 675l36 -11l-190 -674zM84 537q0 -103 62 -103q32 0 47.5 24.5
t15.5 78.5q0 50 -14.5 72.5t-48.5 22.5q-32 0 -47 -22.5t-15 -72.5zM365 133q0 -56 15 -80.5t47 -24.5q33 0 46.5 24.5t13.5 77.5t-13.5 75t-46.5 22q-34 0 -48 -21.5t-14 -72.5z" />
    <glyph glyph-name="ampersand" unicode="&#x26;" horiz-adv-x="734" 
d="M95 285q10 32 30 54.5t50.5 38t72.5 27.5q-27 28 -40.5 59t-13.5 74q0 77 42 117.5t120 40.5q77 0 117 -39.5t40 -112.5q0 -34 -9 -60.5t-28.5 -48t-50.5 -39t-74 -33.5l176 -172q7 20 12 38.5t8.5 39.5t6.5 44.5t6 53.5l46 -1q-15 -133 -43 -208l136 -133l-30 -33
l-129 126q-35 -67 -91.5 -97.5t-128.5 -30.5q-126 0 -180.5 54.5t-54.5 160.5q0 47 10 80zM134 210q0 -91 44.5 -132.5t138.5 -41.5q74 0 117.5 26.5t71.5 85.5l-226 224q-39 -10 -66.5 -22.5t-45.5 -31t-26 -44.5t-8 -64zM242 551q0 -25 6.5 -47.5t17.5 -42.5t25 -37
t29 -31q26 9 52 21.5t46.5 31t33 43.5t12.5 60q0 100 -111 100t-111 -98z" />
    <glyph glyph-name="quotesingle" unicode="'" horiz-adv-x="230" 
d="M92 484l-2 214h50l-4 -214h-44z" />
    <glyph glyph-name="parenleft" unicode="(" horiz-adv-x="271" 
d="M85 304q0 98 24 205.5t73 240.5h49q-17 -45 -34 -100.5t-30.5 -115.5t-22 -122t-8.5 -120q0 -45 9 -100.5t23 -112t31 -110t32 -94.5h-49q-19 51 -36.5 103.5t-31 106.5t-21.5 109t-8 110z" />
    <glyph glyph-name="parenright" unicode=")" horiz-adv-x="271" 
d="M73 -31q16 54 30 110.5t23 112t9 100.5q0 58 -8.5 120t-22 122t-30.5 115.5t-34 100.5h48q50 -133 74 -240.5t24 -205.5q0 -110 -29 -218.5t-69 -210.5h-48q16 41 33 94z" />
    <glyph glyph-name="asterisk" unicode="*" horiz-adv-x="563" 
d="M116 58l-31 31l165 166l-165 165l31 31l166 -165l165 165l31 -31l-165 -165l165 -166l-31 -31l-165 167z" />
    <glyph glyph-name="plus" unicode="+" horiz-adv-x="616" 
d="M284 274v206h46v-206h201v-45h-201v-209h-46v209h-199v45h199z" />
    <glyph glyph-name="comma" unicode="," horiz-adv-x="282" 
d="M88 41q2 10 5 20t6 19t4 13l41 115l42 -16l-50 -140l62 -23l-26 -77q-20 7 -33 12t-25 12q-8 5 -18.5 15.5t-10.5 29.5q0 9 3 20z" />
    <glyph glyph-name="hyphen" unicode="-" horiz-adv-x="476" 
d="M85 256v47h306v-47h-306z" />
    <glyph glyph-name="period" unicode="." horiz-adv-x="219" 
d="M83 0v90h54v-90h-54z" />
    <glyph glyph-name="slash" unicode="/" horiz-adv-x="409" 
d="M87 -4l-44 15l280 693l43 -18z" />
    <glyph glyph-name="zero" unicode="0" horiz-adv-x="596" 
d="M80 489q14 65 42.5 105t72 58t101.5 18q59 0 103 -18t73.5 -58.5t44 -105t14.5 -158.5t-14.5 -159t-43.5 -105.5t-72.5 -58t-101.5 -17.5q-59 0 -103 17.5t-73 58t-43.5 105.5t-14.5 159t15 159zM117 330q0 -83 10.5 -139.5t32.5 -91t56.5 -49t82.5 -14.5t82 14.5
t55.5 49t32 91t10.5 139.5t-10.5 139.5t-32 91t-55.5 49t-82 14.5t-82.5 -14.5t-56.5 -49t-32.5 -91t-10.5 -139.5z" />
    <glyph glyph-name="one" unicode="1" horiz-adv-x="417" 
d="M282 0v605l-181 -119l-23 37l206 137h48v-660h-50z" />
    <glyph glyph-name="two" unicode="2" horiz-adv-x="564" 
d="M289 274l68 71q24 29 44 69.5t20 91.5q0 61 -38 89.5t-124 28.5q-33 0 -69.5 -5t-78.5 -13l-27 -7l-6 44q45 14 91.5 20.5t90.5 6.5q111 0 161.5 -40.5t50.5 -128.5q0 -35 -7 -64t-21 -53q-17 -27 -43.5 -57t-61.5 -68l-205 -213h358v-46h-419v44z" />
    <glyph glyph-name="three" unicode="3" horiz-adv-x="573" 
d="M73 15l7 43q50 -11 91.5 -18.5t83.5 -7.5q39 0 74 8t61.5 26t42.5 48t16 74q0 63 -37 98.5t-117 35.5h-133v48h133q24 0 48 10.5t44 28.5t32.5 42t12.5 51q0 33 -8 56t-27 38t-49.5 22t-74.5 7q-37 0 -77.5 -4.5t-79.5 -12.5l-26 -5l-5 43q47 13 96 19t95 6
q112 0 159.5 -41t47.5 -130q0 -22 -9 -45.5t-24 -44t-34.5 -36.5t-41.5 -23q64 -20 95 -60.5t31 -115.5q0 -92 -51.5 -138.5t-165.5 -46.5q-38 0 -84 3.5t-96 14.5z" />
    <glyph glyph-name="four" unicode="4" horiz-adv-x="561" 
d="M240 660h52l-197 -478h283v216h50v-216h93v-44h-93v-138h-50v138h-338v39z" />
    <glyph glyph-name="five" unicode="5" horiz-adv-x="576" 
d="M79 61q54 -12 101.5 -17.5t89.5 -5.5q91 0 137 46.5t46 132.5q0 81 -41 115.5t-124 34.5q-27 0 -57 -8t-55 -17.5t-40 -16.5l-15 -8v0l-42 6l18 337h377v-46h-333l-18 -251q43 26 86.5 38.5t94.5 12.5q98 0 149 -48.5t51 -148.5q0 -109 -57.5 -167t-163.5 -58
q-42 0 -82.5 4.5t-96.5 15.5l-31 7z" />
    <glyph glyph-name="six" unicode="6" horiz-adv-x="599" 
d="M138 586q65 84 186 84q42 0 85.5 -3t86.5 -10l-5 -42q-45 5 -88 8t-85 3q-92 0 -142 -68.5t-50 -193.5q15 6 38.5 14t49.5 15t51 11.5t43 4.5q218 0 218 -199q0 -106 -57 -163t-154 -57q-125 0 -183.5 82.5t-58.5 249.5q0 179 65 264zM125 320q1 -135 43 -210.5
t126 -75.5q91 0 135.5 44t44.5 126q0 81 -43.5 121.5t-125.5 40.5q-17 0 -41 -4t-49.5 -11t-49 -15t-40.5 -16z" />
    <glyph glyph-name="seven" unicode="7" horiz-adv-x="530" 
d="M215 -10l-48 18l260 583v24h-354v45h404v-76z" />
    <glyph glyph-name="eight" unicode="8" horiz-adv-x="586" 
d="M48 169q0 67 33 107.5t93 69.5q-60 26 -87.5 60t-27.5 84q0 51 22 86t56 56t75 30t80 9q114 0 175 -45t61 -136q0 -53 -29 -86t-98 -58q71 -24 104 -63t33 -107q0 -91 -59 -138.5t-186 -47.5q-245 0 -245 179zM99 179q0 -73 47.5 -107.5t144.5 -34.5q195 0 195 147
q0 30 -8.5 51t-25.5 36.5t-44 27t-64 21.5h-115q-68 -17 -99 -50.5t-31 -90.5zM109 497q0 -51 28.5 -81.5t91.5 -47.5h115q70 17 101 47.5t31 82.5q0 126 -183 126q-184 0 -184 -127z" />
    <glyph glyph-name="nine" unicode="9" horiz-adv-x="558" 
d="M60 442q0 53 16 95t44.5 71.5t69 45.5t88.5 16q118 0 177.5 -87t59.5 -259q0 -177 -64 -255.5t-196 -78.5q-30 0 -67 3.5t-79 7.5l-23 2l4 41q45 -5 86.5 -7.5t82.5 -2.5q201 0 204 262q-54 -21 -103 -31.5t-100 -10.5q-200 0 -200 188zM268 298q39 0 79 8.5t85 22.5
l31 10q-3 287 -184 287q-77 0 -122 -47t-45 -130q0 -151 156 -151z" />
    <glyph glyph-name="colon" unicode=":" horiz-adv-x="220" 
d="M83 0v91h54v-91h-54zM137 428v-91h-54v91h54z" />
    <glyph glyph-name="semicolon" unicode=";" horiz-adv-x="274" 
d="M85 84l22 67q20 -7 33.5 -11.5t25.5 -12.5q23 -15 23 -40q0 -9 -2.5 -20t-5.5 -21t-6 -18.5t-5 -13.5l-41 -110l-34 13l52 146zM148 424v-81h-50v81h50z" />
    <glyph glyph-name="less" unicode="&#x3c;" horiz-adv-x="500" 
d="M40 229v45l420 213v-53l-375 -182l375 -185v-53z" />
    <glyph glyph-name="equal" unicode="=" horiz-adv-x="595" 
d="M85 315v46h425v-46h-425zM510 187v-46h-425v46h425z" />
    <glyph glyph-name="greater" unicode="&#x3e;" horiz-adv-x="501" 
d="M461 274v-45l-421 -215v53l375 185l-375 182v53z" />
    <glyph glyph-name="question" unicode="?" horiz-adv-x="551" 
d="M188 701q38 6 64 6h7q51 -1 88.5 -8.5t63 -24.5t38 -46t12.5 -74q0 -33 -5 -56t-16 -42.5t-29.5 -38.5t-45.5 -43q-14 -13 -32 -29.5t-33.5 -35.5t-26.5 -38.5t-11 -39.5v-38h-42l-1 6q-1 6 -3 14t-3.5 17.5t-1.5 16.5q0 24 12 46t30 41.5t37.5 37t34.5 32.5q29 27 46 45
t25.5 33.5t10.5 32t2 41.5q0 54 -36.5 80t-116.5 26q-19 0 -58.5 -6.5t-102.5 -19.5l-5 44q54 14 98 21zM213 91h54v-90h-54v90z" />
    <glyph glyph-name="at" unicode="@" horiz-adv-x="1041" 
d="M112 470q27 87 81.5 142.5t137.5 81.5t195 26q115 0 196.5 -26.5t133.5 -81t76 -137t24 -193.5q0 -22 -1.5 -52.5t-6.5 -63t-15 -64t-28 -56t-44.5 -40t-64.5 -15.5q-51 0 -79.5 16t-40.5 49q-54 -32 -101 -48t-95 -16q-32 0 -61 9.5t-50.5 35.5t-34.5 71.5t-13 117.5
q0 77 11 130.5t36 87t64 49t96 15.5q28 0 63 -8.5t62 -18.5v17h51v-255q0 -67 2 -108t11.5 -63.5t30 -29.5t56.5 -7q26 0 43.5 14.5t29 38t17.5 52.5t8.5 57.5t3 53.5t0.5 40q0 99 -20.5 172t-65.5 121t-116.5 71.5t-174.5 23.5q-102 0 -176.5 -23t-123 -74t-71.5 -132
t-23 -197q0 -89 16.5 -164.5t60.5 -130.5t121 -86t197 -31l143 11l4 -44q-8 0 -29.5 -1t-45.5 -2.5t-44.5 -3t-26.5 -1.5q-29 -2 -56 -2q-85 0 -159 24.5t-128 84.5t-78.5 150t-24.5 204q0 122 27 209zM402 88q29 -51 84 -51q28 0 71 14t106 42q-5 30 -7.5 80t-2.5 122v145
q-36 13 -67.5 19.5t-62.5 6.5q-42 0 -71 -13t-47 -40t-25.5 -69.5t-7.5 -101.5q0 -103 30 -154z" />
    <glyph glyph-name="A" unicode="A" horiz-adv-x="590" 
d="M231 696h130l204 -696h-50l-59 200h-320l-59 -200h-51zM442 248l-120 402h-51l-121 -402h292z" />
    <glyph glyph-name="B" unicode="B" horiz-adv-x="606" 
d="M327 698q103 0 152.5 -42.5t49.5 -133.5q0 -66 -25.5 -104t-72.5 -57q63 -21 92.5 -62.5t29.5 -113.5q0 -98 -53 -141.5t-156 -43.5h-262v698h245zM131 336v-295h212q80 0 121 34.5t41 106.5q0 42 -13.5 71t-36.5 47.5t-54 27t-66 8.5h-204zM131 656v-278h204
q75 0 110.5 34.5t35.5 107.5t-37 104.5t-118 31.5h-195z" />
    <glyph glyph-name="C" unicode="C" horiz-adv-x="542" 
d="M65 345q0 63 10 127t38 116t78 85t130 33q38 0 82.5 -4t98.5 -14l-3 -45q-99 18 -180 18q-70 0 -111 -33t-61.5 -82t-26 -105t-5.5 -102q0 -57 8 -111.5t32.5 -97t69.5 -69t120 -26.5q27 0 66.5 4.5t87.5 15.5l3 -44q-50 -11 -92.5 -16t-73.5 -5q-82 0 -134.5 29.5
t-83 78.5t-42 113.5t-11.5 133.5z" />
    <glyph glyph-name="D" unicode="D" horiz-adv-x="647" 
d="M85 0v698h257q70 0 116 -30t73.5 -77.5t39 -105.5t11.5 -115q0 -190 -63.5 -280t-176.5 -90h-257zM136 45h206q42 0 76.5 20t60 59t39.5 98t14 137q0 149 -50.5 221.5t-139.5 72.5h-206v-608z" />
    <glyph glyph-name="E" unicode="E" horiz-adv-x="568" 
d="M503 698v-45h-364v-276h304v-45h-304v-287h364v-45h-413v698h413z" />
    <glyph glyph-name="F" unicode="F" horiz-adv-x="535" 
d="M490 698v-45h-356v-302h305v-45h-305v-307h-49v699h405z" />
    <glyph glyph-name="G" unicode="G" horiz-adv-x="610" 
d="M79 511q13 65 44.5 108.5t84 65t131.5 21.5q35 0 81 -4.5t97 -14.5l33 -5l-3 -45q-65 11 -120 17.5t-103 6.5q-56 0 -95.5 -15t-65 -50.5t-37 -93t-11.5 -143.5q0 -51 7.5 -108t30.5 -104.5t65.5 -79t112.5 -31.5q41 0 79 4t90 15v250h-132v45h182v-335
q-118 -25 -223 -25q-73 0 -123 21.5t-81 66.5t-44.5 114t-13.5 164q0 89 14 155z" />
    <glyph glyph-name="H" unicode="H" horiz-adv-x="664" 
d="M85 698h49v-326h396v326h49v-697h-49v326h-396v-326h-49v697z" />
    <glyph glyph-name="I" unicode="I" horiz-adv-x="219" 
d="M85 0v698h49v-698h-49z" />
    <glyph glyph-name="J" unicode="J" horiz-adv-x="285" 
d="M79 -25q24 4 39 17t21.5 38.5t6.5 69.5v598h49v-613q0 -47 -14 -77.5t-38 -48.5t-56 -25t-69 -7v45q36 0 61 3z" />
    <glyph glyph-name="K" unicode="K" horiz-adv-x="559" 
d="M85 698h49v-334l121 2l211 332h57l-224 -352l238 -346h-60l-218 322l-125 -1v-321h-49v698z" />
    <glyph glyph-name="L" unicode="L" horiz-adv-x="496" 
d="M85 0v698h49v-653h329v-45h-378z" />
    <glyph glyph-name="M" unicode="M" horiz-adv-x="821" 
d="M181 698l230 -620l229 620h96v-698h-49v649h-12l-233 -626h-62l-234 626h-12v-649h-49v698h96z" />
    <glyph glyph-name="N" unicode="N" horiz-adv-x="659" 
d="M188 698l315 -654h22v654h49v-698h-103l-318 654h-19v-654h-49v698h103z" />
    <glyph glyph-name="O" unicode="O" horiz-adv-x="668" 
d="M65 345q0 126 25.5 204.5t84 117.5t161.5 39q99 0 158 -39t84 -118t25 -207q0 -129 -24 -205t-81.5 -111.5t-160.5 -35.5q-105 0 -164 37.5t-83.5 114.5t-24.5 203zM135 162q20 -67 67 -96.5t135 -29.5q85 0 131.5 30.5t65.5 96t19 180.5q0 114 -19.5 183.5t-67 102
t-130.5 32.5q-87 0 -134.5 -32.5t-67 -100.5t-19.5 -182q0 -118 20 -184z" />
    <glyph glyph-name="P" unicode="P" horiz-adv-x="593" 
d="M85 0v698h256q111 0 160.5 -53.5t49.5 -166.5q0 -116 -51 -172.5t-159 -56.5h-207v-249h-49zM134 294h206q162 0 162 186q0 89 -38.5 131t-123.5 42h-206v-359z" />
    <glyph glyph-name="Q" unicode="Q" horiz-adv-x="693" 
d="M104 507q13 68 44.5 112.5t83.5 65.5t128 21q75 0 126 -21t82.5 -64.5t45.5 -110.5t14 -158q0 -40 -3.5 -89t-15.5 -95.5t-35.5 -86t-63.5 -60.5l85 -138l-46 -23l-88 142q-23 -5 -47.5 -8.5t-53.5 -3.5q-77 0 -129 28.5t-83.5 77t-44.5 113.5t-13 137q0 93 14 161z
M140 342q0 -52 7.5 -106t31.5 -98.5t68 -73t116 -28.5q66 0 107.5 25.5t65.5 67.5t33 96.5t9 113.5q0 35 -3 72t-12 73t-24.5 68t-40.5 56.5t-60 38.5t-82 14q-66 0 -108 -27t-66 -72t-33 -102.5t-9 -117.5z" />
    <glyph glyph-name="R" unicode="R" horiz-adv-x="624" 
d="M85 698h254q109 0 160 -49t51 -155q0 -173 -137 -204l147 -290h-52l-147 282h-227v-282h-49v698zM134 653v-326h206q162 0 162 164q0 83 -39.5 122.5t-123.5 39.5h-205z" />
    <glyph glyph-name="S" unicode="S" horiz-adv-x="564" 
d="M119 665q53 43 170 43q40 0 92 -4.5t104 -12.5l-5 -45q-72 9 -121 13t-75 4q-168 0 -168 -133q0 -38 11.5 -61.5t34 -39t56 -25t78.5 -20.5q38 -8 74 -19t65 -30.5t46.5 -50.5t17.5 -78q0 -110 -51.5 -162t-163.5 -52q-14 0 -32.5 0.5t-44 2.5t-59.5 5.5t-79 9.5l6 45
q69 -9 119 -13.5t78 -4.5q91 0 133.5 40.5t42.5 121.5q0 42 -15 66.5t-39 39t-53 21t-58 10.5q-40 7 -79.5 18.5t-70 34t-49.5 58.5t-19 90q0 85 54 128z" />
    <glyph glyph-name="T" unicode="T" horiz-adv-x="545" 
d="M23 698h500v-45h-224v-653h-49v653h-227v45z" />
    <glyph glyph-name="U" unicode="U" horiz-adv-x="614" 
d="M73 200v498h50v-498q0 -84 45.5 -124t140.5 -40q91 0 136.5 38t45.5 126v498h51v-498q0 -110 -59.5 -160t-178.5 -50q-117 0 -174 50t-57 160z" />
    <glyph glyph-name="V" unicode="V" horiz-adv-x="582" 
d="M33 698h50l178 -654h61l178 654h50l-192 -698h-134z" />
    <glyph glyph-name="W" unicode="W" horiz-adv-x="860" 
d="M33 698h51l133 -652h35l150 644h58l149 -644h37l132 652h49l-145 -698h-109l-143 626l-141 -626h-110z" />
    <glyph glyph-name="X" unicode="X" horiz-adv-x="572" 
d="M33 0l222 345l-222 353h58l197 -318l196 318h56l-220 -354l220 -344h-57l-196 311l-199 -311h-55z" />
    <glyph glyph-name="Y" unicode="Y" horiz-adv-x="541" 
d="M78 698l193 -349l193 349h57l-225 -399v-299h-50v299l-226 399h58z" />
    <glyph glyph-name="Z" unicode="Z" horiz-adv-x="530" 
d="M490 698v-78l-398 -556v-20h398v-45h-450v75l397 554v25h-397v45h450z" />
    <glyph glyph-name="bracketleft" unicode="[" horiz-adv-x="317" 
d="M276 749v-42h-143v-788h143v-42h-191v872h191z" />
    <glyph glyph-name="backslash" unicode="\" horiz-adv-x="434" 
d="M347 -4l-304 688l46 18l303 -688z" />
    <glyph glyph-name="bracketright" unicode="]" horiz-adv-x="316" 
d="M231 749v-872h-191v42h143v788h-143v42h191z" />
    <glyph glyph-name="asciicircum" unicode="^" horiz-adv-x="496" 
d="M221 660h46l189 -338h-53l-158 289l-152 -289h-53z" />
    <glyph glyph-name="underscore" unicode="_" horiz-adv-x="598" 
d="M85 -145v44h428v-44h-428z" />
    <glyph glyph-name="a" unicode="a" horiz-adv-x="503" 
d="M77 243q33 35 108 43l180 18v49q0 58 -25 86t-68 28q-50 0 -100 -5t-101 -11l-2 40q54 9 101.5 14t89.5 5q78 0 116 -37.5t38 -119.5v-278v-2q0 -15 18.5 -25t50.5 -15l-3 -43q-36 0 -64 12t-45 32q-96 -44 -193 -44q-66 0 -100.5 39.5t-34.5 109.5q0 68 34 104zM94 141
q0 -106 86 -106q40 0 79 7t78 21l28 9v193l-174 -18q-52 -5 -74.5 -30t-22.5 -76z" />
    <glyph glyph-name="b" unicode="b" horiz-adv-x="515" 
d="M134 726v-253q42 17 83 27t84 10q48 0 80.5 -13t52 -43t28 -79t8.5 -120q0 -69 -13 -119t-42.5 -82t-77 -47t-116.5 -15q-26 0 -63.5 2t-72.5 7v725h49zM159 38q16 -1 33.5 -2t32.5 -2t19 -1q51 0 85 13t55 40t29.5 69.5t8.5 102.5t-6.5 100.5t-21.5 64.5t-39.5 34.5
t-60.5 10.5q-68 0 -160 -35v-395h25z" />
    <glyph glyph-name="c" unicode="c" horiz-adv-x="444" 
d="M75 348q9 47 31 83t58.5 58t89.5 22q36 0 71.5 -4t71.5 -9l-2 -40q-3 0 -15 1.5t-28 3t-34.5 2.5t-34.5 1q-52 0 -84.5 -15t-51 -43.5t-25 -68t-6.5 -89.5q0 -40 2.5 -78.5t17.5 -68.5t47.5 -48.5t93.5 -18.5l120 9l2 -42q-47 -6 -79.5 -9.5t-53.5 -3.5q-58 0 -96.5 14.5
t-62 46t-33 81t-9.5 119.5q0 50 10 97z" />
    <glyph glyph-name="d" unicode="d" horiz-adv-x="538" 
d="M77 365q11 50 37.5 82.5t68 47.5t101.5 15q31 0 60.5 -3.5t59.5 -9.5v229h49v-726h-51v37q-79 -47 -162 -47q-94 0 -134.5 60.5t-40.5 192.5q0 71 12 122zM144 85q27 -53 93 -53q17 0 36.5 3t39 7.5t37 10.5t30.5 13l24 12v376q-34 7 -63.5 10t-55.5 3q-49 0 -81.5 -12.5
t-52 -39t-27.5 -68t-8 -99.5q0 -110 28 -163z" />
    <glyph glyph-name="e" unicode="e" horiz-adv-x="505" 
d="M114 444q49 66 155 66q99 0 146.5 -54.5t47.5 -151.5q0 -16 -1 -32l-2 -41h-346q0 -55 7.5 -93t27 -61.5t52 -34t80.5 -10.5q27 0 63 1t68 4l30 3l2 -38q-103 -12 -177 -12q-58 0 -96.5 19t-62 53.5t-33.5 82t-10 103.5q0 130 49 196zM413 271q0 104 -34.5 149.5
t-109.5 45.5q-77 0 -116.5 -47t-39.5 -148h300z" />
    <glyph glyph-name="f" unicode="f" horiz-adv-x="357" 
d="M43 500h67v56q0 53 7 87.5t22.5 55t40.5 29t61 8.5l96 -7l-1 -38q-27 1 -49 2q-19 0 -35 0.5t-18 0.5h-5q-40 0 -55 -33.5t-15 -105.5v-55h156v-43h-156v-457h-49v457h-67v43z" />
    <glyph glyph-name="g" unicode="g" horiz-adv-x="534" 
d="M65 -87q0 46 22.5 75t59.5 56q-11 8 -17 24.5t-6 33.5q0 7 1 14t4 17t9 24t16 33q-83 32 -83 152q0 86 42 127t136 41q50 0 102 -13l143 4v-44l-102 -1q20 -15 28 -43.5t8 -67.5q0 -92 -43 -130.5t-134 -38.5q-21 0 -35 1t-25 3q-3 -5 -6 -15l-8 -23q-4 -12 -6 -23.5
t-2 -20.5q1 -9 5 -15.5t14 -11t27 -6.5t42 -2q2 0 10 -0.5t17 -0.5t17 0.5t9 1.5h10q29 0 58 -5t53 -21.5t38 -46.5t14 -77q0 -39 -11.5 -67.5t-38 -47t-69 -28t-104.5 -9.5q-58 0 -96 8.5t-60 26.5t-30.5 46.5t-8.5 69.5zM120 -137q7 -22 24.5 -35t46.5 -18.5t72 -5.5
q48 0 81 6t53 19.5t29 35.5t9 53t-7.5 51t-24 32t-42.5 16.5t-64 4.5h-115q-16 -12 -29 -22t-22 -21.5t-13.5 -26t-4.5 -34.5q0 -33 7 -55zM119 342q0 -68 29.5 -96t100.5 -28t100.5 28t29.5 97q0 70 -29 98t-99 28q-72 0 -102 -28.5t-30 -98.5z" />
    <glyph glyph-name="h" unicode="h" horiz-adv-x="510" 
d="M85 1v725h49v-255q42 19 84.5 29t82.5 10q54 0 87 -17.5t51 -50t23.5 -78t5.5 -102.5v-261h-49v260q0 36 -2 73t-13 67t-35 48.5t-68 18.5q-18 0 -41 -3.5t-45.5 -8.5t-44 -12t-36.5 -13v-430h-49z" />
    <glyph glyph-name="i" unicode="i" horiz-adv-x="204" 
d="M78 0v500h49v-500h-49zM127 700v-65h-49v65h49z" />
    <glyph glyph-name="j" unicode="j" horiz-adv-x="206" 
d="M32 -126q27 24 37.5 53.5t10.5 80.5v492h49v-493q0 -60 -14 -97.5t-48 -66.5t-100 -63l-21 39q58 32 86 55zM129 700v-65h-49v65h49z" />
    <glyph glyph-name="k" unicode="k" horiz-adv-x="457" 
d="M122 726v-435l89 1l164 208h55l-178 -227l185 -273h-54l-171 249h-90v-249h-49v726h49z" />
    <glyph glyph-name="l" unicode="l" horiz-adv-x="194" 
d="M73 0v726h49v-726h-49z" />
    <glyph glyph-name="m" unicode="m" horiz-adv-x="829" 
d="M125 498v-35q78 45 162 45q94 0 128 -51q19 12 44 21t51 16t52 10.5t46 3.5q52 0 83 -22.5t47 -58.5t21 -79.5t5 -85.5v-261h-49v259q0 36 -2.5 72.5t-14.5 66t-37 48.5t-71 19q-36 0 -77.5 -12t-79.5 -33q9 -15 12.5 -54t3.5 -106v-260h-49v258q0 41 -2 78.5t-12.5 66
t-32 45.5t-61.5 17q-18 0 -40.5 -3.5t-45 -10t-43.5 -14.5t-37 -17v-420h-49v497h48z" />
    <glyph glyph-name="n" unicode="n" horiz-adv-x="525" 
d="M125 498v-35q48 24 87.5 34.5t77.5 10.5q56 0 89.5 -19t51.5 -52.5t23.5 -78.5t5.5 -96v-261h-49v259q0 31 -2.5 67t-14 67t-36 51.5t-69.5 20.5q-20 0 -42.5 -4t-44 -11t-41.5 -14.5t-35 -15.5v-420h-49v497h48z" />
    <glyph glyph-name="o" unicode="o" horiz-adv-x="549" 
d="M77 343q8 48 30.5 85t63 59.5t104.5 22.5q59 0 98.5 -19.5t63.5 -54t34 -83t10 -107.5q0 -51 -8.5 -97.5t-31.5 -82t-63 -56t-104 -20.5q-58 0 -97.5 17.5t-63.5 50.5t-34.5 80.5t-10.5 106.5q0 50 9 98zM124 168q5 -39 21 -69t47.5 -48t83.5 -18q48 0 78 15.5t47 44
t23 68.5t6 88q0 38 -4.5 76.5t-20.5 70t-47.5 51.5t-84.5 20q-48 0 -78.5 -17t-47 -46.5t-22.5 -70t-6 -87.5q0 -40 5 -78z" />
    <glyph glyph-name="p" unicode="p" horiz-adv-x="508" 
d="M127 -228h-49v728h48v-38q81 48 167 48q45 0 77.5 -14.5t53.5 -45t31 -78t10 -114.5q0 -71 -11.5 -122t-37 -83.5t-67.5 -47.5t-104 -15q-59 0 -118 14v-232zM127 46q44 -6 76 -9.5t55 -3.5q85 0 122 51.5t37 169.5q0 58 -8 98.5t-23.5 66t-37.5 37.5t-51 12
q-19 0 -42.5 -4t-46.5 -11t-44.5 -15.5t-36.5 -17.5v-374z" />
    <glyph glyph-name="q" unicode="q" horiz-adv-x="503" 
d="M40 238q0 74 12 127.5t39 87t65.5 46t81.5 12.5q15 0 31 -1l157 -10v-728h-49v253q-37 -17 -75 -26t-78 -9q-97 0 -140.5 58t-43.5 190zM89 241q0 -114 32.5 -161.5t107.5 -47.5q15 0 34.5 3t39.5 8t39.5 11.5t34.5 12.5v393q-7 0 -23.5 1t-34 2.5t-32.5 2.5t-20 1
q-12 1 -22 1q-39 0 -70 -13t-51 -42.5t-27.5 -73t-7.5 -98.5z" />
    <glyph glyph-name="r" unicode="r" horiz-adv-x="346" 
d="M126 500v-74q86 63 193 85v-50q-20 -4 -45.5 -12.5t-51.5 -20t-51 -24t-44 -23.5v-381h-49v500h48z" />
    <glyph glyph-name="s" unicode="s" horiz-adv-x="502" 
d="M116 478q47 31 140 31q36 0 79.5 -4.5t81.5 -12.5l-2 -42q-39 5 -81.5 10.5t-80.5 5.5q-73 0 -104.5 -23t-31.5 -66q0 -19 6.5 -33.5t22 -25.5t41 -19t64.5 -16q25 -5 56.5 -14t60 -25t48 -40.5t19.5 -62.5q0 -80 -46 -115.5t-144 -35.5q-43 0 -86 5.5t-85 12.5l4 42
q57 -8 99.5 -12.5t73.5 -4.5q70 0 102.5 24t32.5 79q0 28 -16.5 46.5t-40 29.5t-49 17t-44.5 8q-49 8 -81.5 19t-51.5 26.5t-27 37.5t-8 51q0 75 48 107z" />
    <glyph glyph-name="t" unicode="t" horiz-adv-x="371" 
d="M33 500h76v159h49v-159h173v-43h-173v-271q0 -34 2 -62.5t10 -49t25 -32t48 -11.5l94 8l4 -40q-35 -5 -61 -7.5t-44 -2.5q-36 0 -60 8t-39 28.5t-21.5 55t-6.5 86.5v290h-76v43z" />
    <glyph glyph-name="u" unicode="u" horiz-adv-x="518" 
d="M65 237v261h49v-258q0 -43 2 -81t13 -66.5t36 -44.5t70 -16q36 0 75.5 11t78.5 34v421h49v-498h-51v36q-40 -23 -75 -34.5t-76 -11.5q-57 0 -91 21t-52 55.5t-23 79t-5 91.5z" />
    <glyph glyph-name="v" unicode="v" horiz-adv-x="482" 
d="M33 500h52l134 -457h42l137 457h51l-151 -500h-115z" />
    <glyph glyph-name="w" unicode="w" horiz-adv-x="754" 
d="M33 500h48l121 -457h11l139 447h50l139 -447h14l117 457h50l-130 -500h-87l-128 430l-128 -430h-86z" />
    <glyph glyph-name="x" unicode="x" horiz-adv-x="456" 
d="M33 500h54l141 -215l141 215h54l-167 -249l166 -251h-54l-140 214l-141 -214h-54l167 250z" />
    <glyph glyph-name="y" unicode="y" horiz-adv-x="483" 
d="M33 500h48l141 -457h38l141 457h49l-222 -728h-50l69 228h-64z" />
    <glyph glyph-name="z" unicode="z" horiz-adv-x="461" 
d="M416 500v-41l-311 -418h311v-41h-371v41l313 418h-313v41h371z" />
    <glyph glyph-name="braceleft" unicode="{" horiz-adv-x="354" 
d="M121 372q23 27 24 76l-7 128q0 45 10 77.5t32 53.5t56 32t82 13l1 -42q-75 -4 -103.5 -35.5t-29.5 -99.5l7 -121q-1 -63 -23.5 -95t-78.5 -47q29 -9 48 -21t30.5 -28.5t17 -39.5t5.5 -53l-7 -116q1 -68 30 -100.5t105 -36.5l-3 -42q-48 2 -82 13t-55.5 32.5t-31.5 54
t-10 77.5l7 121q-1 46 -24.5 74t-80.5 44v40q57 13 81 41z" />
    <glyph glyph-name="bar" unicode="|" horiz-adv-x="197" 
d="M80 -227v953h47v-953h-47z" />
    <glyph glyph-name="braceright" unicode="}" horiz-adv-x="359" 
d="M40 -83q76 4 105.5 36.5t30.5 100.5l-7 116q0 30 5.5 53t17 39.5t30.5 28.5t47 21q-57 15 -79.5 47t-22.5 95l7 121q0 68 -29.5 99.5t-103.5 35.5l2 42q96 -4 137 -44.5t42 -131.5l-7 -128q0 -49 23.5 -76.5t80.5 -40.5v-40q-57 -16 -80.5 -44t-23.5 -74l7 -121
q-1 -91 -42 -132t-137 -45z" />
    <glyph glyph-name="asciitilde" unicode="~" horiz-adv-x="591" 
d="M80 268q62 53 113 53q29 0 104 -33q71 -36 91 -36q11 0 25 5.5t29 13t28.5 16t22.5 15.5l11 -40q-36 -31 -63.5 -43t-53.5 -12q-31 0 -100 35q-76 35 -92 35q-10 0 -24 -5.5t-29 -13.5t-28 -17l-23 -15z" />
    <glyph glyph-name="exclamdown" unicode="&#xa1;" horiz-adv-x="220" 
d="M85 -198l2 481h45l2 -481h-49zM84 409v91h54v-91h-54z" />
    <glyph glyph-name="cent" unicode="&#xa2;" horiz-adv-x="402" 
d="M-5 341q10 40 31 66.5t54 39.5t78 16v126h45v-129l112 -11l-3 -42q-44 5 -72.5 7t-56.5 2q-42 0 -70 -9t-45 -29t-24 -52t-7 -78q0 -47 6.5 -78.5t23.5 -50t46 -26t73 -7.5l127 7l3 -43q-38 -5 -66 -7.5t-47 -2.5v-124h-45l2 123q-48 3 -81.5 13.5t-54 34t-30 62
t-9.5 96.5q0 56 10 96z" />
    <glyph glyph-name="sterling" unicode="&#xa3;" horiz-adv-x="559" 
d="M170 44v323h-67v42h67v53q0 47 4 85.5t18.5 65.5t42 42t75.5 15q31 0 62.5 -4t61.5 -10l1 -42q-48 7 -78.5 10.5t-45.5 3.5q-36 0 -55 -13t-28 -36.5t-10.5 -54.5t-1.5 -66v-49h179v-42h-179v-323h168l81 16l9 -42l-82 -18h-312v44h90z" />
    <glyph glyph-name="currency" unicode="&#xa4;" horiz-adv-x="589" 
d="M155 147q-34 50 -34 104t34 106l-70 69l36 36l68 -70q22 17 48.5 25t56.5 8q29 0 55 -8t51 -25l69 70l35 -36l-71 -69q35 -50 35 -106q0 -58 -35 -104l71 -69l-35 -35l-69 70q-49 -34 -106 -34q-62 0 -105 34l-68 -71l-36 36zM204 162q38 -38 91 -38q26 0 49.5 10.5
t41 28t28 41t10.5 48.5q0 26 -10.5 49.5t-28 41t-41 28t-49.5 10.5t-49.5 -10.5t-41.5 -28t-28.5 -41t-10.5 -49.5q0 -52 39 -90z" />
    <glyph glyph-name="yen" unicode="&#xa5;" horiz-adv-x="667" 
d="M141 660l194 -297l192 297h55l-184 -291h158v-44h-196v-105h197v-43h-197v-177h-49v177h-199v43h199v105h-200v44h160l-186 291h56z" />
    <glyph glyph-name="brokenbar" unicode="&#xa6;" horiz-adv-x="197" 
d="M127 150v-377h-47v377h47zM80 351v375h47v-375h-47z" />
    <glyph glyph-name="section" unicode="&#xa7;" horiz-adv-x="523" 
d="M85 305q5 17 12.5 35t17.5 33.5t20 23.5q-44 32 -44 112q0 148 181 148q36 0 78.5 -4.5t80.5 -8.5l-4 -43q-106 15 -165 15t-91.5 -26t-32.5 -79q0 -33 12 -54t32 -33t47.5 -18.5t58.5 -11.5t60 -13.5t51.5 -24t36 -40.5t13.5 -62q0 -68 -41 -128q17 -14 27 -40t10 -57
q0 -79 -46 -120.5t-132 -41.5q-42 0 -86.5 4.5t-84.5 11.5l4 42q110 -15 166 -15q65 0 99 29.5t34 88.5q0 32 -14.5 50.5t-36.5 28.5t-48.5 15t-50.5 9q-45 7 -77 17.5t-52.5 27.5t-30 41t-9.5 57q0 13 5 31zM160 205q32 -22 111 -35q84 -17 102 -25q5 8 10.5 21.5t10 30
t6 30.5t1.5 24v9q-2 21 -8.5 36t-22.5 26t-42 19t-67 15q-25 4 -48 8t-46 14q-39 -70 -39 -109q0 -42 32 -64z" />
    <glyph glyph-name="copyright" unicode="&#xa9;" horiz-adv-x="677" 
d="M114 570q33 61 92 96.5t132 35.5t131 -36q59 -36 93 -97t34 -136q0 -74 -34 -135q-33 -61 -91.5 -96.5t-131.5 -35.5t-132 36q-59 35 -93 96.5t-34 136.5q0 74 34 135zM145 317q29 -54 79 -84t113 -30q62 0 113 30q51 31 80.5 84t29.5 117q0 63 -29 118
q-29 54 -79.5 84.5t-113.5 30.5q-94 0 -159 -68q-63 -69 -63 -165q0 -64 29 -117zM253 551q25 37 86 37q38 0 66 -5l10 -3l-3 -38q-39 6 -77 6t-52 -25t-14 -88q0 -64 14.5 -90t57.5 -26l71 7l3 -38q-42 -9 -73 -9q-64 0 -89.5 37t-25.5 118q0 80 26 117z" />
    <glyph glyph-name="guillemotleft" unicode="&#xab;" horiz-adv-x="471" 
d="M258 273l173 134v-52l-131 -102l131 -114v-52l-173 142v44zM40 229v44l173 133v-50l-130 -103l130 -114v-52z" />
    <glyph glyph-name="registered" unicode="&#xae;" horiz-adv-x="677" 
d="M114 570q33 61 92 96.5t132 35.5t132 -35t92.5 -96t33.5 -136t-34 -136q-33 -62 -92 -97.5t-131 -35.5q-73 0 -132 36t-93 97t-34 136q0 74 34 135zM116 435q0 -64 29 -117q29 -54 79.5 -84.5t113.5 -30.5q62 0 113 30q51 31 80 84t29 117q0 63 -29 118
q-29 54 -79.5 84.5t-113.5 30.5q-61 0 -112 -30q-51 -31 -80.5 -84.5t-29.5 -117.5zM233 582h99q60 0 87 -19.5t27 -64.5q0 -42 -13 -63.5t-45 -32.5l62 -117h-43l-60 113h-72v-113h-42v297zM274 434h72q32 0 46 13t14 43q0 56 -75 56h-57v-112z" />
    <glyph glyph-name="degree" unicode="&#xb0;" horiz-adv-x="443" 
d="M118 669q38 37 100 37t101 -37.5t39 -98.5q0 -62 -39.5 -99.5t-100.5 -37.5t-99.5 37t-38.5 100q0 61 38 99zM121 570q0 -47 26.5 -74t70.5 -27q45 0 72.5 28t27.5 73t-27.5 72.5t-72.5 27.5q-43 0 -70 -27.5t-27 -72.5z" />
    <glyph glyph-name="plusminus" unicode="&#xb1;" horiz-adv-x="618" 
d="M284 348v134h46v-134h201v-44h-201v-140h-46v140h-199v44h199zM85 47v45h446v-45h-446z" />
    <glyph glyph-name="paragraph" unicode="&#xb6;" horiz-adv-x="684" 
d="M80 517q0 39 14.5 72.5t39.5 57.5t59 37.5t74 13.5h328v-43h-88v-655h-48v655h-138v-655h-48v341h-7q-40 0 -74 13t-59 36.5t-39 55.5t-14 71z" />
    <glyph glyph-name="periodcentered" unicode="&#xb7;" horiz-adv-x="219" 
d="M82 257v90h54v-90h-54z" />
    <glyph glyph-name="guillemotright" unicode="&#xbb;" horiz-adv-x="471" 
d="M431 273v-44l-173 -142v52l130 114l-130 103v50zM40 87v52l131 114l-131 103v50l173 -133v-44z" />
    <glyph glyph-name="questiondown" unicode="&#xbf;" horiz-adv-x="551" 
d="M96 6q4 23 15.5 42.5t30 38.5t45.5 43q14 13 31.5 29.5t33.5 35.5t26.5 39t10.5 39v38h42q3 -10 5 -20q5 -18 5 -34q0 -24 -12 -46t-30 -41.5t-38 -37t-36 -32.5q-28 -27 -44.5 -45t-25 -33.5t-10.5 -32t-2 -41.5q0 -54 36.5 -80t116.5 -26q34 0 161 26l4 -44
q-54 -14 -95 -20.5t-66 -6.5h-7q-51 1 -88.5 8.5t-63 24.5t-38 46t-12.5 74q0 33 5 56zM284 413v90h54v-90h-54z" />
    <glyph glyph-name="multiply" unicode="&#xd7;" horiz-adv-x="563" 
d="M116 58l-31 31l165 166l-165 165l31 31l166 -165l165 165l31 -31l-165 -165l165 -166l-31 -31l-165 167z" />
    <glyph glyph-name="divide" unicode="&#xf7;" horiz-adv-x="425" 
d="M340 373v-52h-255v52h255zM189 137v87h50v-87h-50zM239 557v-86h-50v86h50z" />
    <glyph glyph-name="tilde" unicode="&#x2dc;" horiz-adv-x="591" 
d="M80 268q62 53 113 53q29 0 104 -33q71 -36 91 -36q11 0 25 5.5t29 13t28.5 16t22.5 15.5l11 -40q-36 -31 -63.5 -43t-53.5 -12q-31 0 -100 35q-76 35 -92 35q-10 0 -24 -5.5t-29 -13.5t-28 -17l-23 -15z" />
    <glyph glyph-name="uni060C" unicode="&#x60c;" horiz-adv-x="282" 
d="M88 39q2 11 5 21.5t6 19.5t4 13l41 115l42 -16l-50 -140l62 -23l-26 -77q-20 7 -33.5 12t-27.5 13q-7 5 -16.5 14.5t-9.5 28.5q0 8 3 19z" />
    <glyph glyph-name="uni060D" unicode="&#x60d;" horiz-adv-x="158" 
d="M40 -96l42 206h51l-54 -206h-39z" />
    <glyph glyph-name="uni061B" unicode="&#x61b;" horiz-adv-x="283" 
d="M86 342q0 16 7 34.5t12 35.5l42 114l40 -16l-50 -140l62 -22l-25 -77q-13 5 -26.5 9.5t-24.5 9.5q-15 11 -25.5 20.5t-11.5 31.5zM188 91v-91h-64v91h64z" />
    <glyph glyph-name="uni061F" unicode="&#x61f;" horiz-adv-x="551" 
d="M91 554q0 45 12.5 74t38 46t63 24.5t88.5 8.5h7q25 0 66.5 -6.5t95.5 -20.5l-5 -44q-127 26 -161 26q-80 0 -116.5 -26t-36.5 -80q0 -30 4 -49t14 -34.5t25.5 -30.5t38.5 -38q16 -15 36 -32.5t38 -37.5t30 -43.5t12 -49.5q0 -11 -5 -29q-2 -9 -5 -19h-42v38
q0 20 -10.5 39.5t-26.5 38.5t-33.5 35.5t-31.5 29.5q-27 24 -45.5 43t-30 38.5t-16 42.5t-4.5 56zM338 91v-90h-54v90h54z" />
    <glyph glyph-name="uni0640" unicode="&#x640;" horiz-adv-x="198" 
d="M0 49h198q14 0 14 -14v-21q0 -14 -14 -14h-198q-14 0 -14 14v21q0 14 14 14z" />
    <glyph glyph-name="uni0653" unicode="&#x653;" 
d="M-123 728q0 24 19 45t48 21h178v-39h-188q-10 0 -19 -8.5t-9 -19.5v-27h-29v28z" />
    <glyph glyph-name="uni0653" unicode="&#x6e4;" 
d="M-123 728q0 24 19 45t48 21h178v-39h-188q-10 0 -19 -8.5t-9 -19.5v-27h-29v28z" />
    <glyph glyph-name="uni0654" unicode="&#x654;" 
d="M-128 724l83 16q-2 1 -5.5 7t-5.5 18q0 2 -1 7.5t-2.5 12.5t-2.5 13t-2 9l-2 16q1 8 3 19.5t11 25t23.5 22.5t32.5 12l66 7l3 -30l-74 -9q-18 -2 -29.5 -14.5t-11.5 -28.5q0 -6 1 -13l13 -70q9 2 33.5 7t50.5 10q30 7 65 14l6 -25l-250 -50z" />
    <glyph glyph-name="uni0655" unicode="&#x655;" 
d="M-126 -188l81 17q-1 2 -4.5 8t-5.5 18q0 2 -2 9l-3 14q-1 7 -2 13t-1 7q-1 8 -2 15q1 8 3 20t11 25t23.5 22t32.5 11l66 8l3 -30l-71 -8q-20 -3 -32 -16t-12 -30q0 -6 1 -13l13 -69q9 2 33.5 7.5t50.5 10.5l65 13l5 -24l-249 -50z" />
    <glyph glyph-name="uni0656" unicode="&#x656;" 
d="M12 -114h-24v114h24v-114z" />
    <glyph glyph-name="uni0660" unicode="&#x660;" horiz-adv-x="261" 
d="M84 146h94v-94h-94v94z" />
    <glyph glyph-name="uni0661" unicode="&#x661;" horiz-adv-x="237" 
d="M122 633l11 -52q9 -46 14 -92.5t5 -93.5v-395h-39v396q0 48 -5 94.5t-14 92.5l-9 43z" />
    <glyph glyph-name="uni0662" unicode="&#x662;" horiz-adv-x="500" 
d="M121 633l3 -14q3 -14 7.5 -36t9 -50t6.5 -57q2 -30 28.5 -50t58.5 -20h164v228h39v-209q0 -68 -69 -68h-123q-26 0 -48.5 8t-45.5 34v-399h-39v396q0 48 -5 94.5t-14 92.5l-10 43z" />
    <glyph glyph-name="uni0663" unicode="&#x663;" horiz-adv-x="668" 
d="M123 633v0l3 -13t7.5 -35t8.5 -50t6 -56q0 -10 5 -23t15.5 -24.5t26 -18.5t35.5 -7h5h14q35 0 61 21.5t33 54.5l28 143l38 -7l-23 -117q-1 -5 -1 -10q0 -14 5 -28.5t17 -27.5t28.5 -21t35.5 -8h95l1 227l38 1v-196q0 -34 -23 -57.5t-58 -23.5h-53q-35 0 -63 17t-45 45
q-19 -29 -47.5 -45.5t-68.5 -16.5q-29 0 -52 10.5t-43 36.5v-404h-39v396q0 48 -4.5 94.5t-14.5 92.5l-9 43z" />
    <glyph glyph-name="uni0664" unicode="&#x664;" horiz-adv-x="456" 
d="M108 275q21 32 53 50q-20 14 -34 33.5t-19 42.5l-18 92q-2 11 -2 21q0 15 5.5 34t21 38t38.5 30.5t50 11.5h114v-44h-115q-17 0 -31.5 -7.5t-24 -20t-12.5 -24.5t-3 -22q0 -7 1 -14l15 -80q3 -14 11.5 -27.5t20.5 -23.5t22.5 -14t17.5 -4q4 0 8 1l102 29l11 -42l-141 -42
q-32 -9 -51.5 -37.5t-19.5 -63.5v-72q0 -31 21.5 -53t53.5 -22h175v-45h-176q-24 0 -45 9.5t-36.5 25t-24.5 37t-9 45.5v78q0 47 21 80z" />
    <glyph glyph-name="uni0665" unicode="&#x665;" horiz-adv-x="580" 
d="M80 274q15 50 41 93.5t62 83.5t78 85l-65 59l26 35l82 -78q44 -41 82.5 -81t67 -86t45 -101t16.5 -126q0 -32 -7.5 -60.5t-24 -50t-42.5 -34t-64 -12.5h-174q-37 0 -63.5 12.5t-43 34t-24 50t-7.5 60.5q0 65 15 116zM108 120q4 -19 13.5 -34.5t27 -25.5t44.5 -10h194
q27 0 44.5 10t27 25.5t13.5 34.5t4 37q0 53 -8.5 95.5t-30 82.5t-57.5 81.5t-90 92.5q-54 -52 -90 -93.5t-57.5 -81.5t-30 -82t-8.5 -95q0 -18 4 -37z" />
    <glyph glyph-name="uni0666" unicode="&#x666;" horiz-adv-x="508" 
d="M57 585q-6 1 -9 1v-1q-2 0 -2 1h2l4 41l-52 -627l52 627q3 -1 10 -1q16 -2 44 -4t61 -4t60 -2t54.5 2t51.5 4t41 4.5t21 3.5v-393q0 -48 5.5 -94.5t13.5 -93.5l10 -42l-38 -8l-11 53q-8 46 -13.5 92t-5.5 94v338q-8 0 -28 -1t-42.5 -2.5t-43 -2.5t-30.5 -1q-27 0 -58.5 3
t-57 6.5t-39.5 6.5z" />
    <glyph glyph-name="uni0667" unicode="&#x667;" horiz-adv-x="537" 
d="M76 633q7 -9 30 -44t52.5 -100.5t59.5 -165.5t51 -240q9 69 23 143.5t36.5 147t54.5 139t78 120.5l34 -27q-5 -8 -19.5 -26t-34 -49.5t-42 -78t-43.5 -111t-39 -148.5t-29 -191h-39q-22 158 -54 268t-63 180.5t-56 107t-33 48.5z" />
    <glyph glyph-name="uni0668" unicode="&#x668;" horiz-adv-x="537" 
d="M43 28q8 12 33 48.5t56 107t63 180.5t54 268h39q11 -107 29 -191t39 -148.5t43.5 -111t42 -78t34 -49.5t19.5 -26l-34 -27q-46 54 -78 120.5t-54.5 139t-36.5 147t-23 143.5q-21 -140 -51 -240t-59.5 -165.5t-52.5 -100.5t-30 -44z" />
    <glyph glyph-name="uni0669" unicode="&#x669;" horiz-adv-x="480" 
d="M57 446l17 91q8 42 39.5 68t73.5 26h56q26 0 49 -9.5t40 -26.5t26 -38t9 -44v-5v-271v-14q0 -41 5.5 -84t14.5 -89l8 -44l-41 -7l-10 52q-10 47 -14 93t-4 94v77q-10 -5 -17 -5.5t-14 -0.5h-124q-27 0 -50 12t-39 31.5t-21.5 39.5t-5.5 35q0 9 2 19zM100 411
q4 -15 13.5 -27t24 -19t30.5 -7h158v150q0 33 -23 56t-57 23h-55q-29 0 -51 -18t-27 -45l-15 -82q-1 -6 -1 -12q0 -10 3 -19z" />
    <glyph glyph-name="uni066A" unicode="&#x66a;" horiz-adv-x="503" 
d="M369 114h94v-94h-94v94zM70 9l-33 21l392 632l34 -23zM46 661h94v-94h-94v94z" />
    <glyph glyph-name="uni066B" unicode="&#x66b;" horiz-adv-x="158" 
d="M40 -96l42 206h51l-54 -206h-39z" />
    <glyph glyph-name="uni066C" unicode="&#x66c;" horiz-adv-x="158" 
d="M40 416l42 206h51l-54 -206h-39z" />
    <glyph glyph-name="uni066D" unicode="&#x66d;" horiz-adv-x="485" 
d="M113 427l-23 31l109 79l-107 80l23 31l109 -79l41 127l38 -11l-41 -129h133v-39h-135l42 -128l-38 -12l-41 129z" />
    <glyph glyph-name="uni0670" unicode="&#x670;" 
d="M12 700h-24v113h24v-113z" />
    <glyph glyph-name="uni06F0" unicode="&#x6f0;" horiz-adv-x="447" 
d="M75 177v51q0 26 10 48.5t26.5 39t39.5 26.5t48 10h49q26 0 48.5 -10t39.5 -26.5t26.5 -39t9.5 -48.5v-51q0 -25 -9.5 -47.5t-26.5 -39.5t-39.5 -26.5t-48.5 -9.5h-49q-26 0 -48.5 9.5t-39.5 26.5t-26.5 39.5t-9.5 47.5zM115 229v-47q0 -34 23.5 -56.5t55.5 -22.5h59
q33 0 56.5 22.5t23.5 56.5v47q0 33 -23.5 56t-56.5 23h-59q-32 0 -55.5 -22.5t-23.5 -56.5z" />
    <glyph glyph-name="uni06F1" unicode="&#x6f1;" horiz-adv-x="240" 
d="M125 633l11 -52q9 -46 14 -92.5t5 -93.5v-395h-41v396q0 48 -5 94.5t-14 92.5l-10 43z" />
    <glyph glyph-name="uni06F2" unicode="&#x6f2;" horiz-adv-x="516" 
d="M125 633l3 -14q3 -14 7.5 -36t9 -50t6.5 -57q2 -30 28.5 -50t58.5 -20h164v228h39v-209q0 -68 -69 -68h-125q-27 0 -49.5 9.5t-42.5 32.5v-399h-42v396q0 48 -5 94.5t-14 92.5l-9 43z" />
    <glyph glyph-name="uni06F3" unicode="&#x6f3;" horiz-adv-x="686" 
d="M126 633v0l3 -13t7.5 -35t8.5 -50t6 -56q0 -10 5 -23t15.5 -24.5t26 -18.5t35.5 -7h5h14q35 0 61 21.5t33 54.5l28 143l41 -7l-24 -117v-9q0 -14 5 -29t17 -28t28.5 -21t35.5 -8h90v227h41v-208q0 -68 -68 -68h-66q-35 0 -63 16.5t-45 41.5q-18 -26 -48.5 -42t-71.5 -16
q-28 0 -49.5 9t-41.5 31v-397h-41v396q0 48 -4.5 94.5t-14.5 92.5l-10 43z" />
    <glyph glyph-name="uni06F4" unicode="&#x6f4;" horiz-adv-x="628" 
d="M125 634q11 -49 17 -85t9 -70q5 -31 30.5 -52.5t57.5 -21.5h50q-7 15 -9 29l-2 13q-2 13 -5 30t-6 33t-5 23q-2 11 -2 22q0 15 5 34t20.5 38.5t38.5 31t51 11.5h138l-1 -46h-141q-16 0 -30.5 -7t-24.5 -18t-13.5 -23t-3.5 -21q0 -7 1 -13l27 -134q30 1 68 4.5t71.5 7.5
t56.5 8l23 3l7 -41l-17 -2q-17 -3 -43.5 -6.5t-60 -8t-67 -8t-64.5 -6t-53 -2.5q-27 0 -51 10.5t-42 36.5v-404h-42v396q0 56 -8.5 116t-19.5 115z" />
    <glyph glyph-name="uni06F5" unicode="&#x6f5;" horiz-adv-x="690" 
d="M91 156q0 71 19.5 129.5t52 108.5t73 92.5t82.5 80.5l-38 36l22 30l94 -82q27 -24 62.5 -62t67 -88t53.5 -111.5t22 -133.5q0 -31 -8.5 -59.5t-25 -50.5t-41.5 -34.5t-59 -12.5q-41 0 -67.5 18t-53.5 55q-27 -38 -55 -55.5t-70 -17.5q-34 0 -58.5 12.5t-40.5 34t-23.5 50
t-7.5 60.5zM130 156q0 -22 4.5 -41.5t14.5 -34.5t26.5 -23.5t40.5 -8.5h16q17 0 33 6t28.5 16t21 23t11.5 28l24 100l38 -6l-23 -92q3 -11 11.5 -24t21.5 -24.5t28.5 -19t32.5 -7.5h16q24 0 41 9t27 24t14.5 34.5t4.5 40.5q0 70 -17.5 124.5t-47.5 100t-69 85t-83 78.5
q-39 -39 -77.5 -79t-69 -86.5t-49.5 -101t-19 -121.5z" />
    <glyph glyph-name="uni06F6" unicode="&#x6f6;" horiz-adv-x="563" 
d="M290 305q-8 0 -21 7t-20 13l-120 92q-21 16 -30.5 38.5t-9.5 44.5q0 3 0.5 16.5t11.5 37t32 40.5l101 79l16 -28l-103 -86q-13 -11 -20 -26t-7.5 -24t-0.5 -11q0 -13 6 -26.5t19 -23.5l163 -120q28 41 59 78t66 72l39 36l25 -25l-32 -30q-21 -20 -35 -34t-26.5 -29
t-26 -33.5t-34.5 -48.5l-225 -325l-32 21z" />
    <glyph glyph-name="uni06F7" unicode="&#x6f7;" horiz-adv-x="537" 
d="M76 633q35 -54 70 -127q29 -63 62.5 -154t59.5 -209q25 118 58 209t63 154q35 73 72 127l34 -27q-47 -74 -88 -167q-35 -80 -69 -190.5t-50 -246.5h-39q-13 128 -46.5 238t-69.5 192q-41 95 -90 174z" />
    <glyph glyph-name="uni06F8" unicode="&#x6f8;" horiz-adv-x="537" 
d="M43 28q49 79 90 175q18 41 36 89t33.5 102.5t28 114t18.5 123.5h39q16 -135 50 -245.5t69 -191.5q41 -93 88 -167l-34 -27q-37 54 -72 127q-30 63 -63 154t-58 209q-26 -118 -59.5 -209t-62.5 -154q-35 -73 -70 -127z" />
    <glyph glyph-name="uni06F9" unicode="&#x6f9;" horiz-adv-x="468" 
d="M57 446l17 91q8 42 39.5 68t73.5 26h56q26 0 48.5 -9.5t39.5 -26.5t26.5 -39t9.5 -48v-271v-14q0 -41 5.5 -84t14.5 -89l8 -44l-41 -6l-10 51q-10 47 -14.5 89t-4.5 82v16l1 77q-10 -5 -17 -5.5t-14 -0.5h-124q-27 0 -50 12t-39 31.5t-21.5 39.5t-5.5 35q0 9 2 19z
M100 411q4 -15 13.5 -27t24 -19t30.5 -7h158v150q0 33 -23 56t-57 23h-55q-29 0 -51 -18t-27 -45l-15 -82q-1 -6 -1 -12q0 -10 3 -19z" />
    <glyph glyph-name="uni200B" unicode="&#x200b;" horiz-adv-x="333" 
 />
    <glyph glyph-name="uni200C" unicode="&#x200c;" horiz-adv-x="333" 
 />
    <glyph glyph-name="endash" unicode="&#x2013;" horiz-adv-x="670" 
d="M85 247v44h500v-44h-500z" />
    <glyph glyph-name="emdash" unicode="&#x2014;" horiz-adv-x="1170" 
d="M85 247v44h1000v-44h-1000z" />
    <glyph glyph-name="quoteleft" unicode="&#x2018;" horiz-adv-x="173" 
d="M40 515l55 207h39l-42 -207h-52z" />
    <glyph glyph-name="quoteright" unicode="&#x2019;" horiz-adv-x="173" 
d="M40 514l42 207h52l-55 -207h-39z" />
    <glyph glyph-name="quotesinglbase" unicode="&#x201a;" horiz-adv-x="185" 
d="M40 -96l54 206h39l-42 -206h-51z" />
    <glyph glyph-name="quotedblleft" unicode="&#x201c;" horiz-adv-x="312" 
d="M233 722h39l-42 -206h-52zM40 516l55 206h38l-42 -206h-51z" />
    <glyph glyph-name="quotedblright" unicode="&#x201d;" horiz-adv-x="312" 
d="M221 721h51l-55 -205h-39zM40 516l42 205h51l-54 -205h-39z" />
    <glyph glyph-name="quotedblbase" unicode="&#x201e;" horiz-adv-x="312" 
d="M233 110h39l-42 -206h-52zM40 -96l54 206h39l-42 -206h-51z" />
    <glyph glyph-name="dagger" unicode="&#x2020;" horiz-adv-x="569" 
d="M259 500v197h46v-197h179v-44h-179l-1 -534h-44l-1 534h-179v44h179z" />
    <glyph glyph-name="daggerdbl" unicode="&#x2021;" horiz-adv-x="570" 
d="M80 500h179v197h48v-197h177v-44h-177v-294h178v-43h-178v-197h-48v197h-179v43h179v294h-179v44z" />
    <glyph glyph-name="bullet" unicode="&#x2022;" horiz-adv-x="420" 
d="M85 109v288h250v-288h-250z" />
    <glyph glyph-name="ellipsis" unicode="&#x2026;" horiz-adv-x="727" 
d="M83 90h54v-90h-54v90zM335 90h54v-90h-54v90zM591 90h53v-90h-53v90z" />
    <glyph glyph-name="guilsinglleft" unicode="&#x2039;" horiz-adv-x="253" 
d="M40 229v44l173 133v-50l-130 -103l130 -114v-52z" />
    <glyph glyph-name="guilsinglright" unicode="&#x203a;" horiz-adv-x="253" 
d="M213 268v-44l-173 -141v51l130 114l-130 103v50z" />
    <glyph glyph-name="fraction" unicode="&#x2044;" horiz-adv-x="126" 
d="M-167 7l-33 21l392 632l34 -23z" />
    <glyph glyph-name="Euro" unicode="&#x20ac;" horiz-adv-x="646" 
d="M151 431q5 61 20.5 106t44 74.5t70 44t99.5 14.5q45 0 89 -7t86 -16l-1 -40q-48 8 -92.5 12.5t-88.5 4.5q-87 0 -129 -45.5t-50 -147.5h310v-41h-313v-112h313v-40h-313q4 -54 16 -92.5t34 -63t55 -35.5t79 -11q90 0 179 19l3 -44q-48 -10 -91 -14.5t-82 -4.5
q-62 0 -105.5 14.5t-71.5 45t-43 77t-21 109.5h-63v40h63v112h-63v41h66z" />
    <glyph glyph-name="trademark" unicode="&#x2122;" horiz-adv-x="675" 
d="M313 331v293h59l77 -231l83 231h55v-293h-38v247l-81 -235h-38l-78 235v-247h-39zM80 624h200v-37h-77v-255h-41v255h-82v37z" />
    <glyph glyph-name="minus" unicode="&#x2212;" horiz-adv-x="594" 
d="M85 229v45h424v-45h-424z" />
    <glyph glyph-name="uniFBB2" unicode="&#xfbb2;" 
d="M275 1v64h65v-63z" />
    <glyph glyph-name="uniFBB3" unicode="&#xfbb3;" 
d="M275 -64l-1 64h65l1 -64h-65z" />
    <glyph glyph-name="uniFBB4" unicode="&#xfbb4;" 
d="M329 65h65v-65h-65v65zM277 65v-65h-65v65h65z" />
    <glyph glyph-name="uniFBB5" unicode="&#xfbb5;" 
d="M329 0h65v-65h-65v65zM277 0v-65h-65v65h65z" />
    <glyph glyph-name="uniFBB6" unicode="&#xfbb6;" 
d="M327 65h65v-65h-65v65zM331 167v-65h-65v65h65zM275 65v-65h-65v65h65z" />
    <glyph glyph-name="uniFBB7" unicode="&#xfbb7;" 
d="M329 0h65v-65h-65v65zM339 -102v-65h-65v65h65zM277 0v-65h-65v65h65z" />
    <glyph glyph-name="uniFBB7" unicode="&#xfbb9;" 
d="M329 0h65v-65h-65v65zM339 -102v-65h-65v65h65zM277 0v-65h-65v65h65z" />
    <glyph glyph-name="uniFE70FE7C" 
d="M-139 840h25v-64q0 -19 13.5 -32t31.5 -14h8q17 0 30.5 11.5t17.5 28.5l12 61l25 -4l-10 -53q-1 -3 -1 -7q0 -15 13.5 -25.5t31.5 -11.5h47v113h25v-110q0 -19 -7 -26t-26 -7h-39q-39 2 -58 32q-11 -14 -27.5 -23t-35.5 -9q-32 0 -54 22.5t-22 54.5v63zM136 1082l6 -25
l-278 -60l-5 25zM-141 910l277 60l6 -25l-278 -59z" />
    <glyph glyph-name="uniFB8E.alt" horiz-adv-x="1087" 
d="M85 322h41v-159q0 -51 31.5 -82.5t85.5 -31.5h656q32 0 55.5 23t23.5 56v64q0 18 -6.5 33t-18 26.5t-27 18t-32.5 6.5h-441l-30 29l242 283l30 -28l-202 -239h402q26 0 48.5 -9.5t39.5 -26.5t26.5 -39.5t9.5 -48.5v-73q0 -25 -9.5 -48t-26 -39.5t-39.5 -26.5t-49 -10
h-642q-38 0 -69 12.5t-53 34.5t-34 52.5t-12 65.5v157z" />
    <glyph glyph-name="uniFB8F.alt" horiz-adv-x="1130" 
d="M85 323h41v-159q0 -51 31.5 -83.5t85.5 -32.5h656q16 0 30.5 6.5t25 17.5t17 26t6.5 31v64q0 18 -6.5 33t-18 26.5t-27 18t-32.5 6.5h-441l-30 29l242 283l30 -28l-202 -239h402q26 0 48.5 -9.5t39.5 -26.5t26.5 -39.5t9.5 -48.5v-58q0 -38 25.5 -64.5t63.5 -26.5h22
q6 0 10 -4.5t4 -10.5v-20q0 -14 -14 -14h-14q-36 0 -66.5 18.5t-47.5 55.5q-17 -37 -44.5 -55.5t-62.5 -18.5h-642q-38 0 -69 13t-53 35t-34 52.5t-12 65.5v157z" />
    <glyph glyph-name="uniFB91.alt" horiz-adv-x="728" 
d="M-14 12v22q0 15 14 15h496q33 0 56 23t23 55v65q0 18 -6.5 33.5t-18 26.5t-26.5 17.5t-33 6.5h-440l-32 29l242 283l30 -28l-202 -239h404q26 0 48 -9.5t39 -26t26.5 -39t9.5 -48.5v-61q0 -37 26.5 -62.5t63.5 -25.5h22q14 0 14 -14v-21q-1 -5 -4.5 -9.5t-9.5 -4.5h-15
q-36 0 -66 18.5t-48 54.5q-16 -37 -43.5 -55t-62.5 -18h-493q-5 0 -9.5 3t-4.5 9z" />
    <glyph glyph-name="uniFB90.alt" horiz-adv-x="685" 
d="M-14 15v20q0 14 14 14h496q33 0 56 23.5t23 55.5v64q0 18 -6.5 33.5t-18 26.5t-26.5 17.5t-33 6.5h-440l-32 29l242 283l30 -28l-202 -239h404q26 0 48 -9.5t39 -26t26.5 -39t9.5 -48.5v-74q0 -25 -9.5 -48t-26 -39.5t-39 -26.5t-48.5 -10h-493q-6 0 -10 4.5t-4 10.5z
" />
    <glyph glyph-name="uniFB92.alt" horiz-adv-x="1087" 
d="M85 322h41v-159q0 -51 31.5 -82.5t85.5 -31.5h656q32 0 55.5 23t23.5 56v64q0 18 -6.5 33t-18 26.5t-27 18t-32.5 6.5h-441l-30 29l242 283l30 -28l-202 -239h402q26 0 48.5 -9.5t39.5 -26.5t26.5 -39.5t9.5 -48.5v-73q0 -25 -9.5 -48t-26 -39.5t-39.5 -26.5t-49 -10
h-642q-38 0 -69 12.5t-53 34.5t-34 52.5t-12 65.5v157zM583 637l28 -21l-183 -215l-25 22z" />
    <glyph glyph-name="uniFB93.alt" horiz-adv-x="1130" 
d="M85 322h41v-159q0 -51 31.5 -82.5t85.5 -31.5h656q32 0 55.5 23t23.5 56v64q0 18 -6.5 33t-18 26.5t-27 18t-32.5 6.5h-441l-30 29l242 283l30 -28l-202 -239h402q26 0 48.5 -9.5t39.5 -26.5t26.5 -39.5t9.5 -48.5v-58q0 -38 25.5 -64t63.5 -26h22q6 0 10 -4.5t4 -10.5
v-20q0 -14 -14 -14h-14q-36 0 -66.5 18t-47.5 55q-17 -37 -44.5 -55t-62.5 -18h-642q-38 0 -69 12.5t-53 34.5t-34 52.5t-12 65.5v157zM584 636l27 -21l-183 -216l-23 23z" />
    <glyph glyph-name="uniFB95.alt" horiz-adv-x="755" 
d="M-14 35q0 14 14 14h524q16 0 30.5 6.5t25 17t17 24.5t6.5 30v65q0 18 -6.5 33.5t-18 26.5t-27 17.5t-32.5 6.5h-441l-31 29l241 283l31 -28l-203 -239h404q26 0 48.5 -9.5t39.5 -26t26.5 -39t9.5 -48.5v-61q0 -18 7 -34t19.5 -28t28.5 -19t34 -7h22q14 0 14 -14v-21
q0 -5 -4 -9.5t-10 -4.5h-14q-37 0 -67 18.5t-47 54.5q-16 -37 -43.5 -55t-62.5 -18h-521q-5 0 -9.5 4t-4.5 11v20zM208 637l27 -21l-184 -217l-23 24z" />
    <glyph glyph-name="uniFB94.alt" horiz-adv-x="712" 
d="M0 49h522q34 0 57.5 23t23.5 56v64q0 35 -25 59.5t-60 24.5h-440l-31 29l241 282l30 -27l-202 -239h404q26 0 48.5 -9.5t39.5 -26.5t26.5 -39t9.5 -48v-75q0 -25 -9.5 -47.5t-26 -39t-39 -26.5t-48.5 -10h-521q-14 0 -14 14v21q0 14 14 14zM209 635l26 -19l-184 -217
l-22 23z" />
  </font>
</defs>
</svg>
