<?xml version="1.0" standalone="no"?>
<!DOCTYPE svg PUBLIC "-//W3C//DTD SVG 1.1//EN" "http://www.w3.org/Graphics/SVG/1.1/DTD/svg11.dtd" >
<svg xmlns="http://www.w3.org/2000/svg" xmlns:xlink="http://www.w3.org/1999/xlink" version="1.1">
<metadata>
Created by FontForge 20170731 at Wed Jun 10 09:40:05 2020
 By Aleksey,,,
Copyright (c) 2019 by www.fontiran.com All rights reserved.
</metadata>
<defs>
<font id="PeydaWeb-Regular" horiz-adv-x="0" >
  <font-face 
    font-family="PeydaWeb"
    font-weight="400"
    font-stretch="normal"
    units-per-em="1000"
    panose-1="0 0 0 0 0 0 0 0 0 0"
    ascent="800"
    descent="-200"
    x-height="499"
    cap-height="691"
    bbox="-209 -419 1450 1154"
    underline-thickness="50"
    underline-position="-175"
    unicode-range="U+000D-FEFF"
  />
<missing-glyph horiz-adv-x="250" 
 />
    <glyph glyph-name="uniFDF2" unicode="&#x627;&#xfedf;&#xfee0;&#xfeea;" horiz-adv-x="1256" arabic-form="isolated" 
d="M75 235q0 63 33.5 104t85.5 55l138 36v84h69v-354q0 -16 7 -30.5t18 -25t26.5 -16.5t31.5 -6h74q30 0 51 21.5t21 51.5v281h69v-285q1 -29 22 -49t50 -20h75q30 0 51.5 21.5t21.5 50.5v400h69v-399q0 -32 -12.5 -60t-33.5 -49t-49 -33.5t-60 -12.5h-49q-36 0 -67 16.5
t-52 42.5q-21 -26 -52 -42.5t-67 -16.5h-61q-47 0 -83.5 25t-54.5 64q-8 -6 -18 -10t-21 -4h-138q-45 0 -70 25t-25 70v65zM1124 0v659h69v-659h-69zM332 157v198l-123 -32q-29 -8 -47 -34t-18 -55v-77h188zM558 698v-74q0 -14 10 -24.5t24 -10.5h7q14 0 24.5 8.5t13.5 22.5
l15 71l46 -8l-13 -62q-1 -3 -1 -6q0 -12 10.5 -19t23.5 -7h44v113h47v-109q0 -23 -16.5 -40t-39.5 -17h-35q-17 0 -32 7.5t-26 23.5q-11 -16 -27.5 -23.5t-34.5 -7.5q-37 0 -62 26t-25 62v74h47zM643 741v135h46v-135h-46z" />
    <glyph glyph-name="uniFEF5" unicode="&#xfedf;&#xfe82;" horiz-adv-x="531" arabic-form="isolated" 
d="M57 45l109 14l-48 518l68 10l46 -519l92 12q36 5 56.5 27.5t20.5 62.5v489h69v-488q0 -36 -10 -63.5t-28 -48t-42.5 -32.5t-52.5 -16l-270 -38zM-20 612v38q0 32 21.5 55t56.5 23h190v-61h-195q-8 0 -14.5 -7t-6.5 -15v-33h-52z" />
    <glyph glyph-name="uniFEF6" unicode="&#xfee0;&#xfe82;" horiz-adv-x="586" arabic-form="final" 
d="M57 45l109 14l-49 518l69 10l46 -520l93 12q35 5 56 28t21 63v489h69v-506q0 -38 24 -54.5t54 -16.5h37q14 0 14 -14v-54q0 -5 -4 -9.5t-10 -4.5h-32q-38 0 -69.5 16.5t-51.5 45.5q-18 -22 -42.5 -34t-53.5 -17l-271 -38zM-20 651q0 32 21 54.5t56 22.5h191v-61h-196
q-8 0 -14 -6.5t-6 -14.5v-33h-52v38z" />
    <glyph glyph-name="uniFEF7" unicode="&#xfedf;&#xfe84;" horiz-adv-x="528" arabic-form="isolated" 
d="M51 45l109 14l-48 518l68 10l46 -519l92 12q36 5 56.5 27.5t20.5 62.5v489h69v-488q0 -36 -10 -63.5t-28 -48t-42.5 -32.5t-52.5 -16l-270 -38zM134 695q-2 0 -8 3.5t-11 13.5q-1 3 -8 17l-10 20q-9 20 -9.5 30.5t-0.5 11.5q0 19 7.5 36t20.5 30.5t31 20.5l74 31l20 -47
l-78 -34q-15 -7 -19.5 -19.5t-4.5 -19.5q0 -10 5 -20q1 -3 5 -10l7 -15q4 -8 8.5 -16.5t7.5 -14.5l137 72l22 -46l-252 -129l-23 48z" />
    <glyph glyph-name="uniFEF8" unicode="&#xfee0;&#xfe84;" horiz-adv-x="580" arabic-form="final" 
d="M51 45l109 14l-49 518l69 10l46 -520l93 12q35 5 56 28t21 63v489h69v-506q0 -38 24 -54.5t54 -16.5h37q14 0 14 -14v-54q0 -5 -4 -9.5t-10 -4.5h-32q-38 0 -69.5 16.5t-51.5 45.5q-18 -22 -42.5 -34t-53.5 -17l-271 -38zM63 658l79 37q-1 0 -7 3t-11 14q-2 3 -8.5 17
t-9.5 20q-9 20 -9.5 30.5t-0.5 12.5q0 18 7 35t20 30.5t31 20.5l75 31l19 -47l-78 -35q-14 -7 -18.5 -19t-4.5 -19q0 -11 5 -21q1 -3 4.5 -9.5t7.5 -15t8.5 -16.5t7.5 -13l136 70l23 -45l-253 -129z" />
    <glyph glyph-name="uniFEF9" unicode="&#xfedf;&#xfe88;" horiz-adv-x="527" arabic-form="isolated" 
d="M50 45l109 14l-48 518l68 10l46 -519l92 12q36 5 56.5 27.5t20.5 62.5v489h69v-488q0 -36 -10 -63.5t-28 -48t-42.5 -32.5t-52.5 -16l-270 -38zM89 -322q14 7 36 17t42 20q-3 1 -6 3q-7 5 -12 15q-2 2 -8.5 15.5t-9.5 20.5q-9 20 -9.5 30.5t-0.5 11.5q0 19 7.5 36
t20.5 30.5t31 21.5l74 30l19 -47l-77 -34q-15 -7 -19.5 -19.5t-4.5 -20.5q0 -10 4 -19q2 -3 6 -10l7 -15q4 -8 8 -16.5t7 -14.5q23 12 47.5 24.5t44.5 23.5q23 12 45 24l23 -46l-253 -129z" />
    <glyph glyph-name="uniFEFA" unicode="&#xfee0;&#xfe88;" horiz-adv-x="579" arabic-form="final" 
d="M159 59l-49 518l69 10l46 -520l93 12q35 5 56 28t21 63v489h69v-506q0 -38 24 -54.5t54 -16.5h37q14 0 14 -14v-54q0 -5 -4 -9.5t-10 -4.5h-32q-38 0 -69.5 16.5t-51.5 45.5q-18 -22 -42.5 -34t-53.5 -17l-271 -38l-9 72zM89 -322l78 37q-1 0 -7 3.5t-12 14.5
q0 1 -2.5 5.5t-5 10.5t-5 11.5t-4.5 8.5q-9 20 -9.5 30.5t-0.5 11.5q0 19 7.5 36t20.5 30.5t31 20.5l74 31l19 -47l-77 -35q-15 -7 -19.5 -19.5t-4.5 -19.5q0 -10 4 -20q2 -3 5.5 -9.5t7.5 -15t8 -16.5t7 -13l137 71l23 -46l-253 -129z" />
    <glyph glyph-name="uniFEFB" unicode="&#xfedf;&#xfe8e;" horiz-adv-x="527" arabic-form="isolated" 
d="M159 59l-48 518l68 10l46 -519l92 12q36 5 56.5 27.5t20.5 62.5v489h69v-488q0 -36 -10 -63.5t-28 -48t-42.5 -32.5t-52.5 -16l-270 -38l-10 72z" />
    <glyph glyph-name="uniFEFC" unicode="&#xfee0;&#xfe8e;" horiz-adv-x="579" arabic-form="final" 
d="M159 59l-49 518l69 10l46 -520l93 12q35 5 56 28t21 63v489h69v-506q0 -38 24 -54.5t54 -16.5h37q14 0 14 -14v-54q0 -5 -4 -9.5t-10 -4.5h-32q-38 0 -69.5 16.5t-51.5 45.5q-18 -22 -42.5 -34t-53.5 -17l-271 -38l-9 72z" />
    <glyph glyph-name="uniFEB3FBFD" unicode="&#xfeb3;&#xfbfd;" horiz-adv-x="1311" 
d="M75 -15v239h69v-227q0 -27 10 -50.5t28 -41.5t41.5 -28t50.5 -10h185q22 0 42 8.5t34.5 22.5t23 33.5t8.5 42.5v40l-241 56v85q0 37 13 68t35 55t51 39t60 19l54 7q11 1 21 1q32 0 66.5 -16t57.5 -51l95 -143q16 -23 37.5 -37.5t50.5 -14.5q31 0 54 17.5t28 44.5l32 159
l66 -12l-25 -130q-1 -6 -1 -12q0 -9 3.5 -20.5t13 -22.5t23.5 -17.5t30 -6.5h86v257h69v-250q0 -40 -24.5 -64.5t-64.5 -24.5h-66q-70 0 -104 67q-21 -35 -52.5 -51t-69.5 -16q-44 0 -77.5 22t-64.5 70l-88 137q-14 22 -35.5 32t-41.5 10q-5 0 -11 -1l-67 -8
q-19 -2 -35.5 -12t-28.5 -24.5t-18.5 -32.5t-6.5 -38v-27l175 -41q31 -7 50.5 -31t19.5 -56v-36q0 -37 -13.5 -69.5t-37 -57t-55.5 -38.5t-69 -14h-187q-41 0 -77.5 16t-63.5 43t-42.5 63.5t-15.5 77.5z" />
    <glyph glyph-name="uniFEB4FBFD" unicode="&#xfeb4;&#xfbfd;" horiz-adv-x="1358" 
d="M75 -16v240h69v-228q0 -27 10 -50.5t27.5 -41t41 -28t50.5 -10.5h186q22 0 42 8.5t35 23t23 33t8 37.5v5v41l-242 56l1 85q0 36 13 67.5t35 55.5t50.5 39t59.5 19l55 7q10 1 20 1q32 0 67 -16.5t58 -51.5l95 -142q17 -23 38.5 -38t49.5 -15q31 0 53.5 17.5t27.5 45.5
l31 159l68 -13l-26 -129q-1 -6 -1 -13q0 -9 3.5 -20.5t13 -22.5t24 -17.5t30.5 -6.5h12q30 0 51.5 21t21.5 51v186h68v-191q0 -27 22 -46.5t51 -19.5h40q6 0 10.5 -4.5t4.5 -11.5v-52q-2 -14 -15 -14h-28q-36 0 -67.5 17t-51.5 50q-41 -67 -113 -67q-34 0 -64.5 16t-47.5 50
q-20 -34 -51 -50t-69 -16q-43 0 -77 21.5t-65 69.5l-88 137q-14 21 -36.5 31.5t-44.5 10.5h-8l-67 -9q-19 -2 -35 -11.5t-28 -24t-18.5 -32.5t-6.5 -38v-27l175 -40q32 -8 51 -32t19 -57v-35q0 -37 -13.5 -70t-37 -57.5t-55.5 -38.5t-70 -14h-186q-42 0 -78 16t-63 43
t-42.5 63.5t-15.5 77.5z" />
    <glyph glyph-name="uniFEB7FBFD" unicode="&#xfeb7;&#xfbfd;" horiz-adv-x="1307" 
d="M75 -15v240h69v-228q0 -27 10 -50.5t27.5 -41t41 -28t50.5 -10.5h186q22 0 41.5 8.5t34.5 23t23.5 34t8.5 41.5v41l-242 57v84q0 36 13.5 67.5t35.5 55.5t50.5 39t59.5 19l54 8q9 1 18 1q34 0 69.5 -16.5t58.5 -52.5l96 -142q14 -23 36 -38t51 -15q31 0 53.5 18t27.5 45
l32 159l67 -12l-25 -130q-1 -6 -1 -12q0 -25 18.5 -46.5t50.5 -21.5h87v258h69v-250q0 -40 -24.5 -65t-66.5 -25h-65q-70 0 -104 66q-21 -34 -52 -50t-69 -16q-44 0 -77.5 22t-64.5 70l-88 137q-14 22 -36.5 32t-44.5 10h-8l-67 -9q-19 -2 -34.5 -11.5t-27 -24t-18 -32.5
t-6.5 -37v-28l172 -40q32 -8 51.5 -32t19.5 -56v-36q0 -37 -13.5 -70t-37 -57.5t-55.5 -38.5t-70 -14h-187q-41 0 -77 16t-63 43t-42.5 63.5t-15.5 77.5zM953 506v-85h-85v85h85zM1090 506v-85h-85v85h85zM935 628h84v-85h-84v85z" />
    <glyph glyph-name="uniFEB8FBFD" unicode="&#xfeb8;&#xfbfd;" horiz-adv-x="1357" 
d="M144 224v-228q0 -27 10 -50.5t27.5 -41t41 -28t50.5 -10.5h186q22 0 41.5 8.5t34.5 23t23 34t8 41.5v41l-240 56v85q0 36 13 67.5t35 55.5t50.5 39t59.5 19l55 7q10 1 20 1q31 0 66 -16.5t58 -51.5l96 -142q17 -23 38.5 -38t49.5 -15q32 0 54.5 17.5t27.5 45.5l31 159
l67 -13l-25 -129q-1 -7 -1 -13q0 -9 3 -20.5t12.5 -22.5t24 -17.5t30.5 -6.5h12q30 0 51.5 21t21.5 51v186h68v-191q0 -27 22 -46.5t51 -19.5h40q6 0 10.5 -4.5t4.5 -11.5v-52q-2 -14 -15 -14h-28q-36 0 -67.5 17t-51.5 50q-41 -67 -113 -67q-35 0 -64.5 16t-46.5 50
q-20 -34 -51.5 -50t-69.5 -16q-43 0 -77 21.5t-65 69.5l-89 137q-14 21 -36 31.5t-44 10.5h-8l-67 -9q-19 -2 -34.5 -11.5t-27 -24t-18 -32.5t-6.5 -38v-27l173 -40q31 -8 50 -32t19 -57v-35q0 -37 -13.5 -70t-36.5 -57.5t-55 -38.5t-70 -14h-186q-42 0 -78 16t-63 43
t-42.5 63.5t-15.5 77.5v240h69zM868 421v85h85v-85h-85zM1019 628v-85h-85v85h85zM1005 506h85v-85h-85v85z" />
    <glyph glyph-name="uniFEBBFBFD" unicode="&#xfebb;&#xfbfd;" horiz-adv-x="1392" 
d="M75 -13v239h69v-227q0 -27 10 -51t27.5 -41.5t41.5 -27.5t52 -10h185q23 0 42.5 8.5t33.5 23t22.5 34t8.5 41.5v40l-241 56v84q0 37 13.5 68.5t35 55.5t50.5 39t61 18l70 9q10 1 20 1q32 0 66 -16t57 -51l88 -134q5 -9 13.5 -18.5t14.5 -16.5l168 181q29 30 67 47t80 17
h61q29 0 54.5 -11t44.5 -30t30 -44.5t11 -54.5v-70q0 -30 -11 -56.5t-30.5 -46.5t-45.5 -31.5t-56 -11.5h-306q-46 0 -80 23t-64 71l-88 136q-14 23 -36 33.5t-42 10.5q-6 0 -11 -1l-80 -9q-19 -2 -35.5 -12t-28.5 -24.5t-19 -32.5t-7 -37v-29l175 -40q31 -8 50 -31.5
t19 -55.5v-36q0 -38 -13 -70.5t-36.5 -56.5t-55 -38t-68.5 -14h-187q-41 0 -77.5 16t-63.5 43t-43 63.5t-16 77.5zM878 82h319q27 0 46 20t19 47v62q0 29 -20 49t-49 20h-67q-30 0 -57.5 -12t-48.5 -33z" />
    <glyph glyph-name="uniFEBCFBFD" unicode="&#xfebc;&#xfbfd;" horiz-adv-x="1436" 
d="M74 -15v240h69v-228q0 -28 10 -52t28 -41.5t42 -27.5t51 -10h187q22 0 41.5 8.5t34.5 23.5t23 34.5t8 41.5v39l-243 57v85q0 36 13.5 67.5t36 55.5t51.5 39.5t61 19.5l69 9q9 1 18 1q34 0 70 -16.5t59 -51.5q1 -1 11 -17.5t23.5 -37t26.5 -40.5t19 -29q2 -3 6.5 -9.5
t10 -13t10 -12.5t7.5 -9l165 179q29 31 67.5 48.5t81.5 17.5h61q29 0 54.5 -11t45 -30.5t31 -45.5t11.5 -55v-59q0 -29 21 -51t50 -22h31q14 0 14 -13v-56q0 -13 -14 -13h-19q-35 0 -65 15t-50 41q-20 -26 -49.5 -41t-64.5 -15h-305q-46 0 -79 22t-64 69l-88 136
q-15 23 -38 33t-43 10q-6 0 -12 -1l-78 -8q-18 -2 -34.5 -11.5t-29 -24t-20 -32.5t-7.5 -37v-29l176 -39q32 -7 51.5 -31t19.5 -56v-39q0 -37 -13.5 -69.5t-37 -56.5t-55 -38t-68.5 -14h-189q-42 0 -78.5 16t-63.5 43t-42.5 63.5t-15.5 78.5zM1198 82q26 0 46.5 19.5
t20.5 45.5v62q0 29 -21 48.5t-50 19.5h-67q-64 0 -106 -45l-140 -150h317z" />
    <glyph glyph-name="uniFEBFFBFD" unicode="&#xfebf;&#xfbfd;" horiz-adv-x="1392" 
d="M144 226v-227q0 -27 10 -51t27.5 -41.5t41.5 -27.5t52 -10h185q23 0 42.5 8.5t33.5 23t22.5 34t8.5 41.5v40l-241 56v84q0 37 13.5 68.5t35 55.5t50.5 39t61 18l70 9q10 1 20 1q32 0 66 -16t57 -51l88 -134q5 -9 13.5 -18.5t14.5 -16.5l168 181q29 30 67 47t80 17h61
q29 0 54.5 -11t44.5 -30t30 -44.5t11 -54.5v-70q0 -30 -11 -56.5t-30.5 -46.5t-45.5 -31.5t-56 -11.5h-306q-46 0 -80 23t-64 71l-88 136q-14 23 -36 33.5t-42 10.5q-6 0 -11 -1l-80 -9q-19 -2 -35.5 -12t-28.5 -24.5t-19 -32.5t-7 -37v-29l175 -40q31 -8 50 -31.5t19 -55.5
v-36q0 -38 -13 -70.5t-36.5 -56.5t-55 -38t-68.5 -14h-187q-41 0 -77.5 16t-63.5 43t-43 63.5t-16 77.5v239h69zM1197 82q27 0 46 20t19 47v62q0 29 -20 49t-49 20h-67q-30 0 -57.5 -12t-48.5 -33l-142 -153h319zM1102 557h85v-86h-85v86z" />
    <glyph glyph-name="uniFEC0FBFD" unicode="&#xfec0;&#xfbfd;" horiz-adv-x="1435" 
d="M144 224v-228q0 -27 10 -51t27.5 -41.5t41.5 -27.5t51 -10h187q22 0 41.5 8.5t33.5 23t22.5 34t8.5 42.5v39l-241 57v84q0 36 13 67.5t35.5 55.5t51.5 39t61 19l70 9q9 1 18 1q33 0 68 -16t58 -52q1 -1 11.5 -17t24 -37t26.5 -41.5t19 -29.5q2 -3 6.5 -9t10 -12.5t10 -12
t7.5 -8.5l166 179q29 31 67 48t81 17h61q29 0 54.5 -11t44.5 -30t30 -45t11 -55v-59q0 -29 21.5 -50.5t50.5 -21.5h32q14 0 14 -14v-54q0 -14 -14 -14h-20q-35 0 -65 15t-50 41q-19 -26 -48.5 -41t-64.5 -15h-305q-46 0 -79 22t-63 69l-88 136q-15 23 -38 33t-43 10
q-5 0 -11 -1l-78 -8q-19 -2 -35.5 -11.5t-29 -24t-19.5 -32.5t-7 -38v-29l175 -39q32 -7 51 -31t19 -56v-37q0 -37 -13.5 -69.5t-36.5 -57t-55 -38.5t-68 -14h-188q-42 0 -78.5 16t-63.5 43t-42.5 63.5t-15.5 78.5v239h69zM880 82h317q27 0 46 18.5t19 45.5v63
q0 29 -20 48.5t-49 19.5h-67q-31 0 -59 -12t-48 -34zM1189 557v-86h-85v86h85z" />
    <glyph glyph-name="uniFE92FBFD" unicode="&#xfe92;&#xfbfd;" horiz-adv-x="910" 
d="M144 225v-228q0 -27 10 -51t27.5 -41t41.5 -27t51 -10h185q23 0 42.5 8.5t33.5 22.5t22.5 33.5t8.5 42.5v40l-240 57v84q0 36 13 67t35 54.5t51 39t61 19.5l72 8l20 2q31 -1 64.5 -16.5t56.5 -49.5q8 -11 23 -35t32 -49q18 -29 40 -62q15 -23 38 -37.5t53 -14.5h25
q14 0 14 -14v-53q0 -6 -4 -10.5t-10 -4.5h-26q-47 0 -80.5 22.5t-65.5 69.5l-88 138q-14 23 -36 33t-42 10q-6 0 -13 -1l-79 -9q-19 -2 -35.5 -12t-28.5 -24.5t-18.5 -32.5t-6.5 -38v-30l175 -38q31 -8 50 -31.5t19 -55.5v-36q0 -37 -13.5 -69.5t-37 -57t-55 -38.5
t-68.5 -14h-186q-41 0 -77.5 15.5t-63.5 42.5t-43 63.5t-16 78.5v239h69zM728 -205v84h84v-84h-84z" />
    <glyph glyph-name="uniFB59FBFD" unicode="&#xfb59;&#xfbfd;" horiz-adv-x="972" 
d="M75 -14v239h69v-228q0 -27 10 -51t27.5 -41.5t41.5 -27.5t51 -10h185q23 0 42.5 8.5t33.5 23t22.5 34t8.5 42.5v40l-240 57v84q0 36 13 67t35 54.5t51 39t61 19.5l72 8l20 2q31 -1 64.5 -16.5t56.5 -49.5q8 -11 23 -35t32 -49q18 -29 40 -62q15 -23 38 -37.5t53 -14.5h87
q6 0 10 -4.5t4 -10.5v-52q0 -6 -4 -10.5t-10 -4.5h-88q-47 0 -80.5 22.5t-65.5 69.5l-88 138q-14 23 -36 33t-42 10q-6 0 -13 -1l-79 -9q-19 -2 -35.5 -12t-28.5 -24.5t-19 -32.5t-7 -38v-30l176 -38q31 -7 50 -31t19 -56v-36q0 -37 -13.5 -69.5t-37 -57t-55 -38.5
t-68.5 -14h-186q-41 0 -77.5 15.5t-63.5 42.5t-43 63.5t-16 78.5zM770 -120v-85h-85v85h85zM755 -242h85v-85h-85v85zM907 -120v-85h-85v85h85z" />
    <glyph glyph-name="uniFE98FBFD" unicode="&#xfe98;&#xfbfd;" horiz-adv-x="910" 
d="M144 224v-227q0 -27 10 -50.5t27.5 -41.5t41.5 -28t51 -10h185q22 0 41.5 8.5t34 23t23 34t8.5 41.5v40l-240 57v84q0 35 13 66t35 55t51 39.5t61 19.5l70 9q9 1 19 1q32 0 66.5 -15.5t57.5 -50.5l95 -145q14 -23 37 -37.5t53 -14.5h26q14 0 14 -14v-54q0 -14 -14 -14
h-27q-47 0 -80.5 22t-64.5 69l-88 137q-14 23 -36.5 33.5t-41.5 10.5q-7 0 -13 -1l-79 -9q-19 -3 -35.5 -12.5t-28.5 -24t-18.5 -32.5t-6.5 -37v-29l174 -39q32 -7 51 -31t19 -56v-36q0 -38 -13.5 -70.5t-36.5 -57t-55 -38.5t-69 -14h-186q-42 0 -78.5 16t-63.5 43
t-42.5 63.5t-15.5 77.5v239h69zM674 474v85h85v-85h-85zM537 559h85v-85h-85v85z" />
    <glyph glyph-name="uniFE9CFBFD" unicode="&#xfe9c;&#xfbfd;" horiz-adv-x="911" 
d="M77 -15v239h68v-227q0 -27 10 -51t28 -41.5t41.5 -27.5t50.5 -10h185q23 0 42.5 8.5t33.5 22.5t22.5 33.5t8.5 42.5v40l-241 57l1 84q1 35 14 66t35 55t50.5 39.5t59.5 19.5l72 9q9 1 18 1q33 0 67 -15.5t57 -50.5l95 -145q15 -23 38 -37.5t53 -14.5h25q5 0 9.5 -4
t4.5 -10v-54q0 -6 -4.5 -10t-9.5 -4h-26q-47 0 -81 22t-64 69l-89 137q-14 23 -36 33.5t-42 10.5q-6 0 -13 -1l-79 -9q-19 -3 -35.5 -12.5t-28.5 -24t-18.5 -32.5t-6.5 -37v-29l175 -39q31 -7 50 -31t19 -56v-37q0 -37 -13.5 -69.5t-36.5 -57t-55 -38.5t-69 -14h-186
q-41 0 -77.5 15.5t-63.5 42.5t-42.5 63.5t-15.5 78.5zM537 472v86h86v-86h-86zM604 595v86h86v-86h-86zM675 472v86h86v-86h-86z" />
    <glyph glyph-name="uniFEE8FBFD" unicode="&#xfee8;&#xfbfd;" horiz-adv-x="910" 
d="M75 -14v239h69v-227q0 -27 10 -50.5t27.5 -41.5t41.5 -28t51 -10h185q22 0 41.5 8.5t34 23t23 34t8.5 41.5v40l-240 57v84q0 35 13 66t35 55t51 39.5t61 19.5l70 9q9 1 19 1q32 0 66.5 -15.5t57.5 -50.5l95 -145q14 -23 37 -37.5t53 -14.5h26q14 0 14 -14v-54
q0 -14 -14 -14h-27q-47 0 -80.5 22t-64.5 69l-88 137q-14 23 -36.5 33.5t-41.5 10.5q-7 0 -13 -1l-79 -9q-19 -3 -35.5 -12.5t-28.5 -24t-18.5 -32.5t-6.5 -37v-29l174 -39q32 -7 51 -31t19 -56v-36q0 -38 -13.5 -70.5t-36.5 -57t-55 -38.5t-69 -14h-186q-42 0 -78.5 16
t-63.5 43t-42.5 63.5t-15.5 77.5zM689 559v-85h-85v85h85z" />
    <glyph glyph-name="uniFBFDFE8C" unicode="&#xfe8c;&#xfbfd;" horiz-adv-x="910" 
d="M75 -15v239h69v-228q0 -27 10 -51t27.5 -41t41.5 -27t51 -10h185q23 0 42.5 8.5t33.5 22.5t22.5 33.5t8.5 42.5v40l-240 57v84q0 36 13 67t35 54.5t51 39t61 19.5l72 8l20 2q31 -1 64.5 -16.5t56.5 -49.5q8 -11 23 -35t32 -49q18 -29 40 -62q15 -23 38 -37.5t53 -14.5h25
q14 0 14 -14v-53q0 -6 -4 -10.5t-10 -4.5h-26q-47 0 -80.5 22.5t-65.5 69.5l-88 138q-14 23 -36 33t-42 10q-6 0 -13 -1l-79 -9q-19 -2 -35.5 -12t-28.5 -24.5t-18.5 -32.5t-6.5 -38v-30l175 -38q31 -8 50 -31.5t19 -55.5v-36q0 -37 -13.5 -69.5t-37 -57t-55 -38.5
t-68.5 -14h-186q-41 0 -77.5 15.5t-63.5 42.5t-43 63.5t-16 78.5zM566 509q-1 1 -6.5 4t-10.5 14q-2 3 -8.5 17t-9.5 20q-9 20 -9.5 30.5t-0.5 11.5q0 19 7.5 35.5t20.5 30.5t31 21l74 31l19 -47l-77 -35q-15 -7 -19.5 -19t-4.5 -19q0 -11 5 -21l6 -11q3 -7 7 -15.5t8 -16
t6 -12.5l137 71l23 -46l-252 -128l-23 48z" />
    <glyph glyph-name="uniFBFDFBFF" unicode="&#xfbff;&#xfbfd;" horiz-adv-x="972" 
d="M75 -15v239h69v-227q0 -27 10 -51t27.5 -41.5t41.5 -27.5t51 -10h185q22 0 41.5 8.5t34 22.5t23 33.5t8.5 42.5v40l-241 57l1 84q0 35 13 66.5t35 55.5t50.5 39t60.5 19l71 9q9 1 19 1q32 0 66.5 -15.5t57.5 -50.5l95 -145q14 -23 37 -37.5t53 -14.5h88q14 0 14 -14v-54
q0 -14 -14 -14h-89q-47 0 -80.5 22t-64.5 69l-88 137q-14 23 -36.5 33.5t-41.5 10.5q-7 0 -13 -1l-79 -9q-19 -3 -35.5 -12.5t-28.5 -24t-18.5 -32.5t-6.5 -37v-29l174 -39q32 -7 51 -31t19 -56v-37q0 -37 -13.5 -69.5t-36.5 -57t-55 -38.5t-69 -14h-187q-41 0 -77 15.5
t-63 42.5t-43 63.5t-16 78.5zM832 -206v85h85v-85h-85zM780 -121v-85h-85v85h85z" />
    <glyph glyph-name="uni0621" unicode="&#x621;" horiz-adv-x="456" arabic-form="isolated" 
d="M68 40l94 47q-2 0 -10.5 5t-16.5 20l-18 37q-11 23 -11.5 35.5t-0.5 13.5q0 22 8.5 42t24 36t36.5 24l87 36l25 -55l-90 -40q-19 -9 -25 -23t-6 -23q0 -11 6 -22q2 -3 5.5 -11.5t8 -18t9.5 -19.5t8 -17l161 84l26 -54l-295 -151z" />
    <glyph glyph-name="uni0622" unicode="&#x622;" horiz-adv-x="241" arabic-form="isolated" 
d="M94 579h69v-579h-69v579zM-30 604v38q0 34 21.5 56t56.5 22h190v-61h-191q-10 0 -17.5 -7.5t-7.5 -18.5v-29h-52z" />
    <glyph glyph-name="uni0623" unicode="&#x623;" horiz-adv-x="215" arabic-form="isolated" 
d="M154 579v-579h-69v579h69zM59 707q-1 1 -7 4t-12 14q-1 2 -7.5 16t-10.5 21q-9 20 -9.5 30.5t-0.5 11.5q0 18 7.5 35t20.5 30.5t31 20.5l75 31l19 -46l-77 -36q-15 -7 -19.5 -19.5t-4.5 -19.5q0 -10 4 -19q2 -3 6 -10l7 -15q4 -8 8 -16.5t7 -13.5l137 71l23 -46
l-252 -129l-24 47z" />
    <glyph glyph-name="uni0624" unicode="&#x624;" horiz-adv-x="477" arabic-form="isolated" 
d="M68 157l17 91q4 23 16 42.5t29 33.5t38.5 22t45.5 8h56q29 0 54.5 -11t44.5 -29.5t30 -44t11 -54.5v-218q0 -35 -11 -68t-30.5 -60.5t-47 -48.5t-61.5 -32l-114 -39l-22 69l120 40q43 15 69.5 50.5t26.5 81.5v18q-8 -5 -18.5 -6.5t-21.5 -1.5h-103q-31 0 -57.5 13
t-44.5 35t-24 44t-6 39q0 13 3 26zM147 102q17 -20 43 -20h151v133q0 26 -18.5 44.5t-44.5 18.5h-66q-23 0 -40 -14t-22 -37l-15 -80q-1 -6 -1 -11q0 -19 13 -34zM151 508q-3 1 -6 3q-6 6 -11 15q-1 1 -3 5.5t-5 10.5t-5.5 11.5t-4.5 8.5q-9 20 -9.5 30.5t-0.5 12.5
q0 18 7 35t20.5 30.5t31.5 20.5l74 31l19 -47l-77 -34q-15 -7 -19.5 -19.5t-4.5 -19.5q0 -10 5 -20q1 -3 5 -10l7 -15q4 -8 8.5 -16.5t7.5 -14.5l137 72l22 -46l-253 -129l-22 48z" />
    <glyph glyph-name="uni0625" unicode="&#x625;" horiz-adv-x="219" arabic-form="isolated" 
d="M152 659v-659h-69v659h69zM61 -269q-1 1 -7 4t-12 14q-1 2 -7.5 16t-10.5 21q-9 20 -9.5 30.5t-0.5 11.5q0 18 7.5 35t20.5 30.5t31 20.5l75 31l19 -46l-77 -36q-15 -7 -19.5 -19.5t-4.5 -19.5q0 -10 4 -19q2 -3 6 -10l7 -15q4 -8 8 -16.5t7 -13.5l137 71l23 -46
l-252 -129l-24 47z" />
    <glyph glyph-name="uni0626" unicode="&#x626;" horiz-adv-x="759" arabic-form="isolated" 
d="M181 267v-219q0 -27 10 -50.5t28 -41t42 -28t51 -10.5h205q22 0 41.5 8.5t34 23t23 34.5t8.5 42v39l-273 64v106q0 36 12.5 67.5t34.5 55.5t50.5 39t61.5 19l116 15l11 -72l-132 -18q-19 -3 -35 -12.5t-27.5 -24t-18 -32t-6.5 -36.5v-49l205 -48q32 -7 51 -29t19 -54v-40
q0 -37 -14 -70t-38.5 -57.5t-57 -38.5t-69.5 -14h-202q-41 0 -77.5 16t-63.5 43t-43 63.5t-16 78.5v230h69zM111 463l42 20q-3 1 -6 3q-7 5 -12 14l-18 36q-9 20 -9.5 30.5t-0.5 12.5q0 18 7 35t20.5 31t31.5 21l75 31l19 -47l-78 -35q-15 -7 -19.5 -19t-4.5 -19
q0 -11 5 -21q1 -3 4.5 -9.5t8 -15t8.5 -16.5l7 -14q23 12 47 24t44 23q24 12 46 24l22 -45l-253 -129l-22 48q14 6 36 17z" />
    <glyph glyph-name="uni0627" unicode="&#x627;" horiz-adv-x="209" arabic-form="isolated" 
d="M75 0v659h69v-659h-69z" />
    <glyph glyph-name="uni0628" unicode="&#x628;" horiz-adv-x="849" arabic-form="isolated" 
d="M75 179v159h69v-149q0 -22 8.5 -42t23 -34t34 -22.5t41.5 -8.5h395q30 0 51.5 21t21.5 52v183h69v-183q0 -32 -12 -60.5t-33 -49.5t-49 -33t-60 -12h-380q-37 0 -69.5 14t-57 38.5t-38.5 57t-14 69.5zM474 -119v-85h-85v85h85z" />
    <glyph glyph-name="uni0629" unicode="&#x629;" horiz-adv-x="486" arabic-form="isolated" 
d="M75 155v34q0 39 16.5 70.5t43.5 48.5q11 7 21 13.5t18 11.5q9 6 18 11l-67 45l37 59l14 -9q14 -10 35 -24.5t47 -32t49 -33t40 -27.5t22 -15q27 -19 41.5 -50t14.5 -66v-36q0 -32 -12 -62t-34 -53t-52.5 -36.5t-66.5 -13.5h-21q-36 0 -66 13.5t-51.5 36.5t-34 53
t-12.5 62zM144 200v-38q0 -37 26.5 -63.5t65.5 -26.5h28q20 0 37 7.5t29 20t19 28.5t7 33v38q0 31 -27 52q-4 2 -17 10.5t-27 18.5q-16 11 -36 24l-80 -55q-11 -8 -17.5 -19.5t-7.5 -29.5zM272 651h85v-85h-85v85zM220 651v-85h-85v85h85z" />
    <glyph glyph-name="uni062A" unicode="&#x62a;" horiz-adv-x="849" arabic-form="isolated" 
d="M75 179v159h69v-149q0 -22 8.5 -42t23 -34t34 -22.5t41.5 -8.5h395q30 0 51.5 21t21.5 52v183h69v-183q0 -32 -12 -60.5t-33 -49.5t-49 -33t-60 -12h-380q-37 0 -69.5 14t-57 38.5t-38.5 57t-14 69.5zM457 423h85v-85h-85v85zM405 423v-85h-85v85h85z" />
    <glyph glyph-name="uni062B" unicode="&#x62b;" horiz-adv-x="849" arabic-form="isolated" 
d="M144 338v-149q0 -22 8.5 -42t23 -34t34 -22.5t41.5 -8.5h395q30 0 51.5 21t21.5 52v183h69v-183q0 -32 -12 -60.5t-33 -49.5t-49 -33t-60 -12h-380q-37 0 -69.5 14t-57 38.5t-38.5 57t-14 69.5v159h69zM405 423v-85h-85v85h85zM386 545h85v-85h-85v85zM542 423v-85h-85
v85h85z" />
    <glyph glyph-name="uni062C" unicode="&#x62c;" horiz-adv-x="670" arabic-form="isolated" 
d="M99 323q8 26 24 44t37 28t35.5 11t19.5 2q17 -1 32 -5l363 -109l-21 -63l-56 14q-9 3 -17 3q-6 0 -15.5 -2t-20.5 -10l-252 -185q-31 -23 -48 -56t-17 -71q0 -35 13.5 -65t36 -53t53.5 -36t65 -13h235v-82h-235q-49 0 -93 19t-77 51.5t-52 76t-19 93.5q0 57 26 106.5
t71 82.5q21 15 52 37.5t62.5 45.5t59 43.5t43.5 31.5q7 5 13.5 10t11.5 7l-211 62q-5 2 -11 2q-11 0 -25.5 -9t-19.5 -27l-25 -80l-61 16zM441 -15v-85h-85v85h85z" />
    <glyph glyph-name="uni062D" unicode="&#x62d;" horiz-adv-x="670" arabic-form="isolated" 
d="M98 322q8 26 24 44t37 28t35.5 11t19.5 2q17 -1 32 -5l363 -109l-21 -63l-56 14q-9 3 -17 3q-6 0 -15.5 -2t-20.5 -10l-252 -185q-31 -23 -48 -56t-17 -71q0 -35 13.5 -65t36 -53t53.5 -36t65 -13h235v-82h-235q-49 0 -93 19t-77 51.5t-52 76t-19 93.5q0 57 26 106.5
t71 82.5q21 15 52 37.5t62.5 45.5t59 43.5t43.5 31.5q7 5 13.5 10t11.5 7l-211 62q-5 2 -11 2q-11 0 -25.5 -9t-19.5 -27l-25 -80l-61 16z" />
    <glyph glyph-name="uni062E" unicode="&#x62e;" horiz-adv-x="671" arabic-form="isolated" 
d="M75 243l23 79q8 26 24.5 44.5t37.5 28.5t35.5 11t19.5 2q17 -1 32 -5l363 -109l-21 -63l-56 14q-10 3 -18 3q-19 0 -35 -12l-253 -185q-30 -23 -47 -56t-17 -71q0 -35 13 -65t36 -53t53.5 -36t65.5 -13h235v-81h-235q-50 0 -93.5 19t-76.5 51.5t-52 76t-19 92.5
q1 57 26.5 106.5t70.5 81.5q21 16 52 38.5t62 45.5t59 43.5t43 31.5t26 16l-211 62q-5 2 -11 2q-11 0 -25.5 -9t-19.5 -26l-26 -80zM161 526v85h85v-85h-85z" />
    <glyph glyph-name="uni062F" unicode="&#x62f;" horiz-adv-x="548" arabic-form="isolated" 
d="M134 215v-91q0 -17 10 -29.5t30 -12.5h157q30 0 49 13t27.5 30.5t8.5 37.5q0 2 -0.5 14t-10.5 30l-115 205l58 39l114 -204q25 -42 25 -86q0 -1 -0.5 -23.5t-20 -57.5t-56 -57.5t-83.5 -22.5h-144q-22 0 -42 8.5t-34.5 23.5t-23 35t-8.5 42v106h59z" />
    <glyph glyph-name="uni0630" unicode="&#x630;" horiz-adv-x="548" arabic-form="isolated" 
d="M134 215v-91q0 -17 10 -29.5t30 -12.5h157q30 0 49 13t27.5 30.5t8.5 37.5q0 2 -0.5 14t-10.5 30l-115 205l58 39l114 -204q25 -42 25 -86q0 -1 -0.5 -23.5t-20 -57.5t-56 -57.5t-83.5 -22.5h-144q-22 0 -42 8.5t-34.5 23.5t-23 35t-8.5 42v106h59zM229 655h85v-85h-85
v85z" />
    <glyph glyph-name="uni0631" unicode="&#x631;" horiz-adv-x="320" arabic-form="isolated" 
d="M82 -141q42 14 68.5 51t26.5 82v317h68v-311q0 -35 -10.5 -67.5t-30 -60t-47 -48t-60.5 -32.5l-115 -39l-22 68z" />
    <glyph glyph-name="uni0632" unicode="&#x632;" horiz-adv-x="328" arabic-form="isolated" 
d="M82 -141q42 14 68.5 51t26.5 82v317h68v-311q0 -35 -10.5 -67.5t-30 -60t-47 -48t-60.5 -32.5l-115 -39l-22 68zM253 511v-85h-85v85h85z" />
    <glyph glyph-name="uni0633" unicode="&#x633;" horiz-adv-x="1153" arabic-form="isolated" 
d="M75 26v267h69v-256q0 -27 10.5 -50.5t28 -41t41.5 -27.5t51 -10h174q23 0 42.5 8.5t34.5 23t23.5 34t8.5 42.5v294h69v-157q0 -30 21 -50.5t51 -20.5h17q29 0 51 17.5t27 45.5l32 158l67 -11l-25 -128q-1 -6 -1 -13q0 -9 3.5 -21t13 -23t23 -18t29.5 -7h87v257h69v-249
q0 -41 -24.5 -65.5t-65.5 -24.5h-66q-34 0 -62 16.5t-46 49.5q-20 -34 -50 -50t-65 -16q-23 0 -46 8.5t-41 31.5v-42q0 -36 -14 -67.5t-38.5 -54.5t-57 -36.5t-68.5 -13.5h-172q-42 0 -78.5 15.5t-63.5 42.5t-43 63.5t-16 78.5z" />
    <glyph glyph-name="uni0634" unicode="&#x634;" horiz-adv-x="1153" arabic-form="isolated" 
d="M75 26v267h69v-256q0 -27 10.5 -50.5t28 -41t41.5 -27.5t51 -10h174q23 0 42.5 8.5t34.5 23t23.5 34t8.5 42.5v294h69v-157q0 -30 21 -50.5t51 -20.5h17q29 0 51 17.5t27 45.5l32 158l67 -11l-25 -128q-1 -6 -1 -13q0 -9 3.5 -21t13 -23t23 -18t29.5 -7h87v257h69v-249
q0 -41 -24.5 -65.5t-65.5 -24.5h-66q-34 0 -62 16.5t-46 49.5q-20 -34 -50 -50t-65 -16q-23 0 -46 8.5t-41 31.5v-42q0 -36 -14 -67.5t-38.5 -54.5t-57 -36.5t-68.5 -13.5h-172q-42 0 -78.5 15.5t-63.5 42.5t-43 63.5t-16 78.5zM715 422v85h85v-85h-85zM865 629v-85h-85v85
h85zM937 507v-85h-85v85h85z" />
    <glyph glyph-name="uni0635" unicode="&#x635;" horiz-adv-x="1222" arabic-form="isolated" 
d="M75 25v268h69v-255q0 -27 10 -51t28 -42t41.5 -28t50.5 -10h174q23 0 43 8.5t35 23.5t23.5 34.5t8.5 42.5v293h68v-138q0 -17 3.5 -28t8.5 -18q5 -8 12 -12l162 177q29 30 67.5 47t80.5 17h61q29 0 54.5 -11t44.5 -30t30 -44.5t11 -54.5v-70q0 -30 -11 -56t-30.5 -45.5
t-45.5 -31t-56 -11.5h-272q-42 0 -73.5 8.5t-46.5 30.5v-40q0 -36 -14 -68t-38.5 -55.5t-57 -37t-68.5 -13.5h-173q-41 0 -77.5 16t-63.5 43t-43 63.5t-16 77.5zM711 82h316q27 0 46 18t19 47v62q0 29 -20 49t-49 20h-67q-33 0 -59 -12t-46 -34z" />
    <glyph glyph-name="uni0636" unicode="&#x636;" horiz-adv-x="1222" arabic-form="isolated" 
d="M75 25v268h69v-255q0 -27 10 -51t28 -42t41.5 -28t50.5 -10h174q23 0 43 8.5t35 23.5t23.5 34.5t8.5 42.5v293h68v-138q0 -17 3.5 -28t8.5 -18q5 -8 12 -12l162 177q29 30 67.5 47t80.5 17h61q29 0 54.5 -11t44.5 -30t30 -44.5t11 -54.5v-70q0 -30 -11 -56t-30.5 -45.5
t-45.5 -31t-56 -11.5h-272q-42 0 -73.5 8.5t-46.5 30.5v-40q0 -36 -14 -68t-38.5 -55.5t-57 -37t-68.5 -13.5h-173q-41 0 -77.5 16t-63.5 43t-43 63.5t-16 77.5zM711 82h316q27 0 46 18t19 47v62q0 29 -20 49t-49 20h-67q-33 0 -59 -12t-46 -34zM918 557h85v-85h-85v85z" />
    <glyph glyph-name="uni0637" unicode="&#x637;" horiz-adv-x="734" arabic-form="isolated" 
d="M130 82l111 119v458h68v-351q0 -16 -3 -28t-3 -13l5 5q4 4 8.5 9t8.5 9.5t5 5.5q28 28 64.5 43t76.5 15h61q29 0 54.5 -11t44.5 -30t30 -44.5t11 -54.5v-70q0 -30 -11 -56t-30.5 -45.5t-45.5 -31t-56 -11.5h-454v82h55zM538 82q27 0 46 19t19 45v63q0 29 -19.5 49
t-48.5 20h-68q-31 0 -58 -12t-48 -34l-141 -150h318z" />
    <glyph glyph-name="uni0638" unicode="&#x638;" horiz-adv-x="734" arabic-form="isolated" 
d="M75 82h55l111 119v458h68v-351q0 -17 -3 -28q-1 -7 -3 -13l13 13q4 4 8 8.5t7 7.5q27 28 63.5 43t76.5 15h61q29 0 54.5 -11t44.5 -30t30 -44.5t11 -54.5v-70q0 -30 -11 -56t-30.5 -45.5t-45.5 -31t-56 -11.5h-454v82zM538 82q27 0 46.5 18.5t19.5 45.5v63q0 29 -20 49
t-49 20h-68q-31 0 -58 -12t-48 -34l-141 -150h318zM442 557h85v-85h-85v85z" />
    <glyph glyph-name="uni0639" unicode="&#x639;" horiz-adv-x="566" arabic-form="isolated" 
d="M99 -88q24 49 70 82q-15 16 -19 40l-31 156q-3 13 -3 26q0 16 6 38t24 44t44.5 35t57.5 13h144v-76h-150q-13 0 -24.5 -5.5t-19.5 -15.5t-10.5 -19t-2.5 -17q0 -6 1 -12l36 -182q17 5 56 17.5t80 25.5q48 15 103 33l20 -63l-233 -73q-16 -5 -34 -15t-32.5 -26.5t-24 -39
t-9.5 -52.5q0 -33 12.5 -63t34.5 -52.5t53 -35.5t68 -13h182v-81h-182q-50 0 -94 19t-76.5 51t-51.5 74.5t-19 89.5q0 48 24 97z" />
    <glyph glyph-name="uni063A" unicode="&#x63a;" horiz-adv-x="566" arabic-form="isolated" 
d="M75 -184q0 48 24 96.5t70 81.5q-15 16 -19 40l-26 149q-3 13 -3 25q0 17 6.5 39t24.5 43.5t44 34.5t57 13h144v-76h-150q-27 0 -42.5 -19t-15.5 -39q0 -5 1 -10l32 -175q17 5 56 17.5t80 25.5q48 15 103 33l20 -63l-233 -73q-16 -5 -34 -15t-32.5 -26.5t-24 -39
t-9.5 -51.5q0 -33 13 -63t36 -52.5t53.5 -36t65.5 -13.5h182v-81h-182q-50 0 -94 19t-76.5 51t-51.5 74.5t-19 90.5zM312 554v-85h-85v85h85z" />
    <glyph glyph-name="uni0641" unicode="&#x641;" horiz-adv-x="850" arabic-form="isolated" 
d="M75 181v156h69v-153q0 -45 28.5 -73.5t74.5 -28.5h392q32 0 56 17.5t24 56.5v3v14q-19 -8 -40 -8h-97q-31 0 -57.5 13t-44.5 35t-24.5 44.5t-6.5 39.5q0 12 3 25l16 84q9 47 45 77t84 30h53q29 0 54.5 -11t44 -30t29.5 -44.5t11 -54.5v-219q0 -32 -12 -60t-33 -49
t-49.5 -33t-60.5 -12h-377q-40 0 -73.5 14t-57.5 38.5t-37.5 57.5t-13.5 71zM532 266q17 -20 43 -20h145v127q0 27 -18.5 45.5t-44.5 18.5h-61q-23 0 -40.5 -14.5t-21.5 -37.5l-14 -73q-1 -6 -1 -12q0 -19 13 -34zM670 715v-85h-85v85h85z" />
    <glyph glyph-name="uni0642" unicode="&#x642;" horiz-adv-x="695" arabic-form="isolated" 
d="M75 -25v240h69v-228q0 -27 10.5 -51t28 -41.5t41 -28t50.5 -10.5h174q23 0 43 8.5t35 23t23.5 34t8.5 41.5v45q-4 -1 -15 -4.5t-26 -3.5h-97q-31 0 -57.5 13t-44.5 35t-24.5 44.5t-6.5 39.5q0 13 3 26l16 84q9 47 45 76.5t84 29.5h52q29 0 55 -11t45 -29.5t29.5 -44
t10.5 -54.5v-255q0 -37 -14 -69.5t-38.5 -57t-57 -38.5t-69.5 -14h-173q-41 0 -77.5 16t-63.5 43t-43 63.5t-16 77.5zM370 102q16 -20 42 -20h146v127q0 26 -18.5 44.5t-44.5 18.5h-62q-23 0 -40 -14.5t-21 -37.5l-14 -73q-1 -6 -1 -11q0 -19 13 -34zM489 466v85h86v-85h-86
zM352 551h85v-85h-85v85z" />
    <glyph glyph-name="uni0643" unicode="&#x643;" horiz-adv-x="853" arabic-form="isolated" 
d="M145 337v-148q0 -22 8.5 -42t23 -34t34 -22.5t41.5 -8.5h395q30 0 51.5 21t21.5 51v513h69v-513q0 -32 -12.5 -60t-33.5 -49t-49 -33t-60 -12h-379q-37 0 -69.5 14t-57 38.5t-38.5 57t-14 69.5v158h69zM294 319l79 38q-2 0 -8 3.5t-11 13.5q0 1 -2.5 5.5t-5 10.5t-5.5 12
t-5 9q-9 20 -9.5 30.5t-0.5 11.5q0 19 7.5 36t20.5 30.5t31 20.5l75 31l19 -47l-77 -35q-16 -7 -20.5 -19.5t-4.5 -19.5q0 -10 5 -20q2 -3 5 -9.5t7.5 -14.5t8.5 -16.5t7 -14.5l137 71l22 -45l-252 -129z" />
    <glyph glyph-name="uni0644" unicode="&#x644;" horiz-adv-x="691" arabic-form="isolated" 
d="M75 264h69v-227q0 -27 10 -50.5t28 -41.5t41.5 -28t50.5 -10h174q23 0 42.5 8.5t34.5 23t23.5 34.5t8.5 43v643h69v-655q0 -37 -14 -69.5t-38 -57t-56.5 -38.5t-69.5 -14h-173q-41 0 -77.5 16t-63.5 43t-43 63.5t-16 77.5v239z" />
    <glyph glyph-name="uni0645" unicode="&#x645;" horiz-adv-x="652" arabic-form="isolated" 
d="M74 -249v449q0 32 12.5 60t33.5 49t49 33t60 12h221q29 0 54.5 -11t44.5 -29.5t30 -44t11 -54.5v-125q0 -41 -24.5 -65.5t-64.5 -24.5h-124q-31 0 -57 13t-44 35t-24.5 44.5t-6.5 39.5q0 12 3 25l22 121h-54q-30 0 -51.5 -23t-21.5 -53v-451h-69zM326 102q15 -20 45 -20
h150v134q0 26 -18 44t-44 18h-119l-24 -131q-1 -6 -1 -13q0 -18 11 -32z" />
    <glyph glyph-name="uni0646" unicode="&#x646;" horiz-adv-x="691" arabic-form="isolated" 
d="M76 292h69v-256q0 -27 10 -50.5t27.5 -41t41.5 -27.5t51 -10h173q23 0 43 8.5t35 23t23.5 34t8.5 42.5v294h69v-306q0 -37 -14 -69.5t-38.5 -56.5t-57 -38t-69.5 -14h-172q-42 0 -78.5 15.5t-63.5 42.5t-42.5 63.5t-15.5 78.5v267zM309 395h85v-85h-85v85z" />
    <glyph glyph-name="uni0647" unicode="&#x647;" horiz-adv-x="486" arabic-form="isolated" 
d="M92 261q16 31 43 48q11 7 21 13t18 11l18 12l-67 45l37 59q15 -10 32 -22q14 -10 32.5 -22t38.5 -26q45 -31 103 -70q28 -20 42.5 -51t14.5 -66v-36q0 -32 -12 -62t-34 -53t-52.5 -36.5t-66.5 -13.5h-21q-36 0 -66 13.5t-51.5 36.5t-34 53t-12.5 62v34q0 39 17 71z
M144 201v-38q0 -18 7 -35t19.5 -29.5t29.5 -20t36 -7.5h28q20 0 37 8t29 20.5t19 29t7 33.5v38q0 14 -6.5 27.5t-20.5 23.5q-4 3 -17 11.5t-27 17.5q-16 11 -36 24l-80 -54q-11 -9 -17.5 -20t-7.5 -29z" />
    <glyph glyph-name="uni0648" unicode="&#x648;" horiz-adv-x="478" arabic-form="isolated" 
d="M68 157l17 91q4 23 16 42.5t29 33.5t38.5 22t45.5 8h56q29 0 54.5 -11t44.5 -29.5t30 -44t11 -54.5v-218q0 -35 -11 -68t-30.5 -60.5t-47 -48.5t-61.5 -32l-114 -39l-22 69l120 40q43 15 69.5 50.5t26.5 81.5v18q-8 -5 -18.5 -6.5t-21.5 -1.5h-103q-31 0 -57.5 13
t-44.5 35t-24 44t-6 39q0 13 3 26zM147 102q17 -20 43 -20h151v133q0 26 -18.5 44.5t-44.5 18.5h-66q-23 0 -40 -14t-22 -37l-15 -80q-1 -6 -1 -11q0 -19 13 -34z" />
    <glyph glyph-name="uni0649" unicode="&#x649;" horiz-adv-x="722" arabic-form="isolated" 
d="M75 37v230h69v-219q0 -27 10 -50.5t28 -41t42 -28t51 -10.5h205q22 0 41.5 8.5t34 23t23 34.5t8.5 42v39l-273 64v106q0 36 12.5 67.5t34.5 55.5t50.5 39t61.5 19l116 15l11 -72l-132 -18q-19 -3 -35 -12.5t-27.5 -24t-18 -32t-6.5 -36.5v-49l205 -48q32 -7 51 -29
t19 -54v-40q0 -37 -14 -70t-38.5 -57.5t-57 -38.5t-69.5 -14h-202q-41 0 -77.5 16t-63.5 43t-43 63.5t-16 78.5z" />
    <glyph glyph-name="uni064A" unicode="&#x64a;" horiz-adv-x="722" arabic-form="isolated" 
d="M75 37v230h69v-219q0 -27 10 -50.5t28 -41t42 -28t51 -10.5h205q22 0 41.5 8.5t34 23t23 34.5t8.5 42v39l-273 64v106q0 36 12.5 67.5t34.5 55.5t50.5 39t61.5 19l116 15l11 -72l-132 -18q-19 -3 -35 -12.5t-27.5 -24t-18 -32t-6.5 -36.5v-49l205 -48q32 -7 51 -29
t19 -54v-40q0 -37 -14 -70t-38.5 -57.5t-57 -38.5t-69.5 -14h-202q-41 0 -77.5 16t-63.5 43t-43 63.5t-16 78.5zM388 -345v85h85v-85h-85zM252 -260h84v-85h-84v85z" />
    <glyph glyph-name="uni064B" unicode="&#xfe70;" arabic-form="isolated" 
d="M-147 700l-8 45l298 64l11 -45zM-147 819l-8 45l298 64l11 -45z" />
    <glyph glyph-name="uni064C" unicode="&#xfe72;" arabic-form="isolated" 
d="M-122 753l-22 101l50 13l23 -102l48 9q-6 23 -10.5 45t-7.5 38q-1 6 -1 12q0 20 16 41t51 24l53 4h5q11 0 23 -4t22.5 -12.5t18 -20.5t10.5 -25l8 -41v-8q0 -25 -16.5 -45t-46.5 -27l-11 -2q-12 -3 -30.5 -7t-42 -9t-47.5 -10q-57 -12 -129 -27l-8 45zM8 854l17 -70
l73 16q8 3 14.5 9.5t6.5 14.5v4l-9 42q-2 11 -11 16t-16 5h-3l-51 -6q-9 0 -15.5 -7t-6.5 -16q0 -4 1 -8z" />
    <glyph glyph-name="uni064D" unicode="&#xfe74;" arabic-form="isolated" 
d="M-146 -118l-9 54l298 64l11 -53zM-146 -236l-9 53l298 64l11 -53z" />
    <glyph glyph-name="uni064E" unicode="&#xfe76;" arabic-form="isolated" 
d="M-146 700l-8 45l298 64l11 -45z" />
    <glyph glyph-name="uni064F" unicode="&#xfe78;" arabic-form="isolated" 
d="M-39 768q-5 23 -10 45t-7 38q-1 6 -1 11q0 20 15.5 41.5t50.5 23.5l53 6h5q11 0 23 -4.5t23 -13t18.5 -20.5t10.5 -25l7 -41q1 -6 1 -11q0 -23 -15.5 -42t-45.5 -27l-10 -2q-11 -2 -27 -5.5t-37 -7.5t-42 -9q-51 -11 -115 -25l-10 45zM-8 848l18 -70l72 16q10 2 16 8.5
t6 14.5v5l-9 42q-3 11 -12 16t-16 5h-3l-50 -5q-10 -1 -16 -8.5t-6 -17.5v-6z" />
    <glyph glyph-name="uni0650" unicode="&#xfe7a;" arabic-form="isolated" 
d="M-146 -113l-9 49l298 64l12 -49z" />
    <glyph glyph-name="uni0651" unicode="&#xfe7c;" arabic-form="isolated" 
d="M-102 862v-75q1 -14 11 -23.5t24 -10.5h7q14 0 24.5 8.5t13.5 21.5l14 73l47 -9l-12 -62v-5q0 -11 9.5 -19t22.5 -8h43v113h48v-116q0 -50 -50 -50h-35q-18 0 -33.5 7.5t-26.5 24.5q-11 -17 -29.5 -24.5t-37.5 -7.5q-36 0 -61.5 25.5t-25.5 62.5v74h47z" />
    <glyph glyph-name="uni0652" unicode="&#xfe7e;" arabic-form="isolated" 
d="M-90 797q0 36 24.5 61t60.5 25h10q36 0 61 -25t25 -61v-11q0 -18 -6.5 -33.5t-18.5 -27t-27.5 -18.5t-33.5 -7h-10q-36 1 -60.5 26t-24.5 60v11zM-46 798v-9q0 -16 10.5 -27t27.5 -11h18q15 0 26.5 10.5t11.5 27.5v9q0 16 -11.5 26.5t-26.5 10.5h-18q-17 0 -27.5 -10.5
t-10.5 -26.5z" />
    <glyph glyph-name="uni0671" unicode="&#x671;" horiz-adv-x="319" arabic-form="isolated" 
d="M-13 680q16 0 26.5 11t10.5 26v36h46v-27q0 -10 3 -16.5t7 -10.5l88 87q17 17 39.5 27t45.5 10h25q34 0 57.5 -24t23.5 -58v-32q0 -33 -24 -57.5t-57 -24.5h-163q-26 0 -41 8.5t-27 26.5q-12 -18 -28.5 -26.5t-36.5 -8.5h-22v53h27zM201 579v-579h-69v579h69zM283 680
q13 0 22 9.5t9 22.5v26q0 14 -10 24t-24 10h-30q-15 0 -30.5 -6.5t-26.5 -17.5l-70 -68h160z" />
    <glyph glyph-name="uni067E" unicode="&#x67e;" horiz-adv-x="849" arabic-form="isolated" 
d="M75 179v159h69v-149q0 -22 8.5 -42t23 -34t34 -22.5t41.5 -8.5h395q30 0 51.5 21t21.5 52v183h69v-183q0 -32 -12 -60.5t-33 -49.5t-49 -33t-60 -12h-380q-37 0 -69.5 14t-57 38.5t-38.5 57t-14 69.5zM417 -120v-85h-85v85h85zM402 -242h85v-85h-85v85zM469 -120h85v-85
h-85v85z" />
    <glyph glyph-name="uni0686" unicode="&#x686;" horiz-adv-x="670" arabic-form="isolated" 
d="M99 323q8 26 24 44t37 28t35.5 11t19.5 2q17 -1 32 -5l363 -109l-21 -63l-56 14q-9 3 -17 3q-6 0 -15.5 -2t-20.5 -10l-252 -185q-31 -23 -48 -56t-17 -71q0 -35 13.5 -65t36 -53t53.5 -36t65 -13h235v-82h-235q-49 0 -93 19t-77 51.5t-52 76t-19 93.5q0 57 26 106.5
t71 82.5q21 15 52 37.5t62.5 45.5t59 43.5t43.5 31.5q7 5 13.5 10t11.5 7l-211 62q-5 2 -11 2q-11 0 -25.5 -9t-19.5 -27l-25 -80l-61 16zM475 -90v-81h-80v81h80zM457 -55v80h80v-80h-80zM408 25v-80h-80v80h80z" />
    <glyph glyph-name="uni0698" unicode="&#x698;" horiz-adv-x="357" arabic-form="isolated" 
d="M-40 -181l122 40q42 14 68.5 51t26.5 82v317h68v-311q0 -35 -10.5 -67.5t-30 -60t-47 -48t-60.5 -32.5l-115 -39zM185 513v-85h-85v85h85zM166 550v85h85v-85h-85zM237 513h85v-85h-85v85z" />
    <glyph glyph-name="uni06A9" unicode="&#x6a9;" horiz-adv-x="873" arabic-form="isolated" 
d="M144 353v-169q0 -44 28.5 -73t74.5 -29h372q33 0 59.5 16.5t39 40.5t12.5 51q0 5 -2 25t-27 55l-160 221v59l306 157l31 -63l-267 -137l147 -198q38 -51 40.5 -82.5t2.5 -39.5q0 -45 -21 -87t-66 -71t-105 -29h-352q-40 0 -73.5 14t-57.5 38.5t-37.5 58t-13.5 71.5v171
h69z" />
    <glyph glyph-name="uni06AF" unicode="&#x6af;" horiz-adv-x="873" arabic-form="isolated" 
d="M75 182v171h69v-169q0 -44 28.5 -73t74.5 -29h372q33 0 59.5 16.5t39 40.5t12.5 51q0 5 -2 25t-27 55l-160 221v59l306 157l31 -63l-267 -137l147 -198q38 -51 40.5 -82.5t2.5 -39.5q0 -45 -21 -87t-66 -71t-105 -29h-352q-40 0 -73.5 14t-57.5 38.5t-37.5 58t-13.5 71.5
zM516 670l275 141l23 -53l-275 -140z" />
    <glyph glyph-name="uni06C0" unicode="&#x6c0;" horiz-adv-x="486" arabic-form="isolated" 
d="M75 155v34q0 39 16.5 70.5t43.5 48.5q11 7 21 13.5t18 11.5q9 6 18 11l-67 45l37 59l14 -9q14 -10 35 -24.5t47 -32t49 -33t40 -27.5t22 -15q27 -19 41.5 -50t14.5 -66v-36q0 -32 -12 -62t-34 -53t-52.5 -36.5t-66.5 -13.5h-21q-36 0 -66 13.5t-51.5 36.5t-34 53
t-12.5 62zM144 200v-38q0 -37 26.5 -63.5t65.5 -26.5h28q20 0 37 7.5t29 20t19 28.5t7 33v38q0 31 -27 52q-4 2 -17 10.5t-27 18.5q-16 11 -36 24l-80 -55q-11 -8 -17.5 -19.5t-7.5 -29.5zM205 610q-1 0 -7 3.5t-12 14.5q0 1 -2.5 5.5t-5 10t-5 11.5t-4.5 9q-9 20 -9.5 30.5
t-0.5 12.5q0 18 7 35t20.5 30.5t30.5 20.5l75 31l19 -47l-77 -35q-15 -7 -19.5 -19.5t-4.5 -20.5q0 -10 4 -19q2 -3 6 -10l7 -15q4 -8 8 -16.5t7 -13.5l137 72l23 -46l-252 -129l-23 47z" />
    <glyph glyph-name="uni06CC" unicode="&#x6cc;" horiz-adv-x="722" arabic-form="isolated" 
d="M75 37v230h69v-219q0 -27 10 -50.5t28 -41t42 -28t51 -10.5h205q22 0 41.5 8.5t34 23t23 34.5t8.5 42v39l-273 64v106q0 36 12.5 67.5t34.5 55.5t50.5 39t61.5 19l116 15l11 -72l-132 -18q-19 -3 -35 -12.5t-27.5 -24t-18 -32t-6.5 -36.5v-49l205 -48q32 -7 51 -29
t19 -54v-40q0 -37 -14 -70t-38.5 -57.5t-57 -38.5t-69.5 -14h-202q-41 0 -77.5 16t-63.5 43t-43 63.5t-16 78.5z" />
    <glyph glyph-name="uniFB51" unicode="&#x671;" horiz-adv-x="309" arabic-form="final" 
d="M-40 680h27q16 0 26.5 11t10.5 26v36h46v-27q0 -10 3 -16.5t7 -10.5l88 87q17 17 39.5 27t45.5 10h25q34 0 57.5 -24t23.5 -58v-32q0 -33 -24 -57.5t-57 -24.5h-163q-41 0 -66 30q-12 -14 -29.5 -22t-37.5 -8h-22v53zM187 578v-424q0 -31 21 -51.5t51 -20.5h50
q14 0 14 -14v-54q0 -14 -14 -14h-38q-32 0 -60 12t-48.5 32.5t-32.5 48.5t-12 60v425h69zM283 680q13 0 22 9.5t9 22.5v26q0 14 -10 24t-24 10h-30q-16 0 -31 -6.5t-26 -17.5l-70 -68h160z" />
    <glyph glyph-name="uniFB57" unicode="&#x67e;" horiz-adv-x="890" arabic-form="final" 
d="M75 179v159h69v-150q0 -22 8.5 -41.5t23 -33.5t34.5 -22.5t42 -8.5h395q30 0 51 21t21 51v155h69v-155q0 -30 21.5 -51t51.5 -21h29q14 0 14 -14v-54q0 -14 -14 -14h-17q-37 0 -67.5 17t-51.5 49q-21 -32 -52 -49t-68 -17h-380q-37 0 -69.5 14t-57 38.5t-38.5 57
t-14 69.5zM332 -120h85v-85h-85v85zM402 -327v85h85v-85h-85zM469 -205v85h85v-85h-85z" />
    <glyph glyph-name="uniFB58" unicode="&#x67e;" horiz-adv-x="333" arabic-form="initial" 
d="M-10 78q4 4 10 4h121q30 0 51 21t21 50v184h69v-184q0 -32 -12 -60t-33 -48.5t-48.5 -32.5t-59.5 -12h-109q-14 0 -14 14v53q0 6 4 11zM93 -120v-85h-85v85h85zM163 -242v-85h-85v85h85zM230 -120v-85h-85v85h85z" />
    <glyph glyph-name="uniFB59" unicode="&#x67e;" horiz-adv-x="346" arabic-form="medial" 
d="M-10 78q4 4 10 4h65q29 0 50.5 18t27.5 45l31 158l68 -11l-26 -132q-1 -6 -1 -13q0 -8 3 -19.5t13 -22t24 -17t30 -6.5h61q6 0 10 -4.5t4 -10.5v-53q0 -14 -14 -14h-62q-17 0 -34 5t-32 14t-26 21t-15 26q-17 -29 -48.5 -47.5t-66.5 -18.5h-62q-14 0 -14 14v53q0 6 4 11z
M150 -120v-85h-85v85h85zM220 -242v-85h-85v85h85zM202 -120h85v-85h-85v85z" />
    <glyph glyph-name="uniFB7B" unicode="&#x686;" horiz-adv-x="687" arabic-form="final" 
d="M75 243l23 80q8 26 24 44t37 28t35.5 11t19.5 2q17 -1 32 -5l363 -109l-21 -62l-56 13q-9 2 -18 2q-4 0 -13 -1t-20 -9v-82q0 -31 21.5 -52t51.5 -21h132q14 0 14 -14v-54q0 -14 -14 -14h-120q-31 0 -58 12t-46.5 32.5t-30.5 48.5t-11 59v41l-193 -142q-31 -23 -48 -55.5
t-17 -70.5q0 -35 13.5 -65.5t36 -53.5t53.5 -36t65 -13h235v-82h-235q-49 0 -93 19t-76.5 51.5t-52 76t-19.5 92.5q0 58 26 107.5t71 82.5q21 15 50.5 36.5t60 44t59 43t47.5 34.5q5 4 12.5 9t12.5 8l-211 62q-5 2 -11 2q-11 0 -25.5 -9t-19.5 -27l-25 -80zM262 -83v63h64
v-63h-64zM365 -83v63h64v-63h-64zM316 -106h63v-63h-63v63z" />
    <glyph glyph-name="uniFB7C" unicode="&#x686;" horiz-adv-x="677" arabic-form="initial" 
d="M-11 78q4 4 11 4h163q48 0 92 16.5t79 48.5l89 81q12 11 18 14l-240 71q-6 2 -13 2q-11 0 -24.5 -7.5t-19.5 -25.5l-25 -80l-61 16l23 80q7 24 22.5 42t36 29t36 13t22.5 2q16 0 32 -5l386 -116l-21 -67l-40 12q-13 3 -24 3q-14 0 -29 -6.5t-34 -23.5l-116 -106
q-40 -38 -91 -56.5t-105 -18.5h-156q-14 0 -14 14v54q0 5 3 10zM292 -120v-85h-85v85h85zM277 -242h85v-85h-85v85zM344 -205v85h85v-85h-85z" />
    <glyph glyph-name="uniFB7D" unicode="&#x686;" horiz-adv-x="685" arabic-form="medial" 
d="M-14 14v53q0 5 4 10t10 5h163q48 0 92.5 16t79.5 48l88 82q12 11 18 14l-239 71q-7 2 -14 2q-11 0 -24.5 -7.5t-19.5 -25.5l-26 -80l-60 17l23 79q7 24 22.5 42.5t36 29.5t35.5 12.5t21 1.5q17 0 34 -5l386 -116l-21 -67l-40 12q-12 2 -23 3q-11 -1 -24 -4.5t-28 -15.5
v-37q0 -30 21.5 -51t51.5 -21h132q6 0 10 -4.5t4 -9.5v-54q0 -14 -14 -14h-120q-30 0 -55 10.5t-44 29t-30.5 44t-14.5 54.5l-69 -64q-40 -36 -90.5 -55t-104.5 -19h-157q-14 0 -14 14zM290 -120v-85h-85v85h85zM276 -242h85v-85h-85v85zM342 -120h85v-85h-85v85z" />
    <glyph glyph-name="uniFB8B" unicode="&#x698;" horiz-adv-x="422" arabic-form="final" 
d="M-40 -181l121 40q44 14 70 51t26 82v316h69v-157q0 -29 21.5 -49t50.5 -20h104q6 0 10 -4.5t4 -10.5v-53q0 -14 -14 -14h-92q-24 0 -47 10t-37 30v-44q0 -35 -11 -67.5t-30.5 -59.5t-47.5 -47.5t-61 -31.5l-114 -40zM99 427v85h85v-85h-85zM165 549v85h85v-85h-85z
M321 512v-85h-85v85h85z" />
    <glyph glyph-name="uniFB8F" unicode="&#x6a9;" horiz-adv-x="996" arabic-form="final" 
d="M75 182v171h69v-169q0 -44 28.5 -73t74.5 -29h372q34 0 60 16.5t38.5 41t12.5 51.5q0 6 -2 26t-27 54l-161 220v59l307 157l31 -63l-267 -137l279 -373q17 -23 41 -37.5t53 -14.5h12q6 0 10 -4.5t4 -10.5v-53q0 -5 -4 -9.5t-10 -4.5h-10q-86 0 -144 83l-54 78
q-1 -39 -17.5 -69t-41.5 -50.5t-56.5 -31t-63.5 -10.5h-352q-40 0 -73.5 14t-57.5 38.5t-37.5 58t-13.5 71.5z" />
    <glyph glyph-name="uniFB90" unicode="&#x6a9;" horiz-adv-x="389" arabic-form="initial" 
d="M0 82h135q33 0 59.5 16.5t39 40.5t12.5 51q0 6 -2 26t-27 55l-161 221v58l307 157l32 -63l-269 -137l148 -198q38 -51 40.5 -82.5t2.5 -39.5q0 -45 -21 -87t-65.5 -71t-104.5 -29h-126q-14 0 -14 14v54q0 14 14 14z" />
    <glyph glyph-name="uniFB91" unicode="&#x6a9;" horiz-adv-x="513" arabic-form="medial" 
d="M0 82h135q34 0 60 16.5t38.5 41t12.5 51.5q0 6 -2 26t-27 54l-161 220v59l307 157l32 -63l-269 -137l280 -374q17 -23 41.5 -37t53.5 -14h12q5 0 9.5 -4.5t4.5 -10.5v-53q0 -6 -4.5 -10t-9.5 -4h-11q-87 0 -144 83l-53 78q-2 -39 -18 -69t-41.5 -50.5t-56.5 -31
t-63 -10.5h-126q-14 0 -14 14v54q0 14 14 14z" />
    <glyph glyph-name="uniFB93" unicode="&#x6af;" horiz-adv-x="996" arabic-form="final" 
d="M75 182v171h69v-169q0 -44 28.5 -73t74.5 -29h372q34 0 60 16.5t38.5 41t12.5 51.5q0 6 -2 26t-27 54l-161 220v59l307 157l31 -63l-267 -137l279 -373q17 -23 41 -37.5t53 -14.5h12q6 0 10 -4.5t4 -10.5v-53q0 -5 -4 -9.5t-10 -4.5h-10q-86 0 -144 83l-54 78
q-1 -39 -17.5 -69t-41.5 -50.5t-56.5 -31t-63.5 -10.5h-352q-40 0 -73.5 14t-57.5 38.5t-37.5 58t-13.5 71.5zM791 811l23 -53l-275 -140l-23 52z" />
    <glyph glyph-name="uniFB94" unicode="&#x6af;" horiz-adv-x="389" arabic-form="initial" 
d="M0 82h135q33 0 59.5 16.5t39 40.5t12.5 51q0 6 -2 26t-27 55l-161 221v58l307 157l32 -63l-269 -137l148 -198q38 -51 40.5 -82.5t2.5 -39.5q0 -45 -21 -87t-65.5 -71t-104.5 -29h-126q-14 0 -14 14v54q0 14 14 14zM35 670l275 141l23 -53l-275 -140z" />
    <glyph glyph-name="uniFB95" unicode="&#x6af;" horiz-adv-x="513" arabic-form="medial" 
d="M0 82h135q34 0 60 16.5t38.5 41t12.5 51.5q0 6 -2 26t-27 54l-161 220v59l307 157l32 -63l-269 -137l280 -374q17 -23 41.5 -37t53.5 -14h12q5 0 9.5 -4.5t4.5 -10.5v-53q0 -6 -4.5 -10t-9.5 -4h-11q-87 0 -144 83l-53 78q-2 -39 -18 -69t-41.5 -50.5t-56.5 -31
t-63 -10.5h-126q-14 0 -14 14v54q0 14 14 14zM34 670l276 141l23 -53l-276 -140z" />
    <glyph glyph-name="uniFBA5" unicode="&#x6c0;" horiz-adv-x="515" arabic-form="final" 
d="M75 235q0 63 33.5 104.5t85.5 54.5l139 35v82h69v-351q0 -16 7 -30.5t18 -25t26.5 -16.5t31.5 -6h30q14 0 14 -14v-54q0 -14 -14 -14h-30q-47 0 -83 25t-54 65q-18 -15 -45 -15h-134q-45 0 -69.5 25t-24.5 70v65zM144 233v-76h189v197l-124 -32q-30 -8 -47.5 -33.5
t-17.5 -55.5zM118 567l80 39q0 1 -6.5 4t-11.5 14q0 1 -2.5 5.5t-5.5 10.5t-6 11.5t-5 8.5q-9 20 -9.5 30.5t-0.5 12.5q0 18 7 35t20.5 30.5t31.5 20.5l74 31l20 -47l-78 -34q-15 -7 -19 -19t-4 -19q0 -11 5 -21q1 -3 4.5 -10t7.5 -15.5t8 -16.5l7 -14l136 72l23 -46
l-252 -129z" />
    <glyph glyph-name="uniFBE8" unicode="&#x649;" horiz-adv-x="314" arabic-form="initial" 
d="M-14 67q0 6 4 10.5t10 4.5h111q30 0 50.5 21.5t21.5 50.5v184h69v-183q0 -32 -12 -60.5t-33 -49.5t-49 -33t-60 -12h-98q-6 0 -10 4.5t-4 10.5v52z" />
    <glyph glyph-name="uniFBE9" unicode="&#x649;" horiz-adv-x="346" arabic-form="medial" 
d="M-10 78q4 4 10 4h65q29 0 50.5 18t27.5 45l31 158l68 -11l-26 -132q-1 -6 -1 -13q0 -8 3 -19.5t13 -22t24 -17t30 -6.5h61q6 0 10 -4.5t4 -10.5v-53q0 -14 -14 -14h-62q-17 0 -34 5t-32 14t-26 21t-15 26q-17 -29 -48.5 -47.5t-66.5 -18.5h-62q-14 0 -14 14v53q0 6 4 11z
" />
    <glyph glyph-name="uniFBFD" unicode="&#x6cc;" horiz-adv-x="737" arabic-form="final" 
d="M75 -35v240h69v-228q0 -27 10.5 -50.5t28 -41.5t41 -28t50.5 -10h176q22 0 41.5 8.5t34.5 23t23.5 34t8.5 41.5v46h-187v82h366q5 0 9.5 -4t4.5 -10v-53q0 -6 -4.5 -10t-9.5 -5h-115q4 -10 4 -22v-35q0 -37 -14 -69.5t-38.5 -56.5t-57 -38t-69.5 -14h-172q-41 0 -77.5 16
t-63.5 43t-43 63.5t-16 77.5z" />
    <glyph glyph-name="uniFBFE" unicode="&#x6cc;" horiz-adv-x="337" arabic-form="initial" 
d="M-10 78q4 4 10 4h121q30 0 51 21t21 50v184h69v-184q0 -32 -12 -60t-33 -48.5t-48.5 -32.5t-59.5 -12h-109q-14 0 -14 14v53q0 6 4 11zM226 -120v-85h-85v85h85zM4 -120h85v-85h-85v85z" />
    <glyph glyph-name="uniFBFF" unicode="&#x6cc;" horiz-adv-x="346" arabic-form="medial" 
d="M-10 78q4 4 10 4h65q29 0 50.5 18t27.5 45l31 158l68 -11l-26 -132q-1 -6 -1 -13q0 -8 3 -19.5t13 -22t24 -17t30 -6.5h61q6 0 10 -4.5t4 -10.5v-53q0 -14 -14 -14h-62q-17 0 -34 5t-32 14t-26 21t-15 26q-17 -29 -48.5 -47.5t-66.5 -18.5h-62q-14 0 -14 14v53q0 6 4 11z
M201 -205v85h85v-85h-85zM149 -120v-85h-85v85h85z" />
    <glyph glyph-name="uniFC5E" unicode="&#xfc5e;" arabic-form="isolated" 
d="M-125 970l-22 100l51 12l22 -101l48 10q-4 17 -8 33q-3 13 -5.5 26.5t-4.5 21.5q-1 6 -1 12q0 7 2.5 17t11.5 21t22.5 19t30.5 9l52 4h6q25 0 47 -17.5t27 -44.5l8 -42v-8q0 -25 -16.5 -44t-46.5 -27l-11 -2q-12 -3 -30.5 -6.5t-41.5 -8.5t-47 -10q-57 -13 -129 -28
l-9 44zM-103 860v-74q1 -14 11 -24t24 -10h8q13 0 23.5 8.5t12.5 22.5l15 72l47 -9l-12 -62v-5q0 -11 9.5 -19t22.5 -8h43l1 113l48 -1l-1 -116q0 -48 -49 -48h-41q-37 0 -58 27q-12 -14 -28.5 -20.5t-34.5 -7.5q-18 0 -34 7t-28 19t-19 28t-7 34v74zM5 1070l17 -69l73 16
q8 2 15 8t7 14v4l-9 44q-3 11 -11 15.5t-15 4.5q-2 0 -5 -1l-51 -5q-9 0 -15.5 -7.5t-6.5 -15.5q0 -4 1 -8z" />
    <glyph glyph-name="uniFC5F" unicode="&#xfc5f;" arabic-form="isolated" 
d="M-151 1132h47v-75q1 -14 11 -24t24 -11h7q14 0 24.5 9t12.5 22l15 72l46 -8l-11 -62v-5q0 -11 9.5 -19t22.5 -8h43v112h48v-116q0 -49 -50 -49h-41q-17 0 -32 7.5t-26 19.5q-11 -13 -28 -20t-35 -7q-36 0 -61.5 25.5t-25.5 61.5v75zM144 810l10 -46l-300 -64l-9 45z
M144 928l10 -45l-300 -64l-9 45z" />
    <glyph glyph-name="uniFC60" unicode="&#xfc60;" arabic-form="isolated" 
d="M-150 788v74h47v-74q1 -14 11 -24t24 -11h7q14 0 24.5 8.5t13.5 22.5l14 72l47 -9l-12 -62v-5q0 -11 9.5 -19t22.5 -8h43v113h48v-116q0 -50 -50 -50h-41q-36 2 -58 28q-11 -13 -28 -20.5t-35 -7.5q-36 0 -61.5 26t-25.5 62zM-155 950l298 64l11 -45l-300 -65z" />
    <glyph glyph-name="uniFC61" unicode="&#xfc61;" arabic-form="isolated" 
d="M-148 948l113 24q-1 6 -3.5 16.5t-5 22.5t-5 23.5t-3.5 19.5q-1 6 -1 12q0 20 16 41t50 24l53 5h5q25 0 47.5 -18t27.5 -45l8 -41q1 -7 1 -13q0 -22 -16 -40.5t-45 -25.5l-10 -2q-11 -2 -27.5 -5.5t-37 -7.5t-42.5 -9q-51 -11 -115 -25zM-150 788v73h47v-74
q1 -14 11.5 -24t24.5 -11h7q14 0 24.5 8.5t12.5 22.5l14 72l47 -9l-12 -61v-5q0 -12 9.5 -20t23.5 -8h43v113h48v-116q0 -49 -50 -49h-41q-36 0 -58 27q-11 -13 -28 -20t-35 -7q-36 0 -62 25.5t-26 62.5zM-4 1051l18 -69l73 16q8 3 14.5 9t6.5 14v4l-10 43q-2 11 -10 16
t-15 5q-3 0 -5 -1l-50 -5q-10 -1 -16 -8.5t-6 -17.5v-6z" />
    <glyph glyph-name="uniFC62" unicode="&#xfc62;" arabic-form="isolated" 
d="M-151 933v74h47v-75q0 -14 10 -24t24 -11h8q14 0 24.5 9t12.5 22l15 72l46 -8l-12 -62v-5q0 -11 9.5 -19t23.5 -8h43v113h47v-117q0 -49 -49 -49h-41q-18 0 -32.5 7.5t-25.5 19.5q-11 -13 -28 -20t-35 -7q-36 0 -61.5 25.5t-25.5 62.5zM-155 746l298 64l11 -45l-300 -65z
" />
    <glyph glyph-name="uniFC63" unicode="&#xfc63;" arabic-form="isolated" 
d="M-149 862h47v-74q1 -14 11 -24t24 -11h7q14 0 24.5 8.5t13.5 22.5l14 72l47 -9l-12 -62v-5q0 -11 9.5 -19t22.5 -8h43v113h48v-116q0 -50 -50 -50h-41q-36 2 -58 28q-11 -13 -28 -20.5t-35 -7.5q-36 0 -61.5 26t-25.5 62v74zM21 1039v-136h-46v136h46z" />
    <glyph glyph-name="uniFE82" unicode="&#x622;" horiz-adv-x="281" arabic-form="final" 
d="M158 579v-426q0 -29 21 -50t51 -21h51q5 0 9.5 -4.5t4.5 -10.5v-53q0 -6 -4.5 -10t-9.5 -4h-39q-32 0 -60 12t-48.5 32.5t-32.5 48.5t-12 60v426h69zM-23 604v38q0 16 6.5 30.5t17.5 25t25 16.5t29 6h190v-61h-191q-10 0 -17.5 -7.5t-7.5 -18.5v-29h-52z" />
    <glyph glyph-name="uniFE84" unicode="&#x623;" horiz-adv-x="245" arabic-form="final" 
d="M54 581h69v-428q0 -29 21 -50t51 -21h50q6 0 10 -4.5t4 -10.5v-53q0 -14 -14 -14h-38q-32 0 -60 12t-48.5 32.5t-32.5 48.5t-12 60v428zM-20 671l79 36q0 1 -6.5 4t-11.5 14q0 1 -2.5 5.5t-5 10.5t-5.5 12t-5 9q-9 20 -9.5 30.5t-0.5 11.5q0 18 7.5 35t20.5 30.5t31 20.5
l75 31l19 -46l-78 -35q-15 -8 -19.5 -20t-4.5 -20q0 -9 5 -19l28 -55l137 71l22 -46l-252 -129z" />
    <glyph glyph-name="uniFE86" unicode="&#x624;" horiz-adv-x="489" arabic-form="final" 
d="M68 157l17 91q4 23 16 42.5t29 33.5t38.5 22t45.5 8h56q29 0 54.5 -11t44 -29.5t29.5 -44t11 -54.5v-133h80q6 0 10 -4.5t4 -9.5v-54q0 -14 -14 -14h-80v-10q-2 -69 -42.5 -124t-106.5 -78l-114 -39l-22 69l120 40q43 15 69.5 50.5t26.5 81.5v18q-8 -5 -18.5 -6.5
t-21.5 -1.5h-103q-31 0 -57 13t-44 35t-24.5 44.5t-6.5 39.5q0 12 3 25zM147 102q17 -20 43 -20h150v134q0 26 -18 44t-44 18h-66q-23 0 -40 -14t-22 -37l-15 -80q-1 -6 -1 -11q0 -19 13 -34zM151 508q-3 1 -6 3q-6 6 -11 15q-1 1 -3 5.5t-5 10.5t-5.5 11.5t-4.5 8.5
q-9 20 -9.5 30.5t-0.5 12.5q0 18 7 35t20.5 30.5t31.5 20.5l74 31l19 -47l-77 -34q-15 -7 -19.5 -19.5t-4.5 -19.5q0 -10 5 -20q1 -3 5 -10l7 -15q4 -8 8.5 -16.5t7.5 -14.5l137 72l22 -46l-253 -129l-22 48z" />
    <glyph glyph-name="uniFE88" unicode="&#x625;" horiz-adv-x="267" arabic-form="final" 
d="M76 153v487h69v-486q0 -30 21 -51t51 -21h50q6 0 10 -4.5t4 -10.5v-53q0 -5 -4 -9.5t-10 -4.5h-38q-32 0 -60 12t-48.5 33t-32.5 49t-12 59zM17 -304l79 36q0 1 -6.5 4t-11.5 14l-18 36q-9 20 -9.5 30.5t-0.5 12.5q0 18 7 34.5t20.5 30t31.5 21.5l74 31l19 -47l-77 -35
q-15 -7 -19.5 -19t-4.5 -19q0 -10 5 -20l28 -56l137 72l22 -47l-252 -128z" />
    <glyph glyph-name="uniFE8A" unicode="&#x626;" horiz-adv-x="738" arabic-form="final" 
d="M145 205v-228q0 -27 10.5 -50.5t28 -41.5t41 -28t50.5 -10h176q22 0 41.5 8.5t34.5 23t23.5 34t8.5 41.5v46h-187v82h366q5 0 9.5 -4t4.5 -10v-53q0 -6 -4.5 -10t-9.5 -5h-115q4 -10 4 -22v-35q0 -37 -14 -69.5t-38.5 -56.5t-57 -38t-69.5 -14h-172q-41 0 -77.5 16
t-63.5 43t-43 63.5t-16 77.5v240h69zM75 377l78 37q0 1 -6.5 4t-11.5 14q-1 1 -3 6t-5 10.5t-5.5 11t-4.5 8.5q-10 20 -10 40t7 37.5t20.5 31.5t31.5 21l73 31l20 -47l-78 -35q-14 -6 -18.5 -19t-4.5 -20q0 -10 5 -20q1 -3 5 -10l7 -15q4 -8 8.5 -16.5t7.5 -13.5l136 71
l23 -46l-253 -129z" />
    <glyph glyph-name="uniFE8B" unicode="&#x626;" horiz-adv-x="343" arabic-form="initial" 
d="M-10 78q4 4 10 4h121q30 0 51 21t21 50v184h69v-184q0 -32 -12 -60t-33 -48.5t-48.5 -32.5t-59.5 -12h-109q-14 0 -14 14v53q0 6 4 11zM74 454q-3 1 -6 3q-2 2 -5.5 6t-6.5 9q-1 2 -8 15.5t-10 20.5q-9 20 -9.5 30.5t-0.5 11.5q0 19 7.5 35.5t20.5 30.5t31 21l74 31
l19 -47l-77 -35q-15 -7 -19.5 -19t-4.5 -19q0 -10 5 -20q2 -3 5 -10t7 -15.5t8 -16.5l7 -14q23 12 47 24t43.5 22t32.5 17.5t15 8.5l22 -46l-252 -129l-23 47z" />
    <glyph glyph-name="uniFE8C" unicode="&#x626;" horiz-adv-x="346" arabic-form="medial" 
d="M-10 78q4 4 10 4h65q29 0 50.5 18t27.5 45l31 158l68 -11l-26 -132q-1 -6 -1 -13q0 -8 3 -19.5t13 -22t24 -17t30 -6.5h61q6 0 10 -4.5t4 -10.5v-53q0 -14 -14 -14h-62q-17 0 -34 5t-32 14t-26 21t-15 26q-17 -29 -48.5 -47.5t-66.5 -18.5h-62q-14 0 -14 14v53q0 6 4 11z
M31 419l79 36q0 1 -6.5 4t-11.5 14q0 1 -2.5 5.5t-5 10.5t-5.5 12t-5 9q-9 20 -9.5 30.5t-0.5 11.5q0 18 7.5 35t20.5 30.5t31 20.5l75 31l19 -46l-78 -35q-15 -8 -19.5 -20t-4.5 -20q0 -9 5 -19l28 -55l137 71l22 -46l-252 -129z" />
    <glyph glyph-name="uniFE8E" unicode="&#x627;" horiz-adv-x="265" arabic-form="final" 
d="M144 659v-505q0 -30 21.5 -51t50.5 -21h49q6 0 10 -4.5t4 -10.5v-53q0 -14 -14 -14h-37q-31 0 -59 12t-49 33t-33 49t-12 59v506h69z" />
    <glyph glyph-name="uniFE90" unicode="&#x628;" horiz-adv-x="889" arabic-form="final" 
d="M75 179v159h69v-150q0 -22 8.5 -41.5t22.5 -33.5t34 -22.5t42 -8.5h395q30 0 51 21t21 51v155h69v-155q0 -30 21.5 -51t51.5 -21h29q14 0 14 -14v-54q0 -14 -14 -14h-17q-37 0 -67.5 17t-51.5 49q-21 -32 -52 -49t-68 -17h-380q-37 0 -69.5 14t-56.5 38.5t-38 57
t-14 69.5zM473 -122v-85h-85v85h85z" />
    <glyph glyph-name="uniFE91" unicode="&#x628;" horiz-adv-x="303" arabic-form="initial" 
d="M-10 78q4 4 10 4h101q30 0 51 21.5t21 50.5v183h69v-184q0 -32 -12 -60t-33 -48.5t-48.5 -32.5t-59.5 -12h-89q-14 0 -14 14v53q0 6 4 11zM104 -120v-85h-85v85h85z" />
    <glyph glyph-name="uniFE92" unicode="&#x628;" horiz-adv-x="346" arabic-form="medial" 
d="M-10 78q4 4 10 4h65q29 0 50.5 18t27.5 45l31 158l68 -11l-26 -132q-1 -6 -1 -13q0 -8 3 -19.5t13 -22t24 -17t30 -6.5h61q6 0 10 -4.5t4 -10.5v-53q0 -14 -14 -14h-62q-17 0 -34 5t-32 14t-26 21t-15 26q-17 -29 -48.5 -47.5t-66.5 -18.5h-62q-14 0 -14 14v53q0 6 4 11z
M217 -121v-85h-85v85h85z" />
    <glyph glyph-name="uniFE94" unicode="&#x629;" horiz-adv-x="515" arabic-form="final" 
d="M75 170v65q0 63 33.5 104.5t85.5 54.5l139 35v82h69v-351q0 -16 7 -30.5t18 -25t26.5 -16.5t31.5 -6h30q14 0 14 -14v-54q0 -14 -14 -14h-30q-47 0 -83 25t-54 65q-18 -15 -45 -15h-134q-45 0 -69.5 25t-24.5 70zM144 157h189v197l-124 -32q-30 -8 -47.5 -33.5
t-17.5 -55.5v-76zM261 701h85v-85h-85v85zM209 701v-85h-85v85h85z" />
    <glyph glyph-name="uniFE96" unicode="&#x62a;" horiz-adv-x="890" arabic-form="final" 
d="M75 178v159h68v-149q0 -22 8.5 -41.5t23.5 -33.5t34.5 -22.5t41.5 -8.5h396q30 0 51 21t21 51v155h69v-155q0 -30 21 -51t51 -21h30q14 0 14 -14v-54q0 -14 -14 -14h-17q-37 0 -68 17t-51 49q-22 -33 -53 -49.5t-67 -16.5h-380q-37 0 -69.5 14t-57 38t-38.5 56.5
t-14 69.5zM542 337h-85v85h85v-85zM405 422v-85h-85v85h85z" />
    <glyph glyph-name="uniFE97" unicode="&#x62a;" horiz-adv-x="323" arabic-form="initial" 
d="M-10 78q4 4 10 4h121q30 0 51 21t21 50v184h69v-184q0 -32 -12 -60t-33 -48.5t-48.5 -32.5t-59.5 -12h-109q-14 0 -14 14v53q0 6 4 11zM176 454v85h85v-85h-85zM39 539h85v-85h-85v85z" />
    <glyph glyph-name="uniFE98" unicode="&#x62a;" horiz-adv-x="346" arabic-form="medial" 
d="M-10 78q4 4 10 4h65q29 0 50.5 18t27.5 45l31 158l68 -11l-26 -132q-1 -6 -1 -13q0 -8 3 -19.5t13 -22t24 -17t30 -6.5h61q6 0 10 -4.5t4 -10.5v-53q0 -14 -14 -14h-62q-17 0 -34 5t-32 14t-26 21t-15 26q-17 -29 -48.5 -47.5t-66.5 -18.5h-62q-14 0 -14 14v53q0 6 4 11z
M201 422v85h85v-85h-85zM149 507v-85h-85v85h85z" />
    <glyph glyph-name="uniFE9A" unicode="&#x62b;" horiz-adv-x="890" arabic-form="final" 
d="M75 179v159h69v-150q0 -22 8.5 -41.5t23 -33.5t34.5 -22.5t42 -8.5h395q30 0 51 21t21 51v155h69v-155q0 -30 21.5 -51t51.5 -21h29q14 0 14 -14v-54q0 -14 -14 -14h-17q-37 0 -67.5 17t-51.5 49q-21 -32 -52 -49t-68 -17h-380q-37 0 -69.5 14t-57 38.5t-38.5 57
t-14 69.5zM320 423h85v-85h-85v85zM472 545v-85h-85v85h85zM457 423h85v-85h-85v85z" />
    <glyph glyph-name="uniFE9B" unicode="&#x62b;" horiz-adv-x="319" arabic-form="initial" 
d="M-14 67q0 6 4 10.5t10 4.5h116q30 0 50.5 21.5t21.5 50.5v184h69v-183q0 -32 -12 -60.5t-33 -49.5t-49 -33t-60 -12h-103q-6 0 -10 4.5t-4 10.5v52zM119 540v-85h-85v85h85zM100 662h85v-85h-85v85zM171 455v85h85v-85h-85z" />
    <glyph glyph-name="uniFE9C" unicode="&#x62b;" horiz-adv-x="346" arabic-form="medial" 
d="M-10 78q4 4 10 4h65q29 0 50.5 18t27.5 45l31 158l68 -11l-26 -132q-1 -6 -1 -13q0 -8 3 -19.5t13 -22t24 -17t30 -6.5h61q6 0 10 -4.5t4 -10.5v-53q0 -14 -14 -14h-62q-17 0 -34 5t-32 14t-26 21t-15 26q-17 -29 -48.5 -47.5t-66.5 -18.5h-62q-14 0 -14 14v53q0 6 4 11z
M63 421v85h85v-85h-85zM215 628v-85h-85v85h85zM200 506h85v-85h-85v85z" />
    <glyph glyph-name="uniFE9E" unicode="&#x62c;" horiz-adv-x="687" arabic-form="final" 
d="M76 243l23 80q8 26 24 44t37 28t35.5 11t19.5 2q17 -1 32 -5l363 -109l-21 -62l-56 13q-9 2 -18 2q-4 0 -13 -1t-20 -9v-82q0 -31 21.5 -52t51.5 -21h132q14 0 14 -14v-54q0 -14 -14 -14h-120q-31 0 -58 12t-46.5 32.5t-30.5 48.5t-11 59v41l-193 -142q-31 -23 -48 -55.5
t-17 -70.5q0 -35 13.5 -65.5t36 -53.5t53.5 -36t65 -13h235v-82h-235q-49 0 -93 19t-76.5 51.5t-52 76t-19.5 92.5q0 58 26 107.5t71 82.5q21 15 50.5 36.5t60 44t59 43t47.5 34.5q5 4 12.5 9t12.5 8l-211 62q-5 2 -11 2q-11 0 -25.5 -9t-19.5 -27l-25 -80zM314 -17h85v-85
h-85v85z" />
    <glyph glyph-name="uniFE9F" unicode="&#x62c;" horiz-adv-x="678" arabic-form="initial" 
d="M-11 78q4 4 11 4h163q48 0 92 16.5t79 48.5l89 81q12 11 18 14l-240 71q-6 2 -13 2q-11 0 -24.5 -7.5t-19.5 -25.5l-25 -80l-61 16l23 80q7 24 22.5 42t36 29t36 13t22.5 2q16 0 32 -5l386 -116l-21 -67l-40 12q-13 3 -24 3q-14 0 -29 -6.5t-34 -23.5l-116 -106
q-40 -38 -91 -56.5t-105 -18.5h-156q-14 0 -14 14v54q0 5 3 10zM275 -120h85v-85h-85v85z" />
    <glyph glyph-name="uniFEA0" unicode="&#x62c;" horiz-adv-x="685" arabic-form="medial" 
d="M-14 67q0 5 4 10t10 5h163q48 0 92.5 16t79.5 48l88 82q12 11 18 14l-239 71q-7 2 -14 2q-11 0 -24.5 -7.5t-19.5 -25.5l-26 -80l-60 17l23 79q7 24 22.5 42.5t36 29.5t35.5 12.5t21 1.5q17 0 34 -5l386 -116l-21 -67l-40 12q-12 2 -23 3q-11 -1 -24 -4.5t-28 -15.5v-37
q0 -30 21.5 -51t51.5 -21h132q6 0 10 -4.5t4 -9.5v-54q0 -14 -14 -14h-120q-30 0 -55 10.5t-44 29t-30.5 44t-14.5 54.5l-69 -64q-40 -36 -90.5 -55t-104.5 -19h-157q-14 0 -14 14v53zM275 -205v85h85v-85h-85z" />
    <glyph glyph-name="uniFEA2" unicode="&#x62d;" horiz-adv-x="687" arabic-form="final" 
d="M75 243l23 80q8 26 24 44t37 28t35.5 11t19.5 2q17 -1 32 -5l363 -109l-21 -62l-56 13q-9 2 -18 2q-4 0 -13 -1t-20 -9v-82q0 -31 21.5 -52t51.5 -21h132q14 0 14 -14v-54q0 -14 -14 -14h-120q-31 0 -58 12t-46.5 32.5t-30.5 48.5t-11 59v41l-193 -142q-31 -23 -48 -55.5
t-17 -70.5q0 -35 13.5 -65.5t36 -53.5t53.5 -36t65 -13h235v-82h-235q-49 0 -93 19t-76.5 51.5t-52 76t-19.5 92.5q0 58 26 107.5t71 82.5q21 15 50.5 36.5t60 44t59 43t47.5 34.5q5 4 12.5 9t12.5 8l-211 62q-5 2 -11 2q-11 0 -25.5 -9t-19.5 -27l-25 -80z" />
    <glyph glyph-name="uniFEA3" unicode="&#x62d;" horiz-adv-x="677" arabic-form="initial" 
d="M-11 78q4 4 11 4h163q48 0 92 16.5t79 48.5l89 81q12 11 18 14l-240 71q-6 2 -13 2q-11 0 -24.5 -7.5t-19.5 -25.5l-25 -80l-61 16l23 80q7 24 22.5 42t36 29t36 13t22.5 2q16 0 32 -5l386 -116l-21 -67l-40 12q-13 3 -24 3q-14 0 -29 -6.5t-34 -23.5l-116 -106
q-40 -38 -91 -56.5t-105 -18.5h-156q-14 0 -14 14v54q0 5 3 10z" />
    <glyph glyph-name="uniFEA4" unicode="&#x62d;" horiz-adv-x="685" arabic-form="medial" 
d="M-14 14v53q0 5 4 10t10 5h163q48 0 92.5 16t79.5 48l88 82q12 11 18 14l-239 71q-7 2 -14 2q-11 0 -24.5 -7.5t-19.5 -25.5l-26 -80l-60 17l23 79q7 24 22.5 42.5t36 29.5t35.5 12.5t21 1.5q17 0 34 -5l386 -116l-21 -67l-40 12q-12 2 -23 3q-11 -1 -24 -4.5t-28 -15.5
v-37q0 -30 21.5 -51t51.5 -21h132q6 0 10 -4.5t4 -9.5v-54q0 -14 -14 -14h-120q-30 0 -55 10.5t-44 29t-30.5 44t-14.5 54.5l-69 -64q-40 -36 -90.5 -55t-104.5 -19h-157q-14 0 -14 14z" />
    <glyph glyph-name="uniFEA6" unicode="&#x62e;" horiz-adv-x="687" arabic-form="final" 
d="M76 243l23 80q8 26 24 44t37 28t35.5 11t19.5 2q17 -1 32 -5l363 -109l-21 -62l-56 13q-9 2 -18 2q-4 0 -13 -1t-20 -9v-82q0 -31 21.5 -52t51.5 -21h132q14 0 14 -14v-54q0 -14 -14 -14h-120q-31 0 -58 12t-46.5 32.5t-30.5 48.5t-11 59v41l-193 -142q-31 -23 -48 -55.5
t-17 -70.5q0 -35 13.5 -65.5t36 -53.5t53.5 -36t65 -13h235v-82h-235q-49 0 -93 19t-76.5 51.5t-52 76t-19.5 92.5q0 58 26 107.5t71 82.5q21 15 50.5 36.5t60 44t59 43t47.5 34.5q5 4 12.5 9t12.5 8l-211 62q-5 2 -11 2q-11 0 -25.5 -9t-19.5 -27l-25 -80zM162 611h85v-85
h-85v85z" />
    <glyph glyph-name="uniFEA7" unicode="&#x62e;" horiz-adv-x="677" arabic-form="initial" 
d="M-11 78q4 4 11 4h163q48 0 92 16.5t79 48.5l89 81q12 11 18 14l-240 71q-6 2 -13 2q-11 0 -24.5 -7.5t-19.5 -25.5l-25 -80l-61 16l23 80q7 24 22.5 42t36 29t36 13t22.5 2q16 0 32 -5l386 -116l-21 -67l-40 12q-13 3 -24 3q-14 0 -29 -6.5t-34 -23.5l-116 -106
q-40 -38 -91 -56.5t-105 -18.5h-156q-14 0 -14 14v54q0 5 3 10zM152 501v85h85v-85h-85z" />
    <glyph glyph-name="uniFEA8" unicode="&#x62e;" horiz-adv-x="685" arabic-form="medial" 
d="M-14 67q0 5 4 10t10 5h163q48 0 92.5 16t79.5 48l88 82q12 11 18 14l-239 71q-7 2 -14 2q-11 0 -24.5 -7.5t-19.5 -25.5l-26 -80l-60 17l23 79q7 24 22.5 42.5t36 29.5t35.5 12.5t21 1.5q17 0 34 -5l386 -116l-21 -67l-40 12q-12 2 -23 3q-11 -1 -24 -4.5t-28 -15.5v-37
q0 -30 21.5 -51t51.5 -21h132q6 0 10 -4.5t4 -9.5v-54q0 -14 -14 -14h-120q-30 0 -55 10.5t-44 29t-30.5 44t-14.5 54.5l-69 -64q-40 -36 -90.5 -55t-104.5 -19h-157q-14 0 -14 14v53zM152 586h85v-85h-85v85z" />
    <glyph glyph-name="uniFEAA" unicode="&#x62f;" horiz-adv-x="582" arabic-form="final" 
d="M134 214v-88q0 -18 10 -31t30 -13h146q21 0 38 9t28.5 24t14.5 28.5t3 21.5q0 10 -3 21l-74 269l65 24l95 -340q7 -25 27.5 -41t46.5 -16h21q6 0 10 -4.5t4 -10.5v-53q0 -14 -14 -14h-19q-38 0 -69 19.5t-50 55.5q-20 -36 -53.5 -55.5t-71.5 -19.5h-137q-22 0 -41.5 8.5
t-34 23.5t-23 34.5t-8.5 41.5v106h59z" />
    <glyph glyph-name="uniFEAC" unicode="&#x630;" horiz-adv-x="582" arabic-form="final" 
d="M134 214v-88q0 -18 10 -31t30 -13h146q21 0 38 9t28.5 24t14.5 28.5t3 21.5q0 10 -3 21l-74 269l65 24l95 -340q7 -25 27.5 -41t46.5 -16h21q6 0 10 -4.5t4 -10.5v-53q0 -14 -14 -14h-19q-38 0 -69 19.5t-50 55.5q-20 -36 -53.5 -55.5t-71.5 -19.5h-137q-22 0 -41.5 8.5
t-34 23.5t-23 34.5t-8.5 41.5v106h59zM383 681v-85h-85v85h85z" />
    <glyph glyph-name="uniFEAE" unicode="&#x631;" horiz-adv-x="418" arabic-form="final" 
d="M-40 -181l121 40q44 14 70 51t26 82v316h69v-157q0 -29 21.5 -49t50.5 -20h100q6 0 10 -4.5t4 -10.5v-53q0 -14 -14 -14h-88q-24 0 -47 10t-37 30v-44q0 -35 -11 -67.5t-30.5 -59.5t-47.5 -47.5t-61 -31.5l-114 -40z" />
    <glyph glyph-name="uniFEB0" unicode="&#x632;" horiz-adv-x="422" arabic-form="final" 
d="M-40 -181l121 40q44 14 70 51t26 82v316h69v-157q0 -29 21.5 -49t50.5 -20h104q6 0 10 -4.5t4 -10.5v-53q0 -14 -14 -14h-92q-24 0 -47 10t-37 30v-44q0 -35 -11 -67.5t-30.5 -59.5t-47.5 -47.5t-61 -31.5l-114 -40zM253 511v-85h-85v85h85z" />
    <glyph glyph-name="uniFEB2" unicode="&#x633;" horiz-adv-x="1204" arabic-form="final" 
d="M75 26v267h69v-256q0 -27 10.5 -50.5t28 -41t41.5 -27.5t51 -10h172q23 0 43 8.5t34.5 23t23 34.5t8.5 43v293h69v-156q0 -30 22 -51.5t51 -21.5h18q29 0 51 18t27 47l32 157l67 -11l-26 -132q-1 -5 -1 -10q0 -26 19 -47t51 -21h14q30 0 51 21t21 51v185h69v-190
q0 -26 22 -46.5t51 -20.5h40q14 0 14 -14v-53q0 -6 -4 -10.5t-10 -4.5h-28q-37 0 -68 17t-51 49q-22 -32 -53.5 -49t-66.5 -17t-63.5 17t-45.5 49q-20 -34 -50 -50t-65 -16q-23 0 -46.5 8.5t-41.5 31.5v-42q0 -36 -14 -67t-38 -54.5t-56.5 -37t-68.5 -13.5h-172
q-42 0 -78.5 15.5t-63.5 42.5t-43 63.5t-16 78.5z" />
    <glyph glyph-name="uniFEB3" unicode="&#x633;" horiz-adv-x="707" arabic-form="initial" 
d="M-10 78q5 4 10 4h41q30 0 51 21t21 51v156h69v-157q0 -30 21 -50.5t50 -20.5h18q29 0 51 17.5t27 45.5l32 158l67 -12l-26 -131q-1 -7 -1 -14q0 -23 19 -43.5t51 -20.5h86v256h69v-248q0 -41 -25 -65.5t-65 -24.5h-66q-33 0 -63 17t-45 49q-20 -34 -51 -50t-66 -16
q-36 0 -67 16.5t-51 49.5q-20 -33 -51 -49.5t-67 -16.5h-29q-14 0 -14 14v54q0 6 4 10z" />
    <glyph glyph-name="uniFEB4" unicode="&#x633;" horiz-adv-x="760" arabic-form="medial" 
d="M-14 68q0 6 4.5 10t9.5 4h40q30 0 51.5 21t21.5 51v156h69v-158q0 -29 21.5 -49.5t50.5 -20.5h18q29 0 51.5 17.5t27.5 46.5l30 157l69 -11l-27 -132q-1 -6 -1 -12q0 -10 3.5 -21t13.5 -21.5t24.5 -17t32.5 -6.5h10q30 0 51 21t21 51v185h69v-190q2 -29 23 -48t50 -19h40
q5 0 9.5 -4t4.5 -10v-54q0 -5 -4 -9.5t-10 -4.5h-28q-37 0 -68 16.5t-51 49.5q-21 -33 -52.5 -49.5t-67.5 -16.5q-34 0 -63.5 15.5t-45.5 50.5q-20 -34 -51 -50t-65 -16q-37 0 -68 16.5t-52 49.5q-21 -33 -52 -49.5t-68 -16.5h-28q-6 0 -10 4.5t-4 9.5v54z" />
    <glyph glyph-name="uniFEB6" unicode="&#x634;" horiz-adv-x="1204" arabic-form="final" 
d="M75 26v267h69v-256q0 -27 10 -50.5t28 -41t41.5 -27.5t50.5 -10h173q23 0 43 8.5t34.5 23t23 34.5t8.5 43v293h69v-156q0 -30 22 -51t51 -21h18q29 0 51 17.5t27 46.5l32 157l67 -11l-26 -132q-1 -5 -1 -10q0 -26 19 -47t51 -21h14q30 0 51 21t21 51v185h69v-190
q0 -26 22 -46.5t51 -20.5h40q14 0 14 -14v-53q0 -6 -4 -10.5t-10 -4.5h-28q-37 0 -68 17t-51 49q-22 -32 -53.5 -49t-66.5 -17t-63.5 17t-45.5 49q-20 -34 -49.5 -50t-64.5 -16q-23 0 -47 8.5t-42 31.5v-42q0 -36 -14 -67t-38 -54.5t-56.5 -37t-68.5 -13.5h-173
q-41 0 -77.5 15.5t-63.5 42.5t-43 63.5t-16 78.5zM714 421v85h85v-85h-85zM780 543v85h85v-85h-85zM936 506v-85h-85v85h85z" />
    <glyph glyph-name="uniFEB7" unicode="&#x634;" horiz-adv-x="709" arabic-form="initial" 
d="M-14 14v54q0 14 14 14h41q30 0 51.5 21t21.5 52v155h69v-157q0 -30 21 -50.5t51 -20.5h17q29 0 50.5 17.5t27.5 46.5l31 157l69 -11l-27 -132q-1 -6 -1 -12q0 -10 3.5 -21t13 -21.5t23.5 -17t30 -6.5h86v257h69v-249q0 -41 -24.5 -65.5t-65.5 -24.5h-65q-34 0 -63.5 17
t-44.5 49q-21 -34 -51.5 -50t-65.5 -16q-37 0 -68 17t-51 49q-21 -32 -52 -49t-67 -17h-29q-6 0 -10 3.5t-4 8.5v2zM272 506h85v-85h-85v85zM338 628h85v-85h-85v85zM409 506h85v-85h-85v85z" />
    <glyph glyph-name="uniFEB8" unicode="&#x634;" horiz-adv-x="761" arabic-form="medial" 
d="M-14 14v54q0 6 4.5 10t9.5 4h41q30 0 51.5 21t21.5 51v156h69v-159q0 -29 21.5 -49.5t50.5 -20.5h18q29 0 51.5 18t27.5 47l30 157l69 -11l-26 -132q-1 -7 -1 -14q0 -9 3 -20.5t13 -22t25 -16.5t32 -6h10q30 0 51 21.5t21 51.5v185h69v-190q2 -29 23 -48t50 -19h40
q5 0 9.5 -4t4.5 -10v-54q0 -5 -4 -9.5t-10 -4.5h-28q-37 0 -68 16.5t-51 49.5q-21 -33 -52.5 -49.5t-66.5 -16.5t-64.5 15.5t-45.5 50.5q-20 -34 -51 -50t-65 -16q-37 0 -68 16.5t-52 49.5q-21 -33 -52 -49.5t-68 -16.5h-29q-6 0 -10 4.5t-4 9.5zM272 422v85h85v-85h-85z
M422 629v-85h-85v85h85zM494 507v-85h-85v85h85z" />
    <glyph glyph-name="uniFEBA" unicode="&#x635;" horiz-adv-x="1265" arabic-form="final" 
d="M144 294v-256q0 -27 10 -50.5t28 -41.5t41.5 -28t50.5 -10h173q23 0 43 8.5t35 23t23.5 34.5t8.5 43v293h69v-139q0 -17 3.5 -28t8.5 -18q5 -8 11 -12l162 178q29 30 67.5 46.5t80.5 16.5h61q29 0 55 -11t45 -30t30 -44.5t11 -54.5v-60q0 -30 21 -51t51 -21h32
q5 0 9.5 -4.5t4.5 -10.5v-53q0 -5 -4 -9.5t-10 -4.5h-20q-36 0 -66 16.5t-50 46.5q-20 -30 -48.5 -46.5t-63.5 -16.5h-272q-48 0 -76 10t-44 29v-40q0 -36 -14 -67.5t-38.5 -55t-57 -37t-68.5 -13.5h-172q-42 0 -78.5 16t-63.5 43t-42.5 63.5t-15.5 77.5v268h69zM710 82h317
q26 0 45.5 19t19.5 46v62q0 29 -20 49t-49 20h-68q-30 0 -57 -12t-48 -34z" />
    <glyph glyph-name="uniFEBB" unicode="&#x635;" horiz-adv-x="781" arabic-form="initial" 
d="M-14 67q0 6 4 10.5t10 4.5h43q30 0 51.5 21t21.5 51v139h69v-121q0 -17 3.5 -28t8 -17.5t8.5 -9.5l3 -3l162 176q29 31 67.5 48t80.5 17h61q29 0 54.5 -11t44.5 -30t30 -44.5t11 -54.5v-71q0 -30 -11 -56t-30.5 -45.5t-45.5 -31t-56 -11.5h-304q-18 0 -37 4.5t-35.5 12.5
t-30 20.5t-20.5 28.5q-20 -32 -51 -49t-68 -17h-30q-6 0 -10 4.5t-4 10.5v52zM269 82h316q27 0 46 18t19 47v63q0 29 -19.5 49t-48.5 20h-68q-33 0 -59 -12t-46 -35z" />
    <glyph glyph-name="uniFEBC" unicode="&#x635;" horiz-adv-x="824" arabic-form="medial" 
d="M-14 68q0 6 4.5 10t9.5 4h43q31 0 52 20.5t21 50.5v139h69v-129q0 -16 3.5 -26t7 -15.5t7.5 -7.5l3 -3l165 179q28 30 66.5 47t80.5 17h62q29 0 54.5 -11t44.5 -30t30 -44.5t11 -54.5v-66q0 -29 21.5 -47.5t50.5 -18.5h32q5 0 9.5 -4t4.5 -10v-54q0 -5 -4 -9.5t-10 -4.5
h-20q-36 0 -66.5 16.5t-50.5 48.5q-39 -65 -111 -65h-306q-40 0 -72.5 15t-49.5 51q-21 -33 -51 -49.5t-66 -16.5h-31q-5 0 -9.5 4t-4.5 11v53zM267 82h318q28 0 47 19t19 46v62q0 29 -20.5 49t-49.5 20h-67q-30 0 -58 -12t-48 -34z" />
    <glyph glyph-name="uniFEBE" unicode="&#x636;" horiz-adv-x="1265" arabic-form="final" 
d="M75 26v268h69v-256q0 -27 10 -50.5t28 -41.5t41.5 -28t50.5 -10h173q23 0 43 8.5t35 23t23.5 34.5t8.5 43v293h69v-139q0 -17 3.5 -28t8.5 -18q5 -8 11 -12l162 178q29 30 67.5 46.5t80.5 16.5h61q29 0 55 -11t45 -30t30 -44.5t11 -54.5v-60q0 -30 21 -51t51 -21h32
q5 0 9.5 -4.5t4.5 -10.5v-53q0 -5 -4 -9.5t-10 -4.5h-20q-36 0 -66 16.5t-50 46.5q-20 -30 -48.5 -46.5t-63.5 -16.5h-272q-48 0 -76 10t-44 29v-40q0 -36 -14 -67.5t-38.5 -55t-57 -37t-68.5 -13.5h-172q-42 0 -78.5 16t-63.5 43t-42.5 63.5t-15.5 77.5zM710 82h317
q26 0 45.5 19t19.5 46v62q0 29 -20 49t-49 20h-68q-30 0 -57 -12t-48 -34zM917 472v85h85v-85h-85z" />
    <glyph glyph-name="uniFEBF" unicode="&#x636;" horiz-adv-x="781" arabic-form="initial" 
d="M-14 67q0 6 4 10.5t10 4.5h43q30 0 51.5 21t21.5 51v139h69v-121q0 -17 3.5 -28t8 -17.5t8.5 -9.5l3 -3l162 176q29 31 67.5 48t80.5 17h61q29 0 54.5 -11t44.5 -30t30 -44.5t11 -54.5v-71q0 -30 -11 -56t-30.5 -45.5t-45.5 -31t-56 -11.5h-319q-36 0 -65 17t-43 49
q-20 -32 -51 -49t-68 -17h-30q-6 0 -10 4.5t-4 10.5v52zM269 82h316q27 0 46.5 18t19.5 47v63q0 29 -20 49t-49 20h-68q-33 0 -59 -12t-46 -35zM485 558h85v-85h-85v85z" />
    <glyph glyph-name="uniFEC0" unicode="&#x636;" horiz-adv-x="824" arabic-form="medial" 
d="M-14 68q0 6 4.5 10t9.5 4h43q31 0 52 20.5t21 50.5v139h69v-129q0 -16 3.5 -26t7 -15.5t7.5 -7.5l3 -3l165 179q28 30 66.5 47t80.5 17h62q29 0 54.5 -11t44.5 -30t30 -44.5t11 -54.5v-66q0 -29 21.5 -47.5t50.5 -18.5h32q5 0 9.5 -4t4.5 -10v-54q0 -5 -4 -9.5t-10 -4.5
h-20q-36 0 -66.5 16.5t-50.5 48.5q-39 -65 -111 -65h-306q-40 0 -72.5 15t-49.5 51q-21 -33 -51 -49.5t-66 -16.5h-31q-5 0 -9.5 4t-4.5 11v53zM585 82q28 0 47 19t19 46v62q0 29 -20.5 49t-49.5 20h-67q-30 0 -58 -12t-48 -34l-141 -150h318zM569 557v-85h-85v85h85z" />
    <glyph glyph-name="uniFEC2" unicode="&#x637;" horiz-adv-x="779" arabic-form="final" 
d="M130 82l111 119v458h69v-350q0 -16 -3 -28q-2 -11 -4 -13l13 13q4 4 8.5 9t7.5 8q27 27 63 41.5t76 14.5h62q29 0 54.5 -11t44.5 -29.5t30 -44t11 -54.5v-61q0 -31 21.5 -51.5t51.5 -20.5h33q5 0 9.5 -4t4.5 -10v-54q0 -5 -4.5 -9.5t-9.5 -4.5h-21q-36 0 -66.5 16.5
t-50.5 47.5q-20 -31 -48.5 -47.5t-63.5 -16.5h-454v82h55zM538 82q28 0 47 19t19 46v62q0 29 -20 49t-49 20h-68q-30 0 -57.5 -11.5t-48.5 -33.5l-141 -151h318z" />
    <glyph glyph-name="uniFEC3" unicode="&#x637;" horiz-adv-x="668" arabic-form="initial" 
d="M-14 68q0 6 4.5 10t9.5 4h65l111 119v458h68v-351q0 -17 -3 -28q-1 -7 -3 -13l5 5q4 4 8.5 9t8.5 9.5t5 5.5q28 28 64.5 43t76.5 15h61q29 0 54.5 -11t44.5 -30t30 -44.5t11 -54.5v-70q0 -30 -11 -56t-30.5 -45.5t-45.5 -31t-56 -11.5h-464q-5 0 -9.5 4.5t-4.5 9.5v54z
M473 82q27 0 46 19t19 45v63q0 29 -19.5 49t-48.5 20h-68q-31 0 -58 -12t-48 -34l-141 -150h318z" />
    <glyph glyph-name="uniFEC4" unicode="&#x637;" horiz-adv-x="713" arabic-form="medial" 
d="M0 82h64l111 119v458h69v-350q0 -16 -3 -28q-2 -11 -4 -13l13 13q4 4 8.5 9t7.5 8q27 27 63 41.5t76 14.5h62q29 0 54.5 -11t44.5 -29.5t30 -44t11 -54.5v-61q0 -31 21.5 -51.5t51.5 -20.5h33q5 0 9.5 -4t4.5 -10v-54q0 -5 -4.5 -9.5t-9.5 -4.5h-21q-36 0 -66.5 16
t-50.5 48q-40 -64 -112 -64h-463q-14 0 -14 14v54q0 14 14 14zM472 82q28 0 47 19t19 46v62q0 29 -20 49t-49 20h-68q-30 0 -57.5 -11.5t-48.5 -33.5l-141 -151h318z" />
    <glyph glyph-name="uniFEC6" unicode="&#x638;" horiz-adv-x="779" arabic-form="final" 
d="M130 82l111 119v458h69v-350q0 -16 -3 -28q-2 -11 -4 -13l13 13q4 4 8.5 9t7.5 8q27 27 63 41.5t76 14.5h62q29 0 54.5 -11t44.5 -29.5t30 -44t11 -54.5v-61q0 -31 21.5 -51.5t51.5 -20.5h33q5 0 9.5 -4t4.5 -10v-54q0 -5 -4.5 -9.5t-9.5 -4.5h-21q-36 0 -66.5 16.5
t-50.5 47.5q-20 -31 -48.5 -47.5t-63.5 -16.5h-454v82h55zM538 82q28 0 47 19t19 46v62q0 29 -20 49t-49 20h-68q-30 0 -57.5 -11.5t-48.5 -33.5l-141 -151h318zM527 557v-85h-85v85h85z" />
    <glyph glyph-name="uniFEC7" unicode="&#x638;" horiz-adv-x="668" arabic-form="initial" 
d="M0 82h64l111 119v458h68v-351q0 -17 -3 -28q-1 -7 -3 -13q1 1 5 5.5t8.5 9t8.5 9t5 5.5q28 28 64.5 43t76.5 15h61q29 0 54.5 -11t44.5 -30t30 -44.5t11 -54.5v-70q0 -30 -11 -56t-30.5 -45.5t-45.5 -31t-56 -11.5h-463q-14 0 -14 14v54q0 14 14 14zM154 82h318
q27 0 46 18.5t19 45.5v63q0 29 -19.5 49t-48.5 20h-68q-31 0 -58 -12t-48 -34zM460 557v-85h-85v85h85z" />
    <glyph glyph-name="uniFEC8" unicode="&#x638;" horiz-adv-x="713" arabic-form="medial" 
d="M0 82h64l111 119v458h69v-350q0 -16 -3 -28q-2 -11 -4 -13l13 13q4 4 8.5 9t7.5 8q27 27 63 41.5t76 14.5h62q29 0 54.5 -11t44.5 -29.5t30 -44t11 -54.5v-61q0 -31 21.5 -51.5t51.5 -20.5h33q5 0 9.5 -4t4.5 -10v-54q0 -5 -4.5 -9.5t-9.5 -4.5h-21q-36 0 -66.5 16
t-50.5 48q-40 -64 -112 -64h-463q-14 0 -14 14v54q0 14 14 14zM472 82q28 0 47 19t19 46v62q0 29 -20 49t-49 20h-68q-30 0 -57.5 -11.5t-48.5 -33.5l-141 -151h318zM375 557h85v-85h-85v85z" />
    <glyph glyph-name="uniFECA" unicode="&#x639;" horiz-adv-x="598" arabic-form="final" 
d="M99 -51q23 49 71 82l78 56l-138 94v122q0 39 23 62t61 23h175q28 0 53 -10t43.5 -28t29 -42t10.5 -51v-24q0 -23 -10 -42.5t-29 -33.5l-81 -56q24 -11 52.5 -15t55.5 -4h105q6 0 10 -4.5t4 -9.5v-55q0 -13 -14 -13h-105q-100 0 -186 46l-96 -68q-31 -23 -48.5 -56
t-17.5 -71q0 -35 13.5 -65t37 -53t54 -36t64.5 -13h241v-81h-239q-50 0 -94 19t-76.5 51.5t-51.5 76.5t-19 94q0 56 24 105zM177 311v-87l136 -91l123 88v30q0 25 -19 42.5t-45 17.5h-195z" />
    <glyph glyph-name="uniFECB" unicode="&#x639;" horiz-adv-x="471" arabic-form="initial" 
d="M-10 78q4 4 10 4h119q-3 7 -5.5 13.5t-4.5 14.5l-24 126q-2 12 -2 24q0 18 6.5 40t24.5 43.5t44 34.5t57 13h154v-76h-160q-27 0 -42 -18.5t-15 -38.5q0 -6 1 -12l31 -161l214 22l12 -72l-146 -19q-57 -8 -115 -12t-115 -4h-34q-14 0 -14 14v54q0 5 4 10z" />
    <glyph glyph-name="uniFECC" unicode="&#x639;" horiz-adv-x="595" arabic-form="medial" 
d="M-14 67q0 6 3.5 10.5t10.5 4.5h121q27 0 56 3.5t51 11.5l-123 84v124q0 37 22.5 59.5t59.5 22.5h185q27 0 50.5 -10t41.5 -27.5t28.5 -41.5t10.5 -51v-24q0 -23 -10.5 -43t-29.5 -33l-84 -58q23 -8 51 -12.5t57 -4.5h108q6 0 10 -4.5t4 -10.5v-52q0 -6 -4 -10.5t-10 -4.5
h-112q-48 0 -93.5 12.5t-87.5 35.5q-42 -23 -87.5 -35.5t-93.5 -12.5h-121q-7 0 -10.5 4.5t-3.5 10.5v52zM210 198q23 -16 44 -30q26 -17 53 -36l127 89v30q0 26 -17 43.5t-43 17.5h-201v-89q14 -10 37 -25z" />
    <glyph glyph-name="uniFECE" unicode="&#x63a;" horiz-adv-x="598" arabic-form="final" 
d="M99 -51q23 49 71 82l78 56l-138 94v122q0 39 23 62t61 23h175q28 0 53 -10t43.5 -28t29 -42t10.5 -51v-24q0 -23 -10 -42.5t-29 -33.5l-81 -56q24 -11 52.5 -15t55.5 -4h105q6 0 10 -4.5t4 -9.5v-55q0 -13 -14 -13h-105q-100 0 -186 46l-96 -68q-31 -23 -48.5 -56
t-17.5 -71q0 -35 13.5 -65t37 -53t54 -36t64.5 -13h241v-81h-239q-50 0 -94 19t-76.5 51.5t-51.5 76.5t-19 94q0 56 24 105zM177 224l136 -91l123 88v30q0 25 -19 42.5t-45 17.5h-195v-87zM244 589h85v-84h-85v84z" />
    <glyph glyph-name="uniFECF" unicode="&#x63a;" horiz-adv-x="471" arabic-form="initial" 
d="M-10 77q4 4 10 4h120q-8 15 -11 28l-23 126q-3 13 -3 25q0 17 6.5 39t24.5 43.5t44 34.5t57 13h155v-76h-161q-27 0 -42 -19t-15 -40q0 -5 1 -10l31 -161l215 22l11 -72l-145 -19q-115 -15 -230 -15h-35q-14 0 -14 14v53q0 5 4 10zM222 494v85h86v-85h-86z" />
    <glyph glyph-name="uniFED0" unicode="&#x63a;" horiz-adv-x="595" arabic-form="medial" 
d="M-14 15v52q0 6 3.5 10.5t10.5 4.5h129q28 0 56 3.5t51 11.5l-123 84v124q0 37 22.5 59.5t58.5 22.5h186q27 0 50.5 -10t41 -27.5t28 -41.5t10.5 -51v-24q0 -23 -10 -43t-28 -33l-85 -58q45 -17 109 -17h99q7 0 10.5 -4.5t3.5 -10.5v-52q0 -6 -4 -10.5t-10 -4.5h-104
q-48 0 -93.5 12.5t-87.5 35.5q-42 -23 -87.5 -35.5t-93.5 -12.5h-129q-7 0 -10.5 4.5t-3.5 10.5zM182 223q14 -10 36.5 -25.5t43.5 -29.5q25 -17 52 -36l128 89v30q0 26 -17 43.5t-43 17.5h-200v-89zM341 590v-84h-85v84h85z" />
    <glyph glyph-name="uniFED2" unicode="&#x641;" horiz-adv-x="925" arabic-form="final" 
d="M75 182v156h69v-153q0 -45 28.5 -74t74.5 -29h337q8 0 15 1q-29 24 -46.5 54.5t-17.5 65.5v30q0 34 13 64t35.5 52.5t52.5 35.5t63 13h12q34 0 63.5 -13t51.5 -35t35 -52t13 -63v-32q0 -35 -17.5 -65.5t-46.5 -54.5q7 -1 16 -1h99q6 0 10 -4.5t4 -9.5v-54q0 -14 -14 -14
h-85q-34 0 -64 5.5t-72 22.5q-21 -9 -38 -14.5t-33 -8.5t-31.5 -4t-32.5 -1h-312q-40 0 -73.5 14t-57.5 39t-37.5 58t-13.5 71zM604 195q0 -28 29 -55t71 -48q22 10 40.5 22.5t32 26t21.5 27.5t8 27v33q0 20 -7.5 37t-20 29.5t-30 20t-37.5 7.5h-13q-19 0 -36.5 -7.5
t-30 -20t-20 -29.5t-7.5 -36v-34zM747 601v-85h-85v85h85z" />
    <glyph glyph-name="uniFED3" unicode="&#x641;" horiz-adv-x="454" arabic-form="initial" 
d="M-14 15v52q0 6 4.5 10.5t9.5 4.5h243q32 0 56 18t24 59v14q-19 -8 -41 -8h-97q-31 0 -57.5 13t-44.5 35t-24 44t-6 39q0 13 3 26l15 84q9 47 45.5 77t83.5 30h53q29 0 54.5 -11t44 -30t29.5 -44.5t11 -54.5v-218q0 -32 -12 -60.5t-33 -49.5t-49.5 -33t-60.5 -12h-237
q-6 0 -10 4.5t-4 10.5zM135 266q17 -20 43 -20h146v128q0 26 -19 44t-45 18h-61q-23 0 -40.5 -14t-21.5 -37l-14 -73q-1 -6 -1 -12q0 -19 13 -34zM186 715h85v-85h-85v85z" />
    <glyph glyph-name="uniFED4" unicode="&#x641;" horiz-adv-x="446" arabic-form="medial" 
d="M-14 67q0 6 4 10.5t10 4.5h118q-29 25 -46.5 55t-17.5 66v30q0 34 13 64t35.5 52.5t52 35.5t62.5 13h12q34 0 63.5 -13t51.5 -35.5t35 -52t13 -63.5v-31q0 -36 -17.5 -66t-46.5 -55h118q5 0 9.5 -4.5t4.5 -10.5v-53q0 -5 -4.5 -9.5t-9.5 -4.5h-88q-35 0 -67.5 6.5
t-68.5 20.5q-35 -14 -67.5 -20.5t-67.5 -6.5h-87q-6 0 -10 4.5t-4 9.5v53zM150 140q28 -26 72 -48q44 22 73 48t29 58v29q0 20 -7.5 37t-20.5 29.5t-30 20t-37 7.5h-14q-19 0 -36 -7.5t-29.5 -20t-20 -29.5t-7.5 -37v-29q0 -32 28 -58zM263 601v-85h-85v85h85z" />
    <glyph glyph-name="uniFED6" unicode="&#x642;" horiz-adv-x="731" arabic-form="final" 
d="M143 214l1 -227q0 -27 10 -51t28 -41.5t41.5 -28t50.5 -10.5h174q23 0 42.5 8.5t34.5 23t23.5 34t8.5 41.5v45q-4 -2 -15 -5t-25 -3h-98q-31 0 -57.5 13.5t-44.5 35.5t-24.5 44.5t-6.5 39.5q0 12 3 25l16 84q5 23 16.5 42.5t29 33.5t38.5 22t45 8h53q29 0 54.5 -11
t44 -29.5t29.5 -44t11 -54.5v-127h105q14 0 14 -14v-54q0 -5 -4 -9.5t-10 -4.5h-106v-47q0 -37 -14 -69.5t-38 -56.5t-56 -38t-69 -14h-173q-41 0 -77.5 15.5t-63.5 42.5t-43 63.5t-16 78.5v239h68zM369 102q17 -20 43 -20h145v127q0 26 -18.5 44.5t-44.5 18.5h-61
q-23 0 -40.5 -14.5t-21.5 -37.5l-14 -72q-1 -6 -1 -12q0 -19 13 -34zM569 551v-85h-85v85h85zM347 466v85h85v-85h-85z" />
    <glyph glyph-name="uniFED7" unicode="&#x642;" horiz-adv-x="454" arabic-form="initial" 
d="M-14 14v54q0 5 4.5 9.5t9.5 4.5h243q32 0 56 18t24 59v14q-9 -5 -19 -6.5t-21 -1.5h-98q-31 0 -57.5 13t-44.5 35t-24 44t-6 39q0 13 3 26l16 84q4 23 16 43t29 34t38.5 22t45.5 8h52q29 0 54.5 -11t44.5 -30t30 -44.5t11 -54.5v-219q0 -32 -12.5 -60t-33.5 -49t-49 -33
t-60 -12h-238q-14 0 -14 14zM135 266q17 -20 43 -20h146v127q0 26 -18.5 44.5t-45.5 18.5h-61q-23 0 -40.5 -14t-21.5 -37l-14 -73q-1 -6 -1 -12q0 -19 13 -34zM337 715v-85h-85v85h85zM115 630v85h85v-85h-85z" />
    <glyph glyph-name="uniFED8" unicode="&#x642;" horiz-adv-x="446" arabic-form="medial" 
d="M-14 67q0 6 4 10.5t10 4.5h118q-29 25 -46.5 55t-17.5 66v30q0 34 13 64t35.5 52.5t52 35.5t62.5 13h12q34 0 63.5 -13t51.5 -35.5t35 -52t13 -63.5v-31q0 -36 -17.5 -66t-46.5 -55h118q5 0 9.5 -4.5t4.5 -10.5v-53q0 -5 -4.5 -9.5t-9.5 -4.5h-88q-35 0 -67.5 6.5
t-68.5 20.5q-35 -14 -67.5 -20.5t-67.5 -6.5h-87q-6 0 -10 4.5t-4 9.5v53zM122 198q0 -32 28 -58t72 -48q44 22 73 48t29 58v29q0 20 -7.5 37t-20.5 29.5t-30 20t-37 7.5h-14q-19 0 -36 -7.5t-29.5 -20t-20 -29.5t-7.5 -37v-29zM248 515v85h85v-85h-85zM111 515v85h85v-85
h-85z" />
    <glyph glyph-name="uniFEDA" unicode="&#x643;" horiz-adv-x="890" arabic-form="final" 
d="M145 337v-148q0 -22 8.5 -42t23 -34t34 -22.5t41.5 -8.5h395q30 0 51.5 21t21.5 51v513h69v-513q0 -30 21 -51t51 -21h29q14 0 14 -14v-54q0 -14 -14 -14h-16q-37 0 -68 17t-51 47q-22 -31 -53 -47.5t-68 -16.5h-379q-37 0 -69.5 14t-57 38.5t-38.5 57t-14 69.5v158h69z
M293 320l80 37q-2 0 -8 3.5t-11 13.5q0 1 -2.5 5.5t-5.5 10.5t-5.5 12t-4.5 9q-10 20 -10 40t7 37.5t20.5 31t31.5 20.5l74 31l20 -47l-78 -34q-15 -8 -19.5 -20t-4.5 -20q0 -10 5 -20q1 -3 4.5 -9.5t7.5 -14.5t8.5 -16.5t7.5 -14.5l137 72l22 -46l-252 -129z" />
    <glyph glyph-name="uniFEDB" unicode="&#x643;" horiz-adv-x="389" arabic-form="initial" 
d="M0 82h135q33 0 59.5 16.5t39 40.5t12.5 51q0 6 -2 26t-27 55l-161 221v58l307 157l32 -63l-269 -137l148 -198q38 -51 40.5 -82.5t2.5 -39.5q0 -45 -21 -87t-65.5 -71t-104.5 -29h-126q-14 0 -14 14v54q0 14 14 14z" />
    <glyph glyph-name="uniFEDC" unicode="&#x643;" horiz-adv-x="513" arabic-form="medial" 
d="M0 82h135q34 0 60 16.5t38.5 41t12.5 51.5q0 6 -2 26t-27 54l-161 220v59l307 157l32 -63l-269 -137l280 -374q17 -23 41.5 -37t53.5 -14h12q5 0 9.5 -4.5t4.5 -10.5v-53q0 -6 -4.5 -10t-9.5 -4h-11q-87 0 -144 83l-53 78q-2 -39 -18 -69t-41.5 -50.5t-56.5 -31
t-63 -10.5h-126q-14 0 -14 14v54q0 14 14 14z" />
    <glyph glyph-name="uniFEDE" unicode="&#x644;" horiz-adv-x="751" arabic-form="final" 
d="M75 265l69 -1v-225q0 -27 10 -51t28 -41.5t41.5 -28t50.5 -10.5h173q23 0 43 8.5t35 23.5t23.5 35t8.5 43v641h69v-505q0 -30 21 -51t51 -21h53q5 0 9.5 -4.5t4.5 -9.5v-53q0 -15 -14 -15h-38q-24 0 -46.5 8.5t-41.5 31.5v-39q0 -34 -13.5 -65.5t-37.5 -56t-56.5 -39
t-70.5 -14.5h-172q-41 0 -77.5 16t-63.5 43.5t-43 64t-16 78.5v237z" />
    <glyph glyph-name="uniFEDF" unicode="&#x644;" horiz-adv-x="263" arabic-form="initial" 
d="M0 82h61q30 0 51.5 21t21.5 51v505h69v-505q0 -32 -12.5 -60t-33.5 -49t-49 -33t-60 -12h-48q-13 0 -13 14v54q0 14 13 14z" />
    <glyph glyph-name="uniFEE0" unicode="&#x644;" horiz-adv-x="332" arabic-form="medial" 
d="M0 82h62q29 0 50.5 21t21.5 51v505h69v-510q1 -28 22 -47.5t50 -19.5h57q14 0 14 -14v-54q0 -14 -14 -14h-45q-36 0 -67 16t-52 42q-20 -26 -51 -42t-68 -16h-49q-14 0 -14 14v54q0 14 14 14z" />
    <glyph glyph-name="uniFEE2" unicode="&#x645;" horiz-adv-x="742" arabic-form="final" 
d="M74 200q0 32 12.5 60.5t33.5 49.5t49 33t60 12h221q29 0 54.5 -11t44.5 -30t30 -44.5t11 -54.5v-61q0 -30 21.5 -51t51.5 -21h79q14 0 14 -14v-54q0 -5 -4 -9.5t-10 -4.5h-67q-29 0 -57 12t-47 38q-8 -30 -26 -40t-44 -10h-124q-31 0 -57 13t-44 35t-24.5 44.5t-6.5 39.5
q0 12 3 25l22 122h-54q-30 0 -51.5 -23.5t-21.5 -53.5v-451h-69v449zM327 102q15 -20 44 -20h150v134q0 26 -18.5 44.5t-44.5 18.5h-118l-24 -132q-1 -6 -1 -12q0 -19 12 -33z" />
    <glyph glyph-name="uniFEE3" unicode="&#x645;" horiz-adv-x="515" arabic-form="initial" 
d="M-10 78q4 4 10 4h32q29 0 50.5 18t26.5 45l21 103q4 23 16 43t29 34t38.5 22t45.5 8h56q29 0 54.5 -11t44.5 -30t30 -44t11 -54v-126q0 -40 -24.5 -65t-66.5 -25h-122q-32 0 -58.5 15.5t-43.5 50.5q-18 -35 -48 -50.5t-63 -15.5h-29q-14 0 -14 14v54q0 5 4 10zM192 102
q16 -20 42 -20h152v134q0 26 -18.5 44.5t-45.5 18.5h-65q-23 0 -40 -14.5t-22 -36.5l-15 -81q-1 -6 -1 -11q0 -19 13 -34z" />
    <glyph glyph-name="uniFEE4" unicode="&#x645;" horiz-adv-x="559" arabic-form="medial" 
d="M-14 14v54q0 5 4 9.5t10 4.5h32q29 0 50.5 18t26.5 45l21 103q4 23 16 43t29 34t38.5 22t45.5 8h56q29 0 54.5 -11t44.5 -30t30 -44t11 -54v-61q0 -31 21 -52t51 -21h32q6 0 10 -4.5t4 -9.5v-54q0 -14 -14 -14h-19q-30 0 -57 12t-47 38q-8 -30 -27 -40t-45 -10h-122
q-32 0 -59 15.5t-43 50.5q-18 -35 -48 -50.5t-63 -15.5h-29q-14 0 -14 14zM192 102q16 -20 42 -20h152v134q0 26 -18.5 44.5t-45.5 18.5h-65q-23 0 -40 -14.5t-22 -36.5l-15 -81q-1 -6 -1 -11q0 -19 13 -34z" />
    <glyph glyph-name="uniFEE6" unicode="&#x646;" horiz-adv-x="758" arabic-form="final" 
d="M75 25v267h69v-256q0 -27 10 -50.5t27.5 -41t41.5 -27.5t51 -10h173q23 0 43 8.5t35 23t23.5 34t8.5 42.5v294h69v-154q0 -39 24 -56t55 -17h53q14 0 14 -14v-54q0 -5 -4 -9.5t-10 -4.5h-49q-27 0 -50 11.5t-34 28.5v-42q0 -36 -14 -67.5t-38.5 -55t-57 -37t-68.5 -13.5
h-172q-42 0 -78.5 15.5t-63.5 42.5t-42.5 63.5t-15.5 78.5zM393 395v-85h-85v85h85z" />
    <glyph glyph-name="uniFEE7" unicode="&#x646;" horiz-adv-x="328" arabic-form="initial" 
d="M-10 78q4 4 10 4h121q30 0 51 21t21 50v184h69v-184q0 -32 -12 -60t-33 -48.5t-48.5 -32.5t-59.5 -12h-109q-14 0 -14 14v53q0 6 4 11zM267 541v-85h-85v85h85z" />
    <glyph glyph-name="uniFEE8" unicode="&#x646;" horiz-adv-x="346" arabic-form="medial" 
d="M-10 78q4 4 10 4h65q29 0 50.5 18t27.5 45l31 158l68 -11l-26 -132q-1 -6 -1 -13q0 -8 3 -19.5t13 -22t24 -17t30 -6.5h61q6 0 10 -4.5t4 -10.5v-53q0 -14 -14 -14h-62q-17 0 -34 5t-32 14t-26 21t-15 26q-17 -29 -48.5 -47.5t-66.5 -18.5h-62q-14 0 -14 14v53q0 6 4 11z
M224 507v-85h-85v85h85z" />
    <glyph glyph-name="uniFEEA" unicode="&#x647;" horiz-adv-x="515" arabic-form="final" 
d="M75 170v65q0 63 33.5 104t86.5 55l138 35v82h69v-351q0 -16 7 -30t18 -24.5t26.5 -17t31.5 -6.5h30q14 0 14 -14v-54q0 -14 -14 -14h-30q-47 0 -83 25t-54 65q-18 -15 -45 -15h-134q-45 0 -69.5 25t-24.5 70zM144 157h189v199l-123 -32q-31 -8 -48.5 -34.5t-17.5 -56.5
v-76z" />
    <glyph glyph-name="uniFEEB" unicode="&#x647;" horiz-adv-x="677" arabic-form="initial" 
d="M-14 69q0 6 4.5 9.5t9.5 3.5h105q-14 5 -20 24t-6 33q0 10 2 20l14 70q5 22 16.5 41t28 32.5t37.5 21t43 7.5h37q29 0 53.5 -10.5t42.5 -28.5t28 -42.5t10 -52.5v-81q0 -16 -3.5 -24t-3.5 -10h163v140q0 34 -17.5 56t-44.5 30l-328 102l19 70l321 -100q51 -16 85 -56.5
t34 -102.5v-126q0 -45 -25 -70t-70 -25h-150v47q-2 -5 -8.5 -13t-17.5 -15.5t-25 -13t-31 -5.5h-289q-5 0 -9.5 4t-4.5 9v56zM158 100q16 -18 40 -18h125v118q0 25 -17.5 42.5t-43.5 17.5h-45q-21 0 -37.5 -14t-20.5 -35l-13 -68q-1 -6 -1 -11q0 -19 13 -32z" />
    <glyph glyph-name="uniFEEC" unicode="&#x647;" horiz-adv-x="570" arabic-form="medial" 
d="M0 82h88v122q0 29 11 54.5t29.5 44.5t44 30t55.5 11h38q47 0 83.5 -30t45.5 -77l15 -79q3 -13 3 -26q0 -17 -6 -39t-24 -44t-44.5 -35.5t-57.5 -13.5h-84q-11 0 -17.5 1.5t-27.5 1.5q-41 0 -152 -3v0l156 8q1 -1 1 -10q0 -48 19 -73.5t58 -33.5l90 -17l81 126
q52 82 151 82h14q14 0 14 -14v-53q0 -6 -4 -10.5t-10 -4.5h-31q-29 0 -49.5 -12.5t-37.5 -38.5q-2 -3 -9.5 -15t-18 -28.5t-22.5 -34.5t-22 -33.5t-17 -26.5t-8 -12l-149 33q-56 12 -86.5 53.5t-31.5 114.5h-88q-6 0 -10 4.5t-4 10.5v53q0 14 14 14zM288 82q13 0 24 5.5
t18.5 14.5t10.5 19t3 18q0 4 -1 9l-13 68q-4 23 -21.5 37.5t-40.5 14.5h-49q-26 0 -44 -18.5t-18 -44.5v-123h131z" />
    <glyph glyph-name="uniFEEE" unicode="&#x648;" horiz-adv-x="489" arabic-form="final" 
d="M68 157l17 91q4 23 16 42.5t29 33.5t38.5 22t45.5 8h56q29 0 54.5 -11t44.5 -29.5t30 -44t11 -54.5v-133h79q6 0 10 -4.5t4 -9.5v-54q0 -14 -14 -14h-80v-12q-2 -68 -42.5 -122.5t-106.5 -77.5l-114 -39l-22 69l120 40q43 15 69.5 50.5t26.5 81.5v18q-8 -5 -18.5 -6.5
t-21.5 -1.5h-103q-31 0 -57 13t-44 35t-24.5 44.5t-6.5 39.5q0 12 3 25zM147 102q17 -20 43 -20h151v133q0 26 -18.5 44.5t-44.5 18.5h-66q-23 0 -40 -14t-22 -37l-15 -80q-1 -6 -1 -11q0 -19 13 -34z" />
    <glyph glyph-name="uniFEF0" unicode="&#x649;" horiz-adv-x="737" arabic-form="final" 
d="M75 -35v240h69v-228q0 -27 10.5 -50.5t28 -41.5t41 -28t50.5 -10h176q22 0 41.5 8.5t34.5 23t23.5 34t8.5 41.5v46h-187v82h366q5 0 9.5 -4t4.5 -10v-53q0 -6 -4.5 -10t-9.5 -5h-115q4 -10 4 -22v-35q0 -37 -14 -69.5t-38.5 -56.5t-57 -38t-69.5 -14h-172q-41 0 -77.5 16
t-63.5 43t-43 63.5t-16 77.5z" />
    <glyph glyph-name="uniFEF2" unicode="&#x64a;" horiz-adv-x="737" arabic-form="final" 
d="M75 -35v240h69v-228q0 -27 10.5 -50.5t28 -41.5t41 -28t50.5 -10h176q22 0 41.5 8.5t34.5 23t23.5 34t8.5 41.5v46h-187v82h366q5 0 9.5 -4t4.5 -10v-53q0 -6 -4.5 -10t-9.5 -5h-115q4 -10 4 -22v-35q0 -37 -14 -69.5t-38.5 -56.5t-57 -38t-69.5 -14h-172q-41 0 -77.5 16
t-63.5 43t-43 63.5t-16 77.5zM377 -405v85h85v-85h-85zM325 -320v-85h-85v85h85z" />
    <glyph glyph-name="uniFEF3" unicode="&#x64a;" horiz-adv-x="337" arabic-form="initial" 
d="M-10 78q4 4 10 4h121q30 0 51 21t21 50v184h69v-184q0 -32 -12 -60t-33 -48.5t-48.5 -32.5t-59.5 -12h-109q-14 0 -14 14v53q0 6 4 11zM226 -120v-85h-85v85h85zM5 -120h84v-85h-84v85z" />
    <glyph glyph-name="uniFEF4" unicode="&#x64a;" horiz-adv-x="346" arabic-form="medial" 
d="M-10 78q4 4 10 4h65q29 0 50.5 18t27.5 45l31 158l68 -11l-26 -132q-1 -6 -1 -13q0 -8 3 -19.5t13 -22t24 -17t30 -6.5h61q6 0 10 -4.5t4 -10.5v-53q0 -14 -14 -14h-62q-17 0 -34 5t-32 14t-26 21t-15 26q-17 -29 -48.5 -47.5t-66.5 -18.5h-62q-14 0 -14 14v53q0 6 4 11z
M201 -205v85h85v-85h-85zM149 -120v-85h-85v85h85z" />
    <glyph glyph-name=".notdef" horiz-adv-x="250" 
 />
    <glyph glyph-name=".null" 
 />
    <glyph glyph-name=".null" 
 />
    <glyph glyph-name="uni000D" unicode="&#xd;" horiz-adv-x="250" 
 />
    <glyph glyph-name="space" unicode=" " horiz-adv-x="130" 
 />
    <glyph glyph-name="exclam" unicode="!" horiz-adv-x="238" 
d="M78 0v108h82v-108h-82zM81 231l-6 460h87l-6 -460h-75z" />
    <glyph glyph-name="quotedbl" unicode="&#x22;" horiz-adv-x="396" 
d="M70 691h82l-6 -225h-73zM244 691h81l-5 -225h-73z" />
    <glyph glyph-name="numbersign" unicode="#" horiz-adv-x="665" 
d="M185 0v171h-110v70h110v178h-110v70h110v176h74v-176h147v176h74v-176h110v-70h-110v-178h110v-70h-110v-171h-74v171h-147v-171h-74zM259 241h147v178h-147v-178z" />
    <glyph glyph-name="dollar" unicode="$" horiz-adv-x="581" 
d="M86 565q11 33 38 58t70 38t102 13h17l17 126h50l-18 -129q10 -1 27.5 -4t36.5 -6t36 -5.5t27 -4.5l-7 -69q-10 1 -28 3t-37.5 4t-37 3.5t-26.5 2.5l-30 -228q50 -13 85 -27.5t57 -34t31.5 -47t9.5 -66.5q0 -100 -56 -153t-162 -53h-13l-13 -110q-26 2 -37.5 3t-11.5 3
l14 106q-11 2 -31 5t-41 7t-41 7.5t-31 5.5l9 66q11 -1 32 -3.5t43.5 -4.5t42 -4t26.5 -3l30 234q-40 10 -75 23.5t-61 35.5t-40.5 54.5t-14.5 81.5q0 38 11 72zM167 453q7 -18 21 -30.5t36.5 -21.5t52.5 -17l27 213q-29 0 -55 -3t-45.5 -13t-31 -29.5t-11.5 -54.5v-6
q0 -22 6 -38zM388 94q33 30 33 87q0 24 -6 40.5t-19 27.5t-33.5 19t-49.5 17l-27 -222q69 0 102 31z" />
    <glyph glyph-name="percent" unicode="%" horiz-adv-x="587" 
d="M152 671q112 0 112 -139q0 -71 -29 -106.5t-83 -35.5q-112 0 -112 142q0 139 112 139zM436 270q111 0 111 -137q0 -71 -29 -107.5t-83 -36.5t-82 36.5t-28 107.5q0 137 111 137zM165 -4l209 687l50 -17l-207 -686zM102 533q0 -88 50 -88t50 88q0 83 -50 83t-50 -83z
M399 65q12 -21 38 -21t37 21.5t11 66.5t-11 64.5t-37 19.5q-27 0 -38.5 -19.5t-11.5 -63.5q0 -47 12 -68z" />
    <glyph glyph-name="ampersand" unicode="&#x26;" horiz-adv-x="751" 
d="M84 278q9 31 28 54.5t48.5 40.5t69.5 30q-32 35 -45.5 66.5t-13.5 72.5q0 79 46.5 119.5t132.5 40.5t131 -39.5t45 -114.5q0 -70 -40 -114t-112 -77l145 -142q11 31 17 72t10 85l80 -2q-8 -63 -19.5 -114t-27.5 -92l127 -119l-49 -55l-119 111q-39 -58 -93 -85t-129 -27
q-126 0 -183.5 54t-57.5 160q0 43 9 75zM198 100q38 -35 117 -35q122 0 166 83l-205 204q-31 -10 -53 -22t-36 -29t-21 -39.5t-7 -52.5q0 -75 39 -109zM261 506q6 -20 16.5 -38t23.5 -34t25 -28q21 9 42 21.5t37.5 29.5t26.5 39t10 50q0 40 -22.5 61.5t-70.5 21.5
t-71.5 -21.5t-23.5 -60.5q0 -21 7 -41z" />
    <glyph glyph-name="quotesingle" unicode="'" horiz-adv-x="222" 
d="M73 466l-3 225h82l-6 -225h-73z" />
    <glyph glyph-name="parenleft" unicode="(" horiz-adv-x="300" 
d="M103 518q27 114 77 232h80q-16 -43 -33 -99.5t-31 -118t-22.5 -123t-8.5 -113.5q0 -45 8 -97.5t21 -107.5t30 -110.5t36 -105.5h-80q-21 45 -40.5 99t-33.5 110t-22.5 112.5t-8.5 106.5q0 101 28 215z" />
    <glyph glyph-name="parenright" unicode=")" horiz-adv-x="300" 
d="M40 750h80q50 -118 77.5 -232t27.5 -215q0 -50 -8.5 -106.5t-22.5 -112.5t-33.5 -110t-40.5 -99h-80q19 50 36 105.5t30 110.5t21 107.5t8 97.5q0 52 -8.5 113.5t-22.5 123t-30.5 118t-33.5 99.5z" />
    <glyph glyph-name="asterisk" unicode="*" horiz-adv-x="565" 
d="M128 461l155 -155l154 155l53 -53l-155 -154l155 -155l-53 -53l-154 156l-155 -156l-53 53l155 155l-155 154z" />
    <glyph glyph-name="plus" unicode="+" horiz-adv-x="602" 
d="M262 289v191h76v-191h189v-75h-189v-194h-76v194h-187v75h187z" />
    <glyph glyph-name="comma" unicode="," horiz-adv-x="277" 
d="M75 25q0 16 6.5 37.5t9.5 32.5l43 122l52 -19l-46 -133l62 -24l-32 -93q-17 6 -30.5 11.5t-24.5 12.5q-14 7 -27 20t-13 33z" />
    <glyph glyph-name="hyphen" unicode="-" horiz-adv-x="452" 
d="M75 236v77h302v-77h-302z" />
    <glyph glyph-name="period" unicode="." horiz-adv-x="237" 
d="M78 0v108h82v-108h-82z" />
    <glyph glyph-name="slash" unicode="/" horiz-adv-x="432" 
d="M111 -16l-73 26l283 700l73 -28z" />
    <glyph glyph-name="zero" unicode="0" horiz-adv-x="594" 
d="M55 331q0 92 15 157t45 106t75 59.5t106 18.5t106.5 -19t76 -60t45.5 -105.5t15 -156.5q0 -93 -15 -157.5t-45 -105.5t-75.5 -59.5t-105.5 -18.5q-61 0 -107 18.5t-76 59.5t-45 105.5t-15 157.5zM143 331q0 -75 9 -125.5t27.5 -81.5t48 -44.5t70.5 -13.5t70 13.5
t47.5 44.5t27 81.5t8.5 125.5t-8.5 125.5t-27 81.5t-47.5 44.5t-70 13.5t-70.5 -13.5t-48 -44.5t-27.5 -81.5t-9 -125.5z" />
    <glyph glyph-name="one" unicode="1" horiz-adv-x="428" 
d="M268 0v565l-166 -109l-39 64l211 140h79v-660h-85z" />
    <glyph glyph-name="two" unicode="2" horiz-adv-x="558" 
d="M254 269l73 78q26 30 43 65t17 78q0 55 -32.5 79.5t-102.5 24.5q-66 0 -147 -15l-26 -6l-7 70q47 14 95 21t96 7q109 0 160 -43.5t51 -134.5q0 -31 -5.5 -56.5t-16.5 -48.5q-15 -32 -43.5 -65t-73.5 -77l-169 -170h324v-76h-422v74z" />
    <glyph glyph-name="three" unicode="3" horiz-adv-x="568" 
d="M68 18l7 68q52 -11 94.5 -17.5t79.5 -6.5q36 0 66 7t51.5 22t34 39.5t12.5 58.5q0 55 -32.5 85t-98.5 30h-133v74h133q21 0 42 8.5t37.5 24t26.5 37.5t10 48q0 53 -32 76.5t-107 23.5q-32 0 -70 -4t-79 -12l-26 -5l-7 67q47 15 96.5 22t98.5 7q113 0 163 -41t50 -132
q0 -48 -27 -89.5t-69 -61.5q29 -11 50 -25t34.5 -33t20 -44t6.5 -60q0 -99 -52.5 -147.5t-168.5 -48.5q-38 0 -84 5t-96 16z" />
    <glyph glyph-name="four" unicode="4" horiz-adv-x="561" 
d="M225 660h92l-189 -459h227v203h85v-203h81v-74h-81v-127h-85v127h-315v65z" />
    <glyph glyph-name="five" unicode="5" horiz-adv-x="578" 
d="M68 21l9 66q113 -21 196 -21q74 0 112 38.5t38 110.5q0 66 -33 96t-100 30q-28 0 -55.5 -6.5t-49 -15t-34.5 -15.5l-13 -7l-59 10l18 353h387v-76h-317l-18 -207q38 20 76.5 30t82.5 10q100 0 151 -49.5t51 -149.5q0 -109 -57.5 -168.5t-163.5 -59.5q-43 0 -91 6.5
t-97 17.5z" />
    <glyph glyph-name="six" unicode="6" horiz-adv-x="605" 
d="M68 324q0 178 67 262.5t191 84.5q45 0 93 -6t92 -14l-8 -67q-94 12 -175 12q-83 0 -127 -56t-44 -162q18 6 39.5 13t43 12t41.5 8.5t35 3.5q222 0 222 -203q0 -109 -59.5 -166t-166.5 -57q-124 0 -184 84.5t-60 250.5zM156 304q0 -115 36.5 -177.5t110.5 -62.5
q73 0 110 36.5t37 105.5q0 68 -35.5 101.5t-102.5 33.5q-16 0 -36.5 -3.5t-42.5 -8.5t-42 -12t-35 -13z" />
    <glyph glyph-name="seven" unicode="7" horiz-adv-x="527" 
d="M228 -11l-80 25l246 543v27h-326v76h411v-108z" />
    <glyph glyph-name="eight" unicode="8" horiz-adv-x="601" 
d="M53 171q0 61 27.5 101t81.5 72q-52 27 -75 62t-23 85t22 84t56.5 55.5t75.5 31t80 9.5q50 0 93.5 -11t76 -33.5t51.5 -56.5t19 -80q0 -53 -23.5 -85.5t-81.5 -60.5q59 -29 87 -66.5t28 -99.5q0 -94 -62.5 -141.5t-188.5 -47.5q-244 0 -244 182zM143 185q0 -118 156 -118
q159 0 159 121q0 48 -26.5 73t-82.5 41h-104q-53 -14 -77.5 -42t-24.5 -75zM153 488q0 -41 22 -67t70 -43h104q52 17 75.5 43t23.5 68q0 105 -147 105q-148 0 -148 -106z" />
    <glyph glyph-name="nine" unicode="9" horiz-adv-x="570" 
d="M60 444q0 53 16.5 95.5t46.5 71.5t72.5 44.5t94.5 15.5q120 0 180.5 -87.5t60.5 -258.5q0 -176 -66 -256t-200 -80q-34 0 -73 4.5t-81 11.5l-27 4l8 67q48 -7 91 -9.5t84 -2.5q173 0 176 222q-52 -20 -93 -29t-79 -9q-104 0 -157.5 49.5t-53.5 146.5zM280 323q33 0 67 7
t71 19l25 8q-2 239 -156 239q-65 0 -102 -38.5t-37 -107.5q0 -127 132 -127z" />
    <glyph glyph-name="colon" unicode=":" horiz-adv-x="236" 
d="M78 0v109h82v-109h-82zM160 439v-109h-82v109h82z" />
    <glyph glyph-name="semicolon" unicode=";" horiz-adv-x="272" 
d="M105 163q17 -6 31 -11t25 -12q15 -9 25.5 -22.5t10.5 -30.5q0 -15 -6.5 -36.5t-10.5 -32.5l-42 -118l-48 17l47 136l-62 23zM87 432h79v-103h-79v103z" />
    <glyph glyph-name="less" unicode="&#x3c;" horiz-adv-x="494" 
d="M40 216v71l414 201v-86l-329 -149l329 -154v-87z" />
    <glyph glyph-name="equal" unicode="=" horiz-adv-x="583" 
d="M75 307v76h433v-76h-433zM508 195v-76h-433v76h433z" />
    <glyph glyph-name="greater" unicode="&#x3e;" horiz-adv-x="495" 
d="M455 287v-71l-415 -204v87l329 154l-329 149v86z" />
    <glyph glyph-name="question" unicode="?" horiz-adv-x="513" 
d="M70 671q50 15 91.5 22.5t73.5 7.5h8q50 -1 87.5 -9t62.5 -26t37.5 -47t12.5 -72q0 -33 -4 -57.5t-14 -44.5t-27.5 -39t-44.5 -42q-17 -14 -33.5 -29t-30 -30.5t-21.5 -32.5t-8 -34v-35h-68l-2 7q-3 6 -6 16t-6 22t-3 23q0 20 13 41t31.5 40t38.5 36t33 30q21 20 34 34
t19.5 27t9 27t2.5 33q0 45 -31 66t-97 21q-46 0 -152 -22zM183 109h82v-108h-82v108z" />
    <glyph glyph-name="at" unicode="@" horiz-adv-x="1035" 
d="M104 466q29 88 86 145.5t141.5 85t195.5 27.5q224 0 328.5 -109.5t104.5 -326.5q0 -51 -7 -103t-26 -94t-52.5 -69t-87.5 -27q-98 0 -125 61q-48 -30 -91.5 -45.5t-86.5 -15.5q-38 0 -69 11.5t-53.5 39.5t-34.5 75t-12 117q0 71 10.5 122t34.5 83t62 47t93 15
q24 0 56 -8.5t56 -17.5v15h84v-225q0 -63 1.5 -102.5t9 -62t23.5 -30.5t45 -8q31 0 48.5 23.5t25.5 58t10 74t2 71.5q0 92 -19 159.5t-61 111.5t-108.5 66t-160.5 22q-187 0 -277.5 -95t-90.5 -304q0 -89 17.5 -160t59.5 -121t113 -77t179 -27l143 10l4 -73q-13 -1 -34 -2.5
t-43 -3t-41.5 -2.5t-29.5 -1q-17 -1 -34 -1q-96 0 -174.5 26.5t-134 86t-82.5 147.5t-27 202q0 121 29 209zM495 69q43 0 140 44q-4 26 -6 66.5t-2 97.5v136q-58 19 -106 19q-35 0 -58.5 -10.5t-37.5 -33t-20 -57.5t-6 -85q0 -177 96 -177z" />
    <glyph glyph-name="A" unicode="A" horiz-adv-x="597" 
d="M212 691h173l188 -691h-80l-48 175h-293l-48 -175h-80zM427 247l-103 375h-50l-104 -375h257z" />
    <glyph glyph-name="B" unicode="B" horiz-adv-x="600" 
d="M328 692q104 0 154 -43t50 -136q0 -62 -22.5 -98t-67.5 -58q57 -20 84 -60t27 -108q0 -99 -54 -144t-158 -45h-266v692h253zM153 318v-250h184q69 0 103.5 28.5t34.5 91.5q0 69 -40 99.5t-103 30.5h-179zM153 625v-240h178q124 0 124 122q0 62 -31 90t-100 28h-171z" />
    <glyph glyph-name="C" unicode="C" horiz-adv-x="541" 
d="M65 469q10 63 37.5 114.5t77.5 84t131 32.5q42 0 89 -5t101 -16l-4 -71q-50 8 -92.5 12.5t-79.5 4.5q-61 0 -97.5 -28t-55.5 -71t-24.5 -94t-5.5 -97q0 -49 6.5 -97.5t27 -86.5t59.5 -62t104 -24q30 0 70 4.5t88 13.5l3 -72q-51 -11 -96 -16.5t-80 -5.5q-79 0 -131 28.5
t-83 77t-43 113.5t-12 137q0 61 10 124z" />
    <glyph glyph-name="D" unicode="D" horiz-adv-x="635" 
d="M75 0v691h246q76 0 126 -28t79.5 -74.5t41.5 -106t12 -122.5q0 -178 -63.5 -269t-195.5 -91h-246zM161 75h160q46 0 78.5 21.5t53.5 59t31 90t10 113.5q0 126 -41 191.5t-132 65.5h-160v-541z" />
    <glyph glyph-name="E" unicode="E" horiz-adv-x="557" 
d="M502 691v-75h-339v-229h279v-75h-279v-237h339v-75h-424v691h424z" />
    <glyph glyph-name="F" unicode="F" horiz-adv-x="527" 
d="M492 691v-75h-332v-261h279v-75h-279v-281h-85v692h417z" />
    <glyph glyph-name="G" unicode="G" horiz-adv-x="610" 
d="M69 507q14 66 46 109t85 63.5t131 20.5q38 0 84.5 -4.5t99.5 -14.5l35 -6l-3 -70q-63 10 -115.5 15t-97.5 5q-56 0 -93 -18t-59 -53t-31 -87t-9 -120q0 -44 6 -93.5t26 -91.5t57 -69.5t100 -27.5q37 0 67.5 2.5t66.5 10.5v203h-111v75h196v-343q-132 -24 -223 -24
q-76 0 -128 24t-84 70.5t-46 113.5t-14 154q0 90 14 156z" />
    <glyph glyph-name="H" unicode="H" horiz-adv-x="658" 
d="M160 691v-307h338v307h85v-690h-85v308h-338v-308h-85v690h85z" />
    <glyph glyph-name="I" unicode="I" horiz-adv-x="235" 
d="M75 0v691h85v-691h-85z" />
    <glyph glyph-name="J" unicode="J" horiz-adv-x="281" 
d="M69 8q20 3 33 13.5t18.5 31.5t5.5 55v583h85v-594q0 -48 -14 -80.5t-39.5 -52t-61 -28t-77.5 -8.5v76q29 0 50 4z" />
    <glyph glyph-name="K" unicode="K" horiz-adv-x="565" 
d="M75 691h85v-319l109 4l171 315h97l-193 -347l203 -344h-99l-177 302l-111 -4v-298h-85v691z" />
    <glyph glyph-name="L" unicode="L" horiz-adv-x="484" 
d="M75 0v691h85v-615h297v-76h-382z" />
    <glyph glyph-name="M" unicode="M" horiz-adv-x="825" 
d="M227 691l186 -570l185 570h152v-691h-85v600h-13l-193 -574h-93l-193 574h-13v-600h-85v691h152z" />
    <glyph glyph-name="N" unicode="N" horiz-adv-x="661" 
d="M230 691l255 -617h17v617h84v-691h-152l-259 616h-15v-616h-85v691h155z" />
    <glyph glyph-name="O" unicode="O" horiz-adv-x="658" 
d="M55 342q0 125 26.5 203t86 116.5t162.5 38.5q101 0 161 -38.5t86 -117t26 -204.5q0 -125 -25 -201t-84 -113t-163 -37t-164.5 37.5t-86 114t-25.5 201.5zM142 342q0 -102 16.5 -161.5t56.5 -87.5t116 -28q73 0 113 27t56.5 86.5t16.5 162.5q0 102 -17 164t-58 91t-112 29
q-73 0 -113.5 -29t-57.5 -90t-17 -164z" />
    <glyph glyph-name="P" unicode="P" horiz-adv-x="589" 
d="M75 0v691h254q115 0 168.5 -56t53.5 -171q0 -235 -222 -235h-169v-229h-85zM160 304h168q139 0 139 162q0 78 -33 114t-106 36h-168v-312z" />
    <glyph glyph-name="Q" unicode="Q" horiz-adv-x="673" 
d="M70 342q0 93 14.5 160.5t46.5 111.5t85 65t129 21t128 -21t84.5 -64.5t46.5 -110.5t14 -158q0 -46 -4.5 -94t-17 -91t-34 -78t-56.5 -56l84 -136l-78 -37l-89 144q-15 -4 -34.5 -6.5t-42.5 -2.5q-78 0 -131 25t-85 71.5t-46 111.5t-14 145zM157 340q0 -44 5.5 -92.5
t25 -89t57.5 -67t102 -26.5q56 0 91.5 20t56.5 56t29 86t8 110q0 57 -7.5 109t-28.5 91.5t-58 63.5t-96 24q-55 0 -91 -21.5t-57 -60t-29 -90.5t-8 -113z" />
    <glyph glyph-name="R" unicode="R" horiz-adv-x="616" 
d="M75 691h258q114 0 168.5 -52t54.5 -158q0 -158 -123 -203l127 -278h-92l-119 260h-189v-260h-85v691zM160 616v-281h174q136 0 136 142q0 139 -137 139h-173z" />
    <glyph glyph-name="S" unicode="S" horiz-adv-x="558" 
d="M285 702q38 0 88 -5t116 -16l-7 -71q-63 8 -113 12.5t-85 4.5q-143 0 -143 -105q0 -33 14.5 -54.5t38.5 -36t55 -23.5t65 -18q35 -9 69 -22t60.5 -34t43 -53t16.5 -79q0 -106 -56.5 -159t-168.5 -53q-37 0 -89 6.5t-128 17.5l9 69q68 -9 118.5 -13.5t81.5 -4.5
q76 0 112 33.5t36 99.5q0 31 -12 50.5t-32 32.5t-47.5 20.5t-59.5 14.5q-46 11 -85 25.5t-67.5 37.5t-44 56.5t-15.5 82.5q0 184 230 184z" />
    <glyph glyph-name="T" unicode="T" horiz-adv-x="535" 
d="M18 691h500v-76h-207v-615h-84v615h-209v76z" />
    <glyph glyph-name="U" unicode="U" horiz-adv-x="624" 
d="M68 691h85v-480q0 -146 160 -146q79 0 118.5 35t39.5 111v480h85v-479q0 -116 -61 -169.5t-185 -53.5q-123 0 -182.5 53.5t-59.5 169.5v479z" />
    <glyph glyph-name="V" unicode="V" horiz-adv-x="594" 
d="M28 691h88l154 -617h54l154 617h88l-178 -691h-182z" />
    <glyph glyph-name="W" unicode="W" horiz-adv-x="889" 
d="M28 691h88l114 -616h27l139 611h98l139 -611h28l113 616h87l-139 -691h-149l-129 582l-127 -582h-150z" />
    <glyph glyph-name="X" unicode="X" horiz-adv-x="580" 
d="M28 0l211 337l-211 354h96l168 -291l170 291h90l-210 -351l210 -340h-95l-168 281l-171 -281h-90z" />
    <glyph glyph-name="Y" unicode="Y" horiz-adv-x="563" 
d="M116 691l166 -318l166 318h95l-218 -402v-289h-85v289l-220 402h96z" />
    <glyph glyph-name="Z" unicode="Z" horiz-adv-x="530" 
d="M490 691v-95l-352 -502v-20h352v-75h-450v93l352 502v22h-352v75h450z" />
    <glyph glyph-name="bracketleft" unicode="[" horiz-adv-x="331" 
d="M290 749v-73h-131v-726h131v-73h-215v872h215z" />
    <glyph glyph-name="backslash" unicode="\" horiz-adv-x="458" 
d="M347 -17l-309 693l73 32l310 -694z" />
    <glyph glyph-name="bracketright" unicode="]" horiz-adv-x="330" 
d="M255 749v-872h-215v73h132v726h-132v73h215z" />
    <glyph glyph-name="asciicircum" unicode="^" horiz-adv-x="530" 
d="M226 660h73l191 -342h-87l-139 261l-136 -261h-88z" />
    <glyph glyph-name="underscore" unicode="_" horiz-adv-x="578" 
d="M75 -162v72h428v-72h-428z" />
    <glyph glyph-name="a" unicode="a" horiz-adv-x="501" 
d="M38 143q0 73 36.5 108t118.5 43l151 14v41q0 48 -20.5 69t-59.5 21q-48 0 -97 -3.5t-98 -8.5l-3 61q109 23 194 23q88 0 127.5 -38.5t39.5 -123.5v-250q0 -35 54 -44l-3 -66q-42 0 -71 10.5t-52 30.5q-87 -41 -174 -41q-72 0 -107.5 40t-35.5 114zM122 145q0 -85 74 -85
q61 0 125 21l23 7v159l-141 -14q-43 -4 -62 -25t-19 -63z" />
    <glyph glyph-name="b" unicode="b" horiz-adv-x="519" 
d="M158 716v-238q40 17 74.5 25t72.5 8q49 0 83 -14t55.5 -44.5t31 -79.5t9.5 -120t-13 -121t-42 -81.5t-75.5 -46t-114.5 -14.5q-37 0 -79.5 3t-84.5 8v715h83zM181 67q13 -1 27 -2t25.5 -1.5t16.5 -0.5q43 0 71.5 10.5t46 33.5t25 59.5t7.5 87.5q0 52 -6 87t-19 56.5
t-34.5 31t-52.5 9.5q-53 0 -130 -27v-343q9 -1 23 -1z" />
    <glyph glyph-name="c" unicode="c" horiz-adv-x="439" 
d="M66 356q10 48 33.5 82.5t61 53.5t91.5 19q35 0 70.5 -4t80.5 -12l-3 -67q-3 0 -16.5 1.5t-31.5 3t-36.5 2.5t-31.5 1q-44 0 -72 -11.5t-44 -35t-22 -59t-6 -82.5q0 -35 2.5 -68t16.5 -58.5t43 -41t81 -15.5l118 8l3 -68q-49 -8 -85.5 -12t-61.5 -4q-56 0 -94.5 15
t-62.5 46.5t-34.5 81.5t-10.5 119q0 57 11 105z" />
    <glyph glyph-name="d" unicode="d" horiz-adv-x="542" 
d="M55 243q0 142 49 205t160 63q29 0 58 -3.5t62 -10.5v219h83v-716h-83v31q-41 -22 -76.5 -32t-73.5 -10q-96 0 -137.5 61.5t-41.5 192.5zM140 248q0 -97 24.5 -141.5t82.5 -44.5q26 0 59.5 7.5t57.5 18.5l20 8v332q-31 6 -57.5 8.5t-47.5 2.5q-39 0 -66 -10.5t-43 -33.5
t-23 -59.5t-7 -87.5z" />
    <glyph glyph-name="e" unicode="e" horiz-adv-x="507" 
d="M55 244q0 134 51.5 200.5t160.5 66.5q102 0 152 -55t50 -158v-20l-5 -58h-326q0 -43 7.5 -73t24 -49t44 -27.5t69.5 -8.5q30 0 67 1t70 4l30 3l2 -62q-107 -19 -186 -19q-58 0 -98.5 17.5t-65.5 50t-36 80t-11 107.5zM137 281h249q0 86 -28 122.5t-91 36.5
q-66 0 -97.5 -37.5t-32.5 -121.5z" />
    <glyph glyph-name="f" unicode="f" horiz-adv-x="360" 
d="M38 498h62v44q0 54 7 89.5t23 56.5t42 29.5t65 8.5l103 -7l-2 -68q-25 1 -45 2q-17 0 -32 0.5t-17 0.5h-4q-32 0 -44.5 -28.5t-12.5 -84.5v-43h142v-71h-142v-427h-83v427h-62v71z" />
    <glyph glyph-name="g" unicode="g" horiz-adv-x="544" 
d="M75 -20q20 29 58 58q-14 10 -21.5 27t-7.5 34t9 38t25 51q-77 38 -77 150q0 172 188 172q49 0 104 -13l151 4v-69l-92 2q17 -18 24 -41t7 -56q0 -92 -46 -130.5t-143 -38.5q-19 0 -31.5 1t-22.5 3q-5 -11 -11 -29.5t-6 -30.5v-4q1 -20 23 -27t67 -8h21q12 0 23.5 -0.5
t21.5 -1t15 -0.5q30 -2 56 -9.5t45.5 -24t30.5 -43.5t11 -67q0 -83 -54.5 -122.5t-179.5 -39.5q-57 0 -96.5 8t-64 25.5t-36 45t-11.5 65.5q0 43 20 71zM144 -122q6 -17 21 -27t40 -14.5t62 -4.5q81 0 114 21t33 69q0 25 -9 41.5t-25 26.5t-38 13.5t-49 3.5h-104
q-25 -20 -38.5 -38.5t-13.5 -48.5q0 -25 7 -42zM143 338q0 -56 25.5 -80t83.5 -24t83 24t25 81t-25 80.5t-82 23.5q-59 0 -84.5 -24t-25.5 -81z" />
    <glyph glyph-name="h" unicode="h" horiz-adv-x="516" 
d="M75 1v715h83v-243q41 19 78 28.5t75 9.5q51 0 83 -16t51 -47.5t26 -77t7 -104.5v-265h-83v263q0 35 -2.5 66.5t-12.5 55.5t-30 38t-55 14q-15 0 -33.5 -2.5t-37 -7t-36 -9.5t-30.5 -10v-408h-83z" />
    <glyph glyph-name="i" unicode="i" horiz-adv-x="208" 
d="M63 0v500h83v-500h-83zM146 704v-93h-83v93h83z" />
    <glyph glyph-name="j" unicode="j" horiz-adv-x="216" 
d="M29 -108q24 22 33 48.5t9 73.5v486h83v-487q0 -64 -14.5 -103t-49.5 -68.5t-105 -65.5l-33 63q52 31 77 53zM154 704v-93h-83v93h83z" />
    <glyph glyph-name="k" unicode="k" horiz-adv-x="483" 
d="M151 716v-421l74 5l138 200h93l-159 -231l166 -269h-93l-143 227l-76 -3v-224h-83v716h83z" />
    <glyph glyph-name="l" unicode="l" horiz-adv-x="218" 
d="M68 0v716h83v-716h-83z" />
    <glyph glyph-name="m" unicode="m" horiz-adv-x="817" 
d="M145 499v-32q38 22 73 32.5t73 10.5q87 0 125 -50q42 24 92.5 37t92.5 13q50 0 81.5 -19t49.5 -52t24.5 -77.5t6.5 -95.5v-265h-83v262q0 35 -2.5 66.5t-13 55.5t-31 38t-55.5 14q-30 0 -66 -10t-67 -25q12 -18 12 -142v-259h-83v257q0 32 -1.5 64t-10.5 57.5t-28 41.5
t-54 16q-15 0 -33 -3t-36 -8t-35 -11t-30 -13v-401h-83v498h82z" />
    <glyph glyph-name="n" unicode="n" horiz-adv-x="521" 
d="M145 499v-32q44 23 79.5 33t71.5 10q52 0 85 -17.5t52 -49t26 -76.5t7 -101v-265h-83v262q0 33 -3 64t-13.5 55.5t-30.5 39.5t-55 15q-16 0 -35 -3t-37 -8.5t-34.5 -11.5t-28.5 -12v-401h-83v498h82z" />
    <glyph glyph-name="o" unicode="o" horiz-adv-x="537" 
d="M64 351q11 48 36 83.5t66.5 56t102.5 20.5q58 0 99 -18.5t67 -53t38 -83t12 -108.5q0 -56 -11 -103.5t-36.5 -82t-67 -54t-102.5 -19.5q-57 0 -97.5 17.5t-67 50.5t-38.5 81t-12 109q0 56 11 104zM143 174q5 -35 19.5 -60t40.5 -39t67 -14q38 0 63 12.5t40 37t21 59.5
t6 80q0 38 -5 72.5t-19.5 60.5t-40 41t-67.5 15q-39 0 -64 -13t-39.5 -38t-20.5 -60.5t-6 -79.5q0 -40 5 -74z" />
    <glyph glyph-name="p" unicode="p" horiz-adv-x="510" 
d="M63 500h82v-34q40 24 75.5 34.5t73.5 10.5q93 0 136 -61t43 -197q0 -72 -12 -122t-38 -81.5t-68 -46t-102 -14.5q-54 0 -107 12v-222h-83v721zM146 401v-330q35 -5 61.5 -7.5t45.5 -2.5q74 0 105 44t31 145t-26.5 144.5t-78.5 43.5q-16 0 -35 -3t-37.5 -8.5t-36 -12
t-29.5 -13.5z" />
    <glyph glyph-name="q" unicode="q" horiz-adv-x="511" 
d="M53 363q12 51 40 85t69.5 48.5t94.5 14.5h20l172 -11v-721h-83v242q-38 -17 -70.5 -24.5t-68.5 -7.5q-98 0 -142.5 59.5t-44.5 195.5q0 68 13 119zM151 104q28 -42 92 -42q26 0 61.5 8.5t61.5 18.5v345q-8 0 -21 1t-26.5 2t-25 1.5t-16.5 0.5h-13q-37 0 -64.5 -10.5
t-45 -35t-24.5 -62t-7 -86.5q0 -99 28 -141z" />
    <glyph glyph-name="r" unicode="r" horiz-adv-x="349" 
d="M145 500v-66q84 58 180 77v-84q-19 -3 -42 -10t-47 -16t-47.5 -19t-42.5 -19v-363h-83v500h82z" />
    <glyph glyph-name="s" unicode="s" horiz-adv-x="486" 
d="M103 475q49 35 141 35q41 0 86 -6t87 -14l-2 -70q-48 7 -91.5 12.5t-79.5 5.5q-56 0 -82 -17t-26 -52q0 -16 5.5 -27.5t19 -20.5t35 -16t53.5 -13q29 -6 61.5 -15t59.5 -24.5t45 -41t18 -64.5q0 -82 -46.5 -120t-146.5 -38q-45 0 -90.5 6.5t-89.5 14.5l4 70
q58 -8 101.5 -13.5t75.5 -5.5q54 0 81.5 17.5t27.5 59.5q0 21 -12 35.5t-31.5 24.5t-44 16.5t-48.5 10.5q-40 7 -70.5 17t-50.5 26t-30 39.5t-10 56.5q0 76 50 111z" />
    <glyph glyph-name="t" unicode="t" horiz-adv-x="369" 
d="M28 500h69v151h83v-151h153v-71h-153v-245q0 -28 1.5 -51t8 -38.5t20.5 -24t38 -8.5l87 5l4 -66q-37 -7 -61 -9.5t-44 -2.5q-39 0 -65 9t-42 30t-23 56t-7 87v258h-69v71z" />
    <glyph glyph-name="u" unicode="u" horiz-adv-x="512" 
d="M55 237v262h83v-261q0 -35 1.5 -67t11.5 -56t31.5 -38.5t60.5 -14.5q56 0 126 35v402h83v-499h-83v33q-42 -23 -74.5 -33.5t-70.5 -10.5q-54 0 -87 18t-51 51t-24.5 78.5t-6.5 100.5z" />
    <glyph glyph-name="v" unicode="v" horiz-adv-x="492" 
d="M28 500h87l112 -429h37l116 429h85l-139 -500h-160z" />
    <glyph glyph-name="w" unicode="w" horiz-adv-x="758" 
d="M28 500h81l97 -429h17l113 419h86l113 -419h18l95 429h83l-116 -500h-132l-104 380l-104 -380h-131z" />
    <glyph glyph-name="x" unicode="x" horiz-adv-x="468" 
d="M28 500h89l117 -191l117 191h90l-157 -247l156 -253h-90l-116 190l-117 -190h-89l155 250z" />
    <glyph glyph-name="y" unicode="y" horiz-adv-x="493" 
d="M28 500h81l121 -429h32l121 429h83l-204 -721h-82l63 221h-76z" />
    <glyph glyph-name="z" unicode="z" horiz-adv-x="441" 
d="M406 500v-73l-271 -354h271v-73h-371v73l272 354h-272v73h371z" />
    <glyph glyph-name="braceleft" unicode="{" horiz-adv-x="376" 
d="M40 345q57 13 82.5 38.5t25.5 68.5l-7 128v8q0 42 9.5 72.5t32.5 51.5t59 31.5t88 12.5l1 -71q-62 -4 -85.5 -29t-23.5 -77v-4l7 -123q0 -32 -4.5 -55t-17 -39t-33 -26.5t-51.5 -18.5q31 -9 51.5 -20.5t32.5 -28t16.5 -37t4.5 -46.5v-10l-7 -117q0 -55 24 -81.5t86 -30.5
l-2 -71q-51 2 -87 12.5t-58.5 31.5t-32.5 52t-10 71v8l7 121q0 43 -25.5 70t-82.5 42v66z" />
    <glyph glyph-name="bar" unicode="|" horiz-adv-x="220" 
d="M72 -220v936h82v-936h-82z" />
    <glyph glyph-name="braceright" unicode="}" horiz-adv-x="379" 
d="M50 756q52 -2 88 -12.5t58.5 -31.5t32.5 -53t10 -79l-7 -128v-3q0 -41 25 -66t82 -38v-66q-57 -15 -82 -41.5t-25 -67.5v-3l7 -121q0 -45 -10 -77.5t-32.5 -53.5t-58.5 -31.5t-87 -12.5l-2 71q62 4 86 30.5t24 81.5l-7 117v10q0 26 4.5 46.5t16.5 37t32.5 28t51.5 20.5
q-31 8 -52 18.5t-33 26.5t-16.5 37t-4.5 47v10l7 123v4q0 52 -24 77t-85 29z" />
    <glyph glyph-name="asciitilde" unicode="~" horiz-adv-x="577" 
d="M72 273q60 53 117 53q14 0 40 -7t64 -22q72 -30 93 -30q11 0 25 4.5t29 11.5t28.5 15t22.5 14l10 -67q-29 -25 -59.5 -39t-56.5 -14q-29 0 -103 30q-76 30 -94 30q-10 0 -24.5 -5t-29.5 -12.5t-28.5 -15.5t-22.5 -14z" />
    <glyph glyph-name="exclamdown" unicode="&#xa1;" horiz-adv-x="238" 
d="M75 -191l6 461h75l6 -461h-87zM78 391v109h82v-109h-82z" />
    <glyph glyph-name="cent" unicode="&#xa2;" horiz-adv-x="438" 
d="M58 408q43 52 134 58v116h71v-120l98 -11l-3 -66q-35 3 -71 5t-58 2h-4q-68 0 -96 -32.5t-28 -111.5q0 -39 6.5 -66t22 -43.5t41.5 -23t65 -6.5l123 6l3 -66q-31 -5 -55 -8t-44 -3v-118h-71l1 115q-47 3 -80.5 15.5t-55.5 38t-32 64.5t-10 94q0 109 43 161z" />
    <glyph glyph-name="sterling" unicode="&#xa3;" horiz-adv-x="551" 
d="M156 72v276h-66v71h66v55q0 49 6 86t22.5 61.5t46 36.5t75.5 12q32 0 68 -5t68 -13l-1 -66q-43 5 -72 8t-49 3q-28 0 -45 -10t-25.5 -28t-11 -42t-2.5 -51v-47h169v-71h-169v-276h150l77 16l13 -70l-81 -18h-323v72h84z" />
    <glyph glyph-name="currency" unicode="&#xa4;" horiz-adv-x="601" 
d="M146 155q-28 44 -28 96t28 98l-71 71l58 58l70 -71q43 28 97 28q52 0 98 -28l71 71l57 -58l-71 -71q29 -47 29 -98q0 -52 -29 -96l71 -71l-57 -57l-71 71q-47 -29 -98 -29q-53 0 -97 29l-70 -72l-58 58zM189 252q0 -45 33 -78q35 -33 79 -33q23 0 43 9t35.5 24.5
t24.5 35.5t9 42q0 23 -9 43t-24.5 35.5t-35.5 24.5t-43 9q-22 0 -42.5 -9t-36 -24.5t-24.5 -35.5t-9 -43z" />
    <glyph glyph-name="yen" unicode="&#xa5;" horiz-adv-x="669" 
d="M75 660h95l165 -263l164 263h95l-168 -277h130v-68h-178v-89h179v-66h-179v-160h-84v160h-182v66h182v89h-182v68h133z" />
    <glyph glyph-name="brokenbar" unicode="&#xa6;" horiz-adv-x="220" 
d="M154 158v-378h-82v378h82zM72 342v374h82v-374h-82z" />
    <glyph glyph-name="section" unicode="&#xa7;" horiz-adv-x="537" 
d="M77 282q5 18 13.5 36t19 34t21.5 25q-44 32 -44 110q0 162 195 162q36 0 82 -6t84 -11l-5 -69q-108 15 -165 15t-84 -21t-27 -68q0 -24 9.5 -39.5t27.5 -25.5t43.5 -16.5t56.5 -12.5q33 -6 62.5 -16t52.5 -26.5t36.5 -41t13.5 -61.5q0 -68 -45 -134q37 -31 37 -101
q0 -171 -193 -171q-44 0 -89.5 6t-87.5 13l7 68q110 -15 165 -15q120 0 120 94q0 27 -16 43t-38.5 25.5t-47.5 14t-44 8.5q-39 8 -69.5 18.5t-52 28t-32.5 42t-11 60.5q0 14 5 32zM160 226q5 -14 18 -23.5t34 -16.5t53 -13q34 -8 58 -14t38 -12q5 7 9.5 18t8 24.5t5 28
t1.5 27.5q-1 18 -6.5 30.5t-18 21.5t-32.5 16t-51 13q-19 3 -46.5 9t-45.5 13q-30 -52 -30 -89q0 -19 5 -33z" />
    <glyph glyph-name="copyright" unicode="&#xa9;" horiz-adv-x="675" 
d="M106 574q35 63 95.5 98.5t136.5 35.5q75 0 135 -36q61 -37 95 -100t34 -139q0 -78 -34 -139q-34 -63 -94 -98.5t-135 -35.5q-76 0 -136 36q-62 36 -96.5 99t-34.5 140q0 76 34 139zM118 434q0 -62 29 -115t78.5 -83t111.5 -30t111 30q51 30 79.5 82.5t28.5 115.5
q0 62 -29 115t-79 83.5t-111 30.5q-93 0 -156 -66q-63 -69 -63 -163zM223 434q0 86 27 122t93 36q38 0 67 -8l10 -3l-4 -57q-37 6 -71 6q-32 0 -44 -20.5t-12 -72.5q0 -54 12.5 -77t44.5 -23l70 6l4 -55q-35 -13 -80 -13q-64 0 -90.5 37t-26.5 122z" />
    <glyph glyph-name="guillemotleft" unicode="&#xab;" horiz-adv-x="517" 
d="M477 426v-85l-122 -92l122 -102v-86l-193 154v65zM40 280l193 146v-85l-122 -92l122 -102v-86l-193 154v65z" />
    <glyph glyph-name="registered" unicode="&#xae;" horiz-adv-x="675" 
d="M106 574q35 63 95.5 98.5t136.5 35.5q75 0 135 -36q61 -36 95 -98.5t34 -139.5q0 -78 -34 -140q-34 -63 -94 -98.5t-135 -35.5q-76 0 -136 36q-62 37 -96.5 99.5t-34.5 139.5q0 76 34 139zM147 319q29 -53 79.5 -83t111.5 -30t110 30q51 30 79.5 82.5t28.5 115.5
q0 61 -29 116q-29 53 -79 83t-111 30t-111 -30q-51 -31 -79.5 -83.5t-28.5 -114.5q0 -63 29 -116zM339 586q114 0 114 -90q0 -44 -11 -65t-38 -35l53 -115h-64l-47 106h-60v-106h-60v305h113zM285 436h58q26 0 37.5 12t11.5 38q0 49 -59 49h-48v-99z" />
    <glyph glyph-name="degree" unicode="&#xb0;" horiz-adv-x="434" 
d="M72 559q0 63 39.5 102t102.5 39q32 0 58.5 -10t46 -29t30 -44.5t10.5 -57.5q0 -64 -40.5 -103t-104.5 -39q-63 0 -102.5 38.5t-39.5 103.5zM151 493q24 -25 63 -25q41 0 66 25t25 66t-25 66t-66 25q-39 0 -63 -25.5t-24 -65.5q0 -42 24 -66z" />
    <glyph glyph-name="plusminus" unicode="&#xb1;" horiz-adv-x="603" 
d="M262 369v123h76v-123h189v-75h-189v-124h-76v124h-187v75h187zM75 36v75h452v-75h-452z" />
    <glyph glyph-name="paragraph" unicode="&#xb6;" horiz-adv-x="666" 
d="M72 506q0 40 14 74t39 58.5t59.5 38.5t74.5 14h330v-72h-68v-619h-74v619h-108v-619h-74v319h-7q-40 0 -74 14.5t-59 39.5t-39 59t-14 74z" />
    <glyph glyph-name="periodcentered" unicode="&#xb7;" horiz-adv-x="237" 
d="M78 233v108h82v-108h-82z" />
    <glyph glyph-name="guillemotright" unicode="&#xbb;" horiz-adv-x="517" 
d="M477 280v-65l-193 -154v85l122 103l-122 92v84zM40 61v85l122 103l-122 92v84l193 -145v-65z" />
    <glyph glyph-name="questiondown" unicode="&#xbf;" horiz-adv-x="513" 
d="M74 13q4 24 14 44t27.5 39.5t44.5 41.5q17 14 33.5 29t29.5 30.5t21 32.5t8 34v35h68q5 -11 9 -23q4 -10 6.5 -22t2.5 -23q0 -20 -13 -41t-31.5 -40t-38.5 -36t-34 -30q-21 -20 -33.5 -34t-19 -27t-9 -27t-2.5 -33q0 -45 31 -66t97 -21q21 0 59.5 5.5t92.5 16.5l5 -67
q-49 -15 -91 -22.5t-73 -7.5h-8q-50 1 -87.5 9t-62.5 26t-37.5 47t-12.5 72q0 33 4 58zM247 501h82v-108h-82v108z" />
    <glyph glyph-name="multiply" unicode="&#xd7;" horiz-adv-x="565" 
d="M128 461l155 -155l154 155l53 -53l-155 -154l155 -155l-53 -53l-154 156l-155 -156l-53 53l155 155l-155 154z" />
    <glyph glyph-name="divide" unicode="&#xf7;" horiz-adv-x="487" 
d="M412 384v-79h-337v79h337zM203 113v105h82v-105h-82zM285 575v-104h-82v104h82z" />
    <glyph glyph-name="tilde" unicode="&#x2dc;" horiz-adv-x="577" 
d="M72 273q60 53 117 53q14 0 40 -7t64 -22q72 -30 93 -30q11 0 25 4.5t29 11.5t28.5 15t22.5 14l10 -67q-29 -25 -59.5 -39t-56.5 -14q-29 0 -103 30q-76 30 -94 30q-10 0 -24.5 -5t-29.5 -12.5t-28.5 -15.5t-22.5 -14z" />
    <glyph glyph-name="uni060C" unicode="&#x60c;" horiz-adv-x="277" 
d="M75 25q0 16 6.5 37.5t9.5 32.5l43 122l52 -19l-46 -133l62 -24l-32 -93q-17 6 -30.5 11.5t-24.5 12.5q-14 7 -27 20t-13 33z" />
    <glyph glyph-name="uni060D" unicode="&#x60d;" horiz-adv-x="211" 
d="M40 -110l45 223h86l-66 -223h-65z" />
    <glyph glyph-name="uni061B" unicode="&#x61b;" horiz-adv-x="277" 
d="M74 348q0 14 6 33.5t11 34.5l43 121l51 -19l-46 -133l62 -23l-31 -93q-13 5 -27 10t-26 11q-16 11 -29 24.5t-14 33.5zM103 109h88v-109h-88v109z" />
    <glyph glyph-name="uni061F" unicode="&#x61f;" horiz-adv-x="513" 
d="M70 548q0 43 12.5 72t37.5 47t62.5 26t87.5 9h8q31 0 73 -7.5t92 -22.5l-6 -67q-54 11 -92.5 16.5t-59.5 5.5q-66 0 -97 -21t-31 -66q0 -22 3.5 -37.5t11 -28.5t20.5 -25l29 -30q14 -13 34 -30t38.5 -36.5t31.5 -41t13 -42.5q0 -10 -2.5 -21.5t-6.5 -21.5q-4 -11 -9 -22
h-68v35q0 17 -8 34t-21 32.5t-29.5 30.5t-33.5 29q-27 23 -44.5 42t-27.5 39t-14 44.5t-4 57.5zM247 110h82v-108h-82v108z" />
    <glyph glyph-name="uni0640" unicode="&#x640;" horiz-adv-x="178" 
d="M0 82h178q14 0 14 -14v-54q0 -14 -14 -14h-178q-14 0 -14 14v54q0 14 14 14z" />
    <glyph glyph-name="uni0653" unicode="&#x653;" 
d="M-134 700v38q0 15 6.5 29t17 24.5t24.5 17t29 6.5h190v-61h-191q-11 0 -18 -7.5t-7 -17.5v-29h-51z" />
    <glyph glyph-name="uni0653" unicode="&#x6e4;" 
d="M-134 700v38q0 15 6.5 29t17 24.5t24.5 17t29 6.5h190v-61h-191q-11 0 -18 -7.5t-7 -17.5v-29h-51z" />
    <glyph glyph-name="uni0654" unicode="&#x654;" 
d="M-141 748l81 14q0 1 -3.5 6.5t-5.5 16.5q-1 4 -3 16l-3 18q-2 9 -2 18q0 13 5 28t16.5 29t27.5 22t31 10l76 9l7 -52l-80 -9q-17 -2 -27 -12t-10 -25q0 -5 1 -11l11 -56q15 4 40 9t49 10q27 6 58 12l12 -45l-272 -56z" />
    <glyph glyph-name="uni0655" unicode="&#x655;" 
d="M-140 -188l81 15q-1 0 -4.5 5.5t-5.5 16.5l-1 5q-1 5 -2 11t-2 11t-1 6q-2 10 -2 18q0 14 5 29t16.5 29t27.5 22.5t31 10.5l76 8l7 -52l-83 -10q-14 -2 -24 -11t-10 -23q0 -5 1 -11l11 -57q16 3 40.5 8t48.5 10q28 6 58 13l13 -46l-273 -56z" />
    <glyph glyph-name="uni0656" unicode="&#x656;" 
d="M23 -136h-46v136h46v-136z" />
    <glyph glyph-name="uni0660" unicode="&#x660;" horiz-adv-x="273" 
d="M76 172h120v-120h-120v120z" />
    <glyph glyph-name="uni0661" unicode="&#x661;" horiz-adv-x="253" 
d="M145 669l13 -68q19 -92 19 -189v-412h-71v413q0 47 -5 92.5t-14 91.5l-12 59z" />
    <glyph glyph-name="uni0662" unicode="&#x662;" horiz-adv-x="523" 
d="M146 669l4 -16q3 -16 8 -40.5t10 -55.5t7 -61q2 -25 23.5 -41t47.5 -16h147v228h72v-220q0 -40 -24.5 -65t-65.5 -25h-119q-24 0 -43.5 9t-33.5 25v-391h-72v413q0 47 -5 92.5t-14 91.5l-12 59z" />
    <glyph glyph-name="uni0663" unicode="&#x663;" horiz-adv-x="694" 
d="M75 656l70 13q0 -1 3.5 -16t8 -39t9 -54t7.5 -62q0 -9 5 -19.5t14 -19.5t22 -14.5t30 -5.5h14q29 0 51 18t27 45l32 159l70 -13l-27 -133v-7q0 -25 18.5 -47t50.5 -22h85v228h71v-212q0 -41 -28 -69.5t-69 -28.5h-59q-34 0 -61.5 14.5t-46.5 39.5q-20 -25 -49 -39.5
t-66 -14.5q-23 0 -43 7.5t-37 24.5v-389h-71v413q0 95 -19 184z" />
    <glyph glyph-name="uni0664" unicode="&#x664;" horiz-adv-x="462" 
d="M75 133l1 79q0 45 18.5 77.5t47.5 53.5q-35 30 -44 74l-18 92q-3 13 -3 26q0 16 6 38t24 43.5t44.5 34.5t57.5 13h130v-76h-137q-13 0 -24 -6t-18.5 -16t-10 -19.5t-2.5 -16.5q0 -6 1 -12l15 -80q2 -11 9 -22t16.5 -19.5t18 -12t14.5 -3.5q3 0 7 1l117 33l20 -69
l-156 -47q-27 -8 -45.5 -32t-19.5 -53v-76v-3q0 -23 17 -39.5t42 -16.5h197v-79h-192q-27 0 -51.5 10.5t-42.5 28.5t-28.5 42t-10.5 52z" />
    <glyph glyph-name="uni0665" unicode="&#x665;" horiz-adv-x="593" 
d="M69 288q14 50 39 93.5t59.5 84.5t75.5 85l-63 58l45 61l115 -108q42 -40 78 -80t62.5 -86t41.5 -100t15 -122q0 -36 -9 -67.5t-27.5 -55t-47.5 -37t-70 -13.5h-174q-40 0 -69.5 13.5t-48 37t-27.5 55t-9 67.5q0 63 14 114zM126 173q0 -42 18.5 -66.5t54.5 -24.5h194
q37 0 55 24.5t18 66.5q0 49 -8 89t-27.5 77.5t-52 76.5t-82.5 86q-50 -48 -82.5 -87t-52 -76.5t-27.5 -77t-8 -88.5z" />
    <glyph glyph-name="uni0666" unicode="&#x666;" horiz-adv-x="520" 
d="M33 591l7 74q6 -1 26 -3t47 -4t57 -4t56 -2q32 0 64.5 2.5t59 5.5t44 5.5t20.5 3.5v-412q0 -47 5 -92.5t14 -91.5l13 -60l-70 -12l-14 67q-10 48 -14.5 95t-4.5 95v320q-7 0 -25 -0.5t-38 -1.5t-38 -2t-27 -1q-27 0 -56 2.5t-55 5.5t-45.5 6t-25.5 4z" />
    <glyph glyph-name="uni0667" unicode="&#x667;" horiz-adv-x="569" 
d="M97 673q5 -6 30 -46t56 -108t60.5 -160.5t42.5 -203.5q5 69 25 146t47 149t57.5 131.5t58.5 91.5l59 -48q-5 -7 -33.5 -48t-63.5 -118t-68.5 -191t-48.5 -267h-67q-15 109 -36 196.5t-43.5 155t-45 117t-41.5 82.5t-32 50.5t-16 22.5z" />
    <glyph glyph-name="uni0668" unicode="&#x668;" horiz-adv-x="569" 
d="M37 49q5 7 30.5 44t59 111.5t68 190t56.5 278.5h67q15 -153 48.5 -267t68.5 -191t63.5 -118t33.5 -48l-59 -48q-28 32 -58.5 91.5t-57.5 131.5t-47 149t-25 146q-13 -111 -42.5 -203.5t-60.5 -160.5t-56 -108t-30 -46z" />
    <glyph glyph-name="uni0669" unicode="&#x669;" horiz-adv-x="496" 
d="M49 469l17 91q9 47 45 76.5t84 29.5h56q29 0 54.5 -11t44.5 -29.5t30 -44t11 -54.5v-271v-16q0 -39 4.5 -80.5t14.5 -87.5l12 -60l-68 -13l-14 68q-10 48 -14 95t-4 95v63q-6 -3 -15.5 -5.5t-22.5 -2.5h-106q-31 0 -57.5 12.5t-44.5 34t-24 43.5t-6 39q0 14 3 28z
M118 434q3 -12 10.5 -21t18 -14.5t23.5 -5.5h152v134q0 28 -19 45.5t-45 17.5h-65q-23 0 -40 -14t-22 -36l-15 -81q-1 -4 -1 -9q0 -8 3 -16z" />
    <glyph glyph-name="uni066A" unicode="&#x66a;" horiz-adv-x="503" 
d="M343 120h120v-120h-120v120zM80 2l-40 26l392 632l41 -27zM42 662h120v-120h-120v120z" />
    <glyph glyph-name="uni066B" unicode="&#x66b;" horiz-adv-x="158" 
d="M40 -110l45 223h86l-66 -223h-65z" />
    <glyph glyph-name="uni066C" unicode="&#x66c;" horiz-adv-x="158" 
d="M40 402l45 223h86l-66 -223h-65z" />
    <glyph glyph-name="uni066D" unicode="&#x66d;" horiz-adv-x="371" 
d="M108 416l-33 42l107 79l-105 77l33 44l105 -77l41 125l52 -17l-39 -126h129v-53h-131l41 -125l-52 -16l-41 126z" />
    <glyph glyph-name="uni0670" unicode="&#x670;" 
d="M23 699h-46v136h46v-136z" />
    <glyph glyph-name="uni06F0" unicode="&#x6f0;" horiz-adv-x="459" 
d="M65 191v51q0 29 11 54.5t30 44.5t44.5 30t54.5 11h49q29 0 54.5 -11t44.5 -30t30 -44.5t11 -54.5v-51q0 -28 -11 -53.5t-30 -44.5t-44.5 -30t-54.5 -11h-49q-29 0 -54.5 11t-44.5 30t-30 44.5t-11 53.5zM137 243v-47q0 -26 18.5 -44.5t44.5 -18.5h59q27 0 45.5 18.5
t18.5 44.5v47q0 27 -18.5 45t-45.5 18h-59q-26 0 -44.5 -18t-18.5 -45z" />
    <glyph glyph-name="uni06F1" unicode="&#x6f1;" horiz-adv-x="250" 
d="M143 669l13 -68q19 -92 19 -189v-412h-68v413q0 47 -5 92.5t-14 91.5l-13 59z" />
    <glyph glyph-name="uni06F2" unicode="&#x6f2;" horiz-adv-x="526" 
d="M143 669l4 -16q3 -16 8 -40.5t10 -55.5t7 -61q2 -25 23.5 -41t47.5 -16h147v228h72v-220q0 -40 -24.5 -65t-65.5 -25h-117q-23 0 -42.5 8t-36.5 29v-394h-69v413q0 47 -5 92.5t-14 91.5l-13 59z" />
    <glyph glyph-name="uni06F3" unicode="&#x6f3;" horiz-adv-x="696" 
d="M143 669q0 -1 3.5 -16t8 -39t9 -54t7.5 -62q0 -9 5 -19.5t14 -19.5t22 -14.5t30 -5.5h14q29 0 51 18t27 45l32 159l67 -13l-26 -133v-8q0 -24 18 -46t51 -22h89v228h69v-220q0 -40 -24 -65t-66 -25h-66q-34 0 -62 15t-46 43q-20 -28 -48 -43t-66 -15q-22 0 -43 8t-38 28
v-393h-68v413q0 47 -5 92.5t-14 91.5l-13 59z" />
    <glyph glyph-name="uni06F4" unicode="&#x6f4;" horiz-adv-x="630" 
d="M142 668q7 -32 15.5 -77.5t13.5 -93.5q5 -26 24.5 -43t45.5 -17h44q-7 12 -10 27l-2 10q-2 10 -4 23.5t-4.5 27t-4.5 21.5q-2 13 -2 25q0 18 6.5 40t24.5 43.5t44 34.5t56 13h134l-1 -74h-141q-29 0 -42.5 -18t-13.5 -37q0 -6 1 -12l23 -120l58 5q34 3 67 6q39 4 80 9
l11 -69q-16 -2 -53.5 -8t-83.5 -12t-93 -10.5t-83 -4.5q-21 0 -40.5 7t-36.5 24v-388h-69v412q0 60 -9.5 122.5t-21.5 121.5z" />
    <glyph glyph-name="uni06F5" unicode="&#x6f5;" horiz-adv-x="682" 
d="M89 301q19 58 49.5 107.5t70 92.5t80.5 81l-38 35l45 57l108 -97q32 -29 68.5 -68t68 -89t52 -111t20.5 -135q0 -36 -9.5 -67.5t-28 -55t-47 -37.5t-67.5 -14q-38 0 -66 15.5t-54 45.5q-26 -30 -54.5 -45.5t-65.5 -15.5q-40 0 -68.5 14t-47 38t-27 55.5t-8.5 66.5
q0 69 19 127zM142 173q0 -37 16.5 -64.5t56.5 -27.5h12q29 0 51 18t29 50l22 93l70 -12l-21 -89q3 -10 10 -20.5t17.5 -19.5t23.5 -14.5t26 -5.5h12q41 0 57.5 27t16.5 65q0 61 -13.5 109t-39.5 90t-63 81t-84 82q-45 -43 -81.5 -83t-62.5 -82t-40.5 -90t-14.5 -107z" />
    <glyph glyph-name="uni06F6" unicode="&#x6f6;" horiz-adv-x="585" 
d="M75 32l205 291q-10 0 -25.5 7.5t-23.5 13.5l-103 79q-25 20 -35.5 46t-10.5 51q0 4 1 20.5t14.5 44.5t37.5 47l114 89l35 -51l-115 -97q-20 -17 -21 -31t-1 -16q0 -23 19 -38l150 -112q52 75 118 139l50 47l53 -49l-44 -42q-19 -18 -33.5 -33t-28 -30.5t-27.5 -34
t-32 -43.5l-234 -338z" />
    <glyph glyph-name="uni06F7" unicode="&#x6f7;" horiz-adv-x="569" 
d="M97 673q42 -66 78 -143q32 -66 63 -153.5t47 -185.5q15 98 46 185.5t63 153.5q37 77 80 143l59 -48q-50 -77 -93 -174q-18 -41 -36.5 -90.5t-35 -106.5t-29.5 -120.5t-20 -132.5h-67q-17 146 -52.5 261t-71.5 196q-42 95 -90 167z" />
    <glyph glyph-name="uni06F8" unicode="&#x6f8;" horiz-adv-x="569" 
d="M38 48q48 72 90 167q36 81 71.5 196t52.5 261h67q7 -69 20 -132.5t29.5 -120.5t35 -106.5t36.5 -90.5q43 -97 93 -174l-59 -48q-43 66 -80 144q-32 66 -63 153t-46 185q-16 -98 -47 -185t-63 -153q-36 -78 -78 -144z" />
    <glyph glyph-name="uni06F9" unicode="&#x6f9;" horiz-adv-x="488" 
d="M48 469l17 91q9 47 45 76.5t84 29.5h56q29 0 54.5 -11t44.5 -29.5t30 -44t11 -54.5v-271v-16q0 -39 4.5 -80.5t14.5 -87.5l12 -60l-68 -12l-14 67q-10 48 -14.5 95t-4.5 95l1 63q-6 -3 -15.5 -5.5t-22.5 -2.5h-106q-31 0 -57.5 12.5t-44.5 34t-24 43.5t-6 39q0 14 3 28z
M117 434q3 -12 10.5 -21t18 -14.5t23.5 -5.5h152v134q0 28 -19 45.5t-45 17.5h-65q-23 0 -40 -14t-22 -36l-15 -81q-1 -4 -1 -9q0 -8 3 -16z" />
    <glyph glyph-name="uni200C" unicode="&#x200c;" horiz-adv-x="333" 
 />
    <glyph glyph-name="endash" unicode="&#x2013;" horiz-adv-x="650" 
d="M75 232v72h500v-72h-500z" />
    <glyph glyph-name="emdash" unicode="&#x2014;" horiz-adv-x="1150" 
d="M75 232v72h1000v-72h-1000z" />
    <glyph glyph-name="quoteleft" unicode="&#x2018;" horiz-adv-x="211" 
d="M40 482l67 223h64l-44 -223h-87z" />
    <glyph glyph-name="quoteright" unicode="&#x2019;" horiz-adv-x="211" 
d="M40 482l44 222h87l-66 -222h-65z" />
    <glyph glyph-name="quotesinglbase" unicode="&#x201a;" horiz-adv-x="185" 
d="M40 -110l66 223h65l-45 -223h-86z" />
    <glyph glyph-name="quotedblleft" unicode="&#x201c;" horiz-adv-x="368" 
d="M263 705h65l-44 -223h-88zM40 482l67 223h64l-44 -223h-87z" />
    <glyph glyph-name="quotedblright" unicode="&#x201d;" horiz-adv-x="368" 
d="M241 705h87l-67 -222h-65zM40 483l44 222h87l-66 -222h-65z" />
    <glyph glyph-name="quotedblbase" unicode="&#x201e;" horiz-adv-x="368" 
d="M40 -110l66 223h65l-45 -223h-86zM197 -110l66 223h65l-45 -223h-86z" />
    <glyph glyph-name="dagger" unicode="&#x2020;" horiz-adv-x="559" 
d="M237 500v190h82v-190h165v-72h-165l-5 -503h-72l-5 503h-165v72h165z" />
    <glyph glyph-name="daggerdbl" unicode="&#x2021;" horiz-adv-x="560" 
d="M72 500h165v190h83v-190h164v-72h-164v-242h165v-71h-165v-190h-83v190h-165v71h165v242h-165v72z" />
    <glyph glyph-name="bullet" unicode="&#x2022;" horiz-adv-x="428" 
d="M339 109h-250v288h250v-288z" />
    <glyph glyph-name="ellipsis" unicode="&#x2026;" horiz-adv-x="746" 
d="M78 108h82v-108h-82v108zM331 108h82v-108h-82v108zM587 108h81v-108h-81v108z" />
    <glyph glyph-name="guilsinglleft" unicode="&#x2039;" horiz-adv-x="273" 
d="M40 280l193 145v-84l-122 -92l122 -103v-85l-193 154v65z" />
    <glyph glyph-name="guilsinglright" unicode="&#x203a;" horiz-adv-x="273" 
d="M233 281v-65l-193 -153v85l122 102l-122 92v84z" />
    <glyph glyph-name="fraction" unicode="&#x2044;" horiz-adv-x="126" 
d="M-169 2l-40 26l392 632l41 -27z" />
    <glyph glyph-name="Euro" unicode="&#x20ac;" horiz-adv-x="636" 
d="M75 226v64h60v94h-60v65h64q6 60 22.5 103.5t44.5 71.5t70 41.5t99 13.5q45 0 90.5 -6.5t94.5 -17.5l-2 -67q-47 8 -90 12t-82 4q-40 0 -68.5 -8.5t-47.5 -27t-30 -48t-16 -71.5h280v-65h-285v-94h285v-64h-280q9 -83 45.5 -122.5t116.5 -39.5q40 0 82.5 4.5t89.5 12.5
l3 -70q-99 -21 -185 -21q-116 0 -170 59t-68 177h-63z" />
    <glyph glyph-name="trademark" unicode="&#x2122;" horiz-adv-x="659" 
d="M302 331v301h76l63 -202l68 202h74v-301h-56v218l-62 -202h-45l-62 202v-218h-56zM72 632h200v-54h-63v-246h-59v246h-78v54z" />
    <glyph glyph-name="minus" unicode="&#x2212;" horiz-adv-x="579" 
d="M75 214v75h429v-75h-429z" />
    <glyph glyph-name="uniFBB2" unicode="&#xfbb2;" 
d="M275 1v84h85v-83z" />
    <glyph glyph-name="uniFBB3" unicode="&#xfbb3;" 
d="M276 -85l-1 85h85v-85h-84z" />
    <glyph glyph-name="uniFBB4" unicode="&#xfbb4;" 
d="M349 85h85v-85h-85v85zM297 85v-85h-85v85h85z" />
    <glyph glyph-name="uniFBB5" unicode="&#xfbb5;" 
d="M349 0h85v-85h-85v85zM297 0v-85h-85v85h85z" />
    <glyph glyph-name="uniFBB6" unicode="&#xfbb6;" 
d="M347 85h85v-85h-85v85zM361 207v-85h-85v85h85zM295 85v-85h-85v85h85z" />
    <glyph glyph-name="uniFBB7" unicode="&#xfbb7;" 
d="M349 0h85v-85h-85v85zM367 -122v-85h-85v85h85zM297 0v-85h-85v85h85z" />
    <glyph glyph-name="uniFBB7" unicode="&#xfbb9;" 
d="M349 0h85v-85h-85v85zM367 -122v-85h-85v85h85zM297 0v-85h-85v85h85z" />
    <glyph glyph-name="uniFEFF" unicode="&#xfeff;" horiz-adv-x="333" 
 />
    <glyph glyph-name="uniFE70FE7C" 
d="M-150 862h47v-74q0 -14 10.5 -24t24.5 -11h7q14 0 24.5 8.5t12.5 22.5l15 71l46 -8l-12 -62v-5q0 -11 9.5 -19t23.5 -8h43v113h47v-116q0 -50 -49 -50h-41q-36 2 -58 27q-11 -12 -28 -19.5t-35 -7.5q-36 0 -61.5 25.5t-25.5 62.5v74zM143 1020l11 -46l-301 -64l-8 46z
M-155 1074l298 64l11 -45l-301 -64z" />
    <glyph glyph-name="uniFB8E.alt" horiz-adv-x="1102" 
d="M144 348v-165q0 -44 28.5 -72.5t74.5 -28.5h662q26 0 44.5 18.5t18.5 44.5v67q0 28 -19.5 48t-48.5 20h-461l-50 47l262 307l50 -46l-198 -233h394q29 0 54.5 -11t44.5 -30t30 -44.5t11 -54.5v-75q0 -29 -11 -54.5t-30.5 -44.5t-44.5 -30t-54 -11h-644q-40 0 -73.5 14
t-57.5 38.5t-37.5 57.5t-13.5 71v167h69z" />
    <glyph glyph-name="uniFB8F.alt" horiz-adv-x="1152" 
d="M144 348v-165q0 -44 28.5 -72.5t74.5 -28.5h662q26 0 44.5 18.5t18.5 44.5v67q0 28 -19.5 48t-48.5 20h-461l-50 47l262 307l50 -46l-198 -233h394q29 0 54.5 -11t44.5 -30t30 -44.5t11 -54.5v-62q0 -30 21.5 -50.5t51.5 -20.5h38q6 0 10 -4.5t4 -10.5v-53q0 -14 -14 -14
h-26q-36 0 -66 16t-50 47q-40 -63 -109 -63h-644q-40 0 -73.5 14t-57.5 38.5t-37.5 57.5t-13.5 71v167h69z" />
    <glyph glyph-name="uniFB91.alt" horiz-adv-x="794" 
d="M-14 15v53q0 14 14 14h552q26 0 44.5 18.5t18.5 44.5v67q0 28 -20 48t-48 20h-462l-50 47l262 307l50 -46l-198 -233h394q29 0 55 -11t45 -30t30 -45t11 -55v-60q0 -30 21.5 -51t50.5 -21h38q6 0 10 -4.5t4 -9.5v-54v-2q0 -4 -4 -8t-10 -4h-25q-36 0 -66 16.5t-50 46.5
q-19 -31 -47.5 -47t-63.5 -16h-542q-7 0 -10.5 4.5t-3.5 10.5z" />
    <glyph glyph-name="uniFB90.alt" horiz-adv-x="744" 
d="M-14 15v53q0 14 14 14h552q26 0 44.5 18t18.5 45v67q0 28 -20 48t-48 20h-462l-50 47l262 307l50 -46l-198 -233h394q29 0 55 -11t45 -30t30 -45t11 -55v-74q0 -29 -11.5 -54.5t-31 -44.5t-45 -30t-54.5 -11h-542q-6 0 -10 4.5t-4 10.5z" />
    <glyph glyph-name="uniFB92.alt" horiz-adv-x="1102" 
d="M144 348v-165q0 -44 28.5 -72.5t74.5 -28.5h662q26 0 44.5 18.5t18.5 44.5v67q0 28 -19.5 48t-48.5 20h-461l-50 47l262 307l50 -46l-198 -233h394q29 0 54.5 -11t44.5 -30t30 -44.5t11 -54.5v-75q0 -29 -11 -54.5t-30.5 -44.5t-44.5 -30t-54 -11h-644q-40 0 -73.5 14
t-57.5 38.5t-37.5 57.5t-13.5 71v167h69zM349 445l202 238l38 -33l-201 -236z" />
    <glyph glyph-name="uniFB93.alt" horiz-adv-x="1152" 
d="M144 348v-165q0 -44 28.5 -72.5t74.5 -28.5h662q26 0 44.5 18.5t18.5 44.5v67q0 28 -19.5 48t-48.5 20h-461l-50 47l262 307l50 -46l-198 -233h394q29 0 54.5 -11t44.5 -30t30 -44.5t11 -54.5v-62q0 -30 21.5 -50.5t51.5 -20.5h38q6 0 10 -4.5t4 -10.5v-53q0 -14 -14 -14
h-26q-36 0 -66 16t-50 47q-40 -63 -109 -63h-644q-40 0 -73.5 14t-57.5 38.5t-37.5 57.5t-13.5 71v167h69zM551 683l38 -34l-201 -236l-37 32z" />
    <glyph glyph-name="uniFB95.alt" horiz-adv-x="857" 
d="M-14 68q0 14 14 14h614q26 0 44.5 18.5t18.5 44.5v67q0 28 -19.5 48t-48.5 20h-461l-51 47l263 307l49 -46l-197 -233h394q29 0 54.5 -11t44.5 -30t30 -45t11 -55v-60q0 -30 21.5 -51t51.5 -21h38q6 0 10 -4.5t4 -9.5v-54q0 -5 -4 -9.5t-10 -4.5h-26q-35 0 -65.5 16.5
t-50.5 46.5q-19 -31 -47.5 -47t-62.5 -16h-605q-7 0 -10.5 4.5t-3.5 10.5v53zM54 445l202 238l37 -33l-202 -237z" />
    <glyph glyph-name="uniFB94.alt" horiz-adv-x="808" 
d="M-14 68q0 14 14 14h615h3q24 0 41.5 18t17.5 45v67q0 28 -19.5 47.5t-48.5 19.5h-461l-51 48l263 307l49 -46l-197 -234h394q29 0 54.5 -11t44.5 -29.5t30 -44t11 -54.5v-75q0 -29 -11 -54.5t-30.5 -44.5t-45 -30t-54.5 -11h-605q-6 0 -10 4.5t-4 9.5v54zM55 444l202 239
l36 -33l-202 -237z" />
  </font>
</defs>
</svg>
